osu file format v9

[General]
AudioFilename: 35 - Stars And Slime Forever & End Titles.mp3
AudioLeadIn: 1985
PreviewTime: 22223
Countdown: 0
SampleSet: Soft
StackLeniency: 0.7
Mode: 0
LetterboxInBreaks: 0

[Editor]
Bookmarks: 158621
DistanceSpacing: 1.8
BeatDivisor: 4
GridSize: 8

[Metadata]
Title:Stars And Slime Forever & End Titles
Artist:Peter McConnell
Creator:Sushi
Version:Insane
Source:Day Of The Tentacle
Tags:Michael Land Clint Bajakia

[Difficulty]
HPDrainRate:7
CircleSize:4
OverallDifficulty:7
ApproachRate:8
SliderMultiplier:2.3
SliderTickRate:2

[Events]
//Background and Video events
0,0,"dott1.png"
//Break Periods
2,42335,52055
//Storyboard Layer 0 (Background)
//Storyboard Layer 1 (Fail)
//Storyboard Layer 2 (Pass)
//Storyboard Layer 3 (Foreground)
//Storyboard Sound Samples
//Background Colour Transformations
3,100,163,162,255

[TimingPoints]
494,444.444444444444,4,2,2,41,1,0
869,-100,4,1,1,79,0,0
1390,500,4,1,1,62,1,0
2485,571.428571428571,4,2,2,60,1,0
6520,468.75,4,2,1,100,1,0
11501,-100,4,1,1,100,0,0
11618,-100,4,2,1,100,0,0
13376,-100,4,1,1,100,0,0
13493,-100,4,2,1,100,0,0
16833,468.75,4,2,1,100,1,0
23688,-100,4,1,1,100,0,0
23805,-100,4,2,1,100,0,0
25563,-100,4,1,1,100,0,0
25680,-100,4,2,1,100,0,0
29020,468.75,4,2,1,100,1,0
34059,-100,4,2,1,19,0,0
34254,-100,4,2,1,34,0,0
34332,-100,4,2,1,47,0,0
34410,-100,4,2,1,58,0,0
34488,-100,4,2,1,69,0,0
34566,-100,4,2,1,79,0,0
34645,-100,4,2,2,100,0,0
41559,-100,4,2,1,29,0,0
41754,-100,4,2,1,48,0,0
41832,-100,4,2,1,57,0,0
41910,-100,4,2,1,65,0,0
41988,-100,4,2,1,78,0,0
42066,-100,4,2,1,87,0,0
42135,446.661207474131,4,2,2,58,1,0
52805,441.176470588235,4,1,1,100,1,0
56334,-100,4,2,2,51,0,0
56385,434.782608695652,4,2,1,100,1,0
59859,430.10752688172,4,2,1,100,1,0
63084,-100,4,2,1,40,0,0
63309,436.363636363636,4,2,1,100,1,0
69408,500,4,2,1,20,1,0
69627,-100,4,2,1,31,0,0
69844,-100,4,2,1,45,0,0
70062,-100,4,2,1,62,0,0
70300,430.632311777794,4,2,2,100,1,0
70418,-100,4,2,1,100,0,0
76974,-100,4,2,1,40,0,0
77208,437.956204379562,4,2,1,100,1,0
83339,-100,4,2,1,20,0,0
83570,-100,4,2,1,35,0,0
83788,-100,4,2,1,50,0,0
84005,-100,4,2,1,65,0,0
84187,434.782608695652,4,1,1,100,1,0
86940,-100,4,1,2,100,0,0
87375,-100,4,1,1,100,0,0
88695,-100,4,1,2,100,0,0
89114,-100,4,1,1,100,0,0
91723,-100,4,1,2,100,0,0
92157,-100,4,1,1,100,0,0
93462,-100,4,1,2,100,0,0
93896,-100,4,1,1,100,0,0
98095,436.046511627907,4,1,1,100,1,0
98095,-200,4,1,1,100,0,0
101723,-100,4,1,2,100,0,0
102157,-100,4,1,1,100,0,0
104331,-100,4,1,2,100,0,0
104766,-100,4,1,1,100,0,0
106070,-100,4,1,2,100,0,0
106505,-100,4,1,1,100,0,0
112036,422.535211267606,4,1,1,100,1,0
113726,476.190476190476,4,1,1,100,1,0
114678,483.870967741935,4,2,1,49,1,0
115155,483.870967741935,4,2,1,31,1,0
115631,535.714285714286,4,2,2,47,1,0
117773,600,4,1,1,44,1,0
119573,-100,4,1,1,37,0,0
119921,-133.333333333333,4,1,1,51,0,0

[HitObjects]
120,56,494,1,4
392,56,938,1,0
368,304,1390,2,0,B|256:352|144:304,1,230
256,192,2485,12,4,4627
120,176,6520,6,0,B|176:288,1,115,4|0
392,208,6988,2,0,B|336:96,1,115,4|0
342,276,7457,2,0,B|240:328,1,115,4|0
169,107,7926,2,0,B|272:56,1,115,12|0
256,192,8395,5,6
256,192,8629,1,2
256,192,8863,2,0,B|152:240,1,115,4|0
256,104,9332,2,0,B|360:152,1,115,4|0
256,288,9801,1,12
80,288,10035,5,0
72,280,10152,1,0
64,272,10270,2,0,B|16:240|16:168,1,115,6|2
176,48,10738,1,4
160,256,10973,1,0
328,136,11207,2,0,B|368:88|432:88,1,115,4|0
440,88,11559,1,0
448,88,11676,1,4
448,296,11910,5,0
448,296,12145,2,0,B|408:352|344:328,1,115,6|2
256,144,12613,1,4
160,328,12848,1,0
192,120,13082,2,0,B|216:64|296:64|320:120,1,115,4|0
306,100,13434,1,0
320,120,13551,1,12
256,320,13785,5,0
256,320,13902,1,0
256,320,14020,2,0,B|256:200,1,115,6|2
112,56,14488,1,4
56,256,14723,1,0
256,320,14957,6,0,B|328:304|384:272,1,115,4|0
256,64,15426,2,0,B|184:80|128:112,1,115,4|0
256,336,15895,6,0,B|328:320|384:288,1,115,6|2
256,48,16363,2,0,B|184:64|128:96,1,115,4|0
256,192,16832,5,4
408,56,17067,2,0,B|464:56,2,57.5,2|0|4
256,192,17536,2,0,B|192:192,2,57.5,2|0|4
408,328,18004,2,0,B|464:328,2,57.5,2|0|4
256,192,18473,1,2
144,56,18708,6,0,B|256:8|368:56,1,230,4|4
256,344,19528,1,2
256,360,19645,1,4
80,256,19879,1,2
144,56,20114,2,0,B|192:32|280:32,1,115,4|2
264,32,20465,1,2
272,32,20583,1,4
408,192,20817,5,2
240,304,21051,1,4
224,96,21286,1,2
408,192,21520,2,0,B|512:232|464:352|368:312,1,230,4|4
128,168,22223,5,0
120,176,22340,1,0
112,184,22458,2,0,B|80:240|112:296,1,115,6|2
256,144,22926,1,4
401,293,23161,1,0
448,96,23395,2,0,B|448:168|392:192,1,115,4|0
382,201,23747,1,0
367,207,23864,1,4
192,96,24098,5,0
192,96,24333,2,0,B|136:112|112:176,1,115,6|2
256,328,24801,1,4
256,120,25036,1,0
328,312,25270,2,0,B|384:296|408:232,1,115,4|0
408,216,25622,1,0
408,200,25739,1,12
256,56,25973,5,0
64,136,26208,2,0,B|32:192|32:248,1,115,6|2
240,256,26676,1,4
256,56,26911,1,0
104,192,27145,6,0,B|124:253|165:290,1,115,4|0
256,40,27614,2,0,B|194:60|157:101,1,115,4|0
408,192,28083,6,0,B|387:130|346:93,1,115,6|2
256,344,28551,2,0,B|317:323|354:282,1,115,4|0
256,192,29020,5,4
112,336,29254,2,0,B|40:360,2,57.5,2|0|4
64,136,29723,2,0,B|-8:120,2,57.5,2|0|4
256,56,30191,2,0,B|224:8,2,57.5,2|0|4
448,136,30660,1,2
368,328,30895,6,0,B|256:376|144:328,1,230,4|4
256,40,31715,1,2
256,24,31832,1,4
432,128,32066,1,2
368,328,32301,2,0,B|320:352|232:352,1,115,4|2
248,352,32652,1,0
240,352,32770,1,4
104,192,33004,5,2
272,80,33238,1,4
288,288,33473,1,2
104,192,33707,2,0,B|80:152|88:112|128:88,1,115,4|2
256,248,34176,6,0,B|256:288,5,38.3333333333333,10|8|8|10|8|8
256,286,34645,5,6
256,128,34879,1,0
408,80,35113,1,8
256,128,35348,1,0
104,80,35582,1,2
256,128,35816,1,0
256,284,36051,2,0,B|256:328,2,38.3333333333333,8|0|0
488,192,36520,5,2
488,206,36637,1,0
482,219,36754,1,0
474,231,36871,1,0
463,241,36988,2,0,B|424:280|352:288,1,115,8|0
49,143,37457,2,0,B|88:104|160:96,1,115,2|0
256,360,37926,2,0,B|304:312|208:264|248:200,1,172.5,8|0
254,180,38395,5,2
416,72,38629,1,0
216,24,38863,2,0,B|181:23|112:24|88:128,1,172.5,8|0
86,133,39332,1,2
256,320,39566,1,0
426,133,39801,5,8
426,118,39918,1,0
419,105,40035,1,0
411,92,40152,1,0
400,81,40270,6,0,B|352:40|288:72,1,115,2|0
280,80,40621,1,0
272,92,40738,1,8
152,264,40973,1,0
360,264,41207,1,2
168,192,41441,1,0
328,328,41676,2,8,B|360:360,5,38.3333333333333
355,355,42135,5,4
256,64,52805,5,2
256,96,52952,1,0
256,128,53099,1,0
256,160,53246,2,0,B|256:319,1,153.333333333333,2|0
256,344,53687,1,2
256,344,53907,1,2
88,192,54349,5,0
160,104,54569,2,0,B|248:72|336:72,1,172.5,2|0
376,104,55010,2,0,B|359:196|315:272,1,172.5,2|0
264,288,55452,2,0,B|192:227|148:151,1,172.5,2|0
112,112,55893,2,0,B|80:72,5,38.3333333333333
88,82,56334,5,4
320,40,56602,2,0,B|456:40,1,115,0|2
256,144,57037,2,0,B|352:240,1,115
136,192,57471,2,0,B|136:320,1,115,0|2
0,144,57906,1,0
200,88,58124,5,0
408,88,58341,1,0
240,208,58558,1,2
304,8,58776,1,0
368,208,58993,5,0
200,328,59211,1,2
408,328,59428,1,2
240,208,59645,1,0
120,40,59859,6,0,B|-16:40,1,115,0|0
184,144,60289,2,0,B|88:240,1,115,2|0
304,192,60719,2,0,B|272:264|312:288|336:296|360:288|400:264|368:192,1,230,0|2
256,24,61364,1,0
256,192,61579,12,0,63084
256,88,63309,6,0,B|376:88,1,115,2|8
385,88,63636,1,8
399,88,63745,1,8
456,296,63963,1,0
256,296,64181,6,0,B|136:296,1,115,2|8
127,296,64509,1,8
113,296,64618,1,8
56,88,64836,1,0
232,192,65054,5,2
432,128,65272,1,8
439,140,65381,1,8
443,153,65490,1,8
344,336,65709,1,0
144,272,65927,5,2
133,261,66036,1,0
122,250,66145,1,8
111,239,66254,1,8
100,228,66363,1,10
72,24,66581,1,8
256,120,66799,6,0,B|336:144|400:104|488:120,2,230,2|8|2
256,328,67890,1,8
256,342,67999,1,8
256,356,68109,1,8
128,192,68327,5,0
256,28,68545,1,2
384,192,68763,1,0
369,192,68872,1,0
354,192,68981,1,0
128,192,69199,1,0
256,352,69408,2,8,B|256:304,10,38.3333333333333
256,313,70300,5,4
176,176,70515,1,0
336,176,70730,1,2
160,136,70945,1,0
352,136,71161,1,0
144,96,71376,1,0
368,96,71591,1,2
256,312,71807,5,0
104,256,72022,2,0,B|56:208|48:152,1,115
232,248,72453,2,0,B|169:222|139:174,1,115,2|0
352,192,72883,2,0,B|284:193|238:160,1,115
64,48,73314,1,2
104,256,73529,1,0
400,336,73745,6,0,B|488:248|456:120,1,230,0|2
112,48,74606,2,0,B|24:136|56:264,1,230,0|2
256,192,75252,12,0,76975
368,48,77208,6,0,B|407:88|448:128,1,115,2|8
256,48,77645,2,0,B|336:128,1,115,8|0
144,48,78083,2,0,B|224:128,1,115,2|8
32,48,78521,2,0,B|112:128,1,115,8|8
240,320,78959,5,2
385,162,79178,1,8
358,374,79397,1,8
255,187,79616,1,0
448,278,79835,1,2
456,72,80054,1,8
256,16,80273,1,8
56,72,80492,1,8
256,120,80711,6,0,B|336:144|400:104|488:120,2,230,10|2|10
256,328,81806,1,8
256,342,81916,1,8
256,356,82025,1,8
128,192,82244,5,0
256,28,82463,1,0
384,192,82682,1,0
369,192,82791,1,0
354,192,82901,1,0
128,192,83120,1,0
256,352,83339,2,0,B|256:296,11,38.3333333333333
256,313,84187,6,0,B|152:256,1,115
256,64,84621,2,0,B|360:121,1,115
256,296,85056,6,0,B|152:238,1,115
256,40,85491,2,0,B|360:97,1,115
368,103,85817,5,2
380,109,85926,1,0
504,160,86252,1,2
498,172,86360,1,0
432,280,86687,1,0
420,274,86795,1,2
256,112,87013,5,8
256,32,87230,1,2
420,274,87556,5,2
432,280,87665,1,0
498,172,87991,1,0
504,160,88100,1,2
380,109,88426,1,2
368,103,88534,1,0
256,304,88752,5,2
256,384,88969,1,8
128,80,89295,5,2
122,93,89404,1,0
392,96,89730,1,0
398,109,89839,1,0
96,144,90165,1,0
90,157,90273,1,2
424,160,90600,1,2
430,173,90708,1,0
256,376,91034,5,0
256,360,91143,2,0,B|256:200,1,115,0|8
256,232,91469,1,8
256,216,91578,1,8
200,8,91795,5,2
312,8,92013,1,2
72,256,92447,6,0,B|72:352|184:368,1,172.5
192,368,92882,2,0,B|256:368|304:336|312:272|256:208,1,230,2|0
312,8,93534,5,8
200,8,93752,2,0,B|72:8|64:160,1,230,8|0
112,360,94404,1,2
128,368,94513,1,0
144,360,94621,1,0
438,360,94839,2,0,B|400:360,3,38.3333333333333
256,192,95273,5,0
256,192,95382,1,0
256,192,95491,1,2
256,24,96360,5,0
256,88,96795,1,0
256,152,97230,1,0
256,216,97665,1,2
256,280,98095,6,0,B|256:352|181:365|104:352|104:280,1,230
256,152,99403,1,2
256,280,99693,1,0
256,280,99766,1,0
256,280,99839,6,0,B|256:352|331:365|408:352|408:280|408:280|408:208|333:198,1,345
256,136,101365,1,2
256,136,101474,1,0
256,136,101583,1,0
208,368,101801,5,8
304,368,102019,2,0,B|368:368|416:336,1,115,8|0
256,328,102455,2,0,B|320:328|368:296,1,115
208,296,102891,2,0,B|272:296|320:264,1,115
329,257,103218,5,2
339,246,103327,1,0
352,120,103654,1,2
362,109,103763,1,0
256,40,104090,1,0
266,29,104199,1,2
256,256,104417,5,8
256,256,104635,1,2
256,40,104962,5,2
246,29,105071,1,0
160,120,105398,1,0
150,109,105507,1,2
183,257,105834,1,2
173,246,105943,1,0
256,72,106161,5,2
256,72,106379,1,8
400,320,106706,5,0
406,307,106815,2,0,B|448:272|448:200|400:152,1,172.5,2|0
393,148,107251,2,0,B|344:112|288:112|232:168,1,172.5,2|0
229,174,107688,2,0,B|208:216|152:256|80:224,1,172.5,2|0
68,219,108124,6,0,B|16:200|-8:128|40:72,1,172.5,2|0
45,62,108560,2,0,B|88:16|152:16,1,115,2|8
161,16,108887,1,8
175,16,108996,2,0,B|240:16|320:16|400:64,1,230,10|2
32,288,109868,6,0,B|72:352|184:368,1,172.5,2|0
192,368,110304,2,0,B|256:368|336:368|440:328,3,230,2|2|2|2
448,136,111830,5,2
432,128,111939,1,0
416,136,112036,1,0
256,279,112247,1,0
256,264,112352,1,0
256,249,112458,2,0,B|256:113,1,115,2|0
128,272,112881,2,0,B|96:152,1,115
384,272,113303,2,0,B|416:152,1,115,2|2
256,336,113726,5,0
256,280,114202,1,0
256,224,114678,2,0,B|256:136,3,57.5,2|8|2|2
256,112,115155,2,0,B|256:48,3,57.5,2|8|2|2
256,54,115631,1,4
256,192,115764,12,0,119573
256,336,120173,6,0,B|304:336|336:312,1,86.2499974295498,2|0
432,208,120773,1,0
464,72,121073,1,0
160,40,121373,6,0,B|136:80|152:128,1,86.2499974295498,2|0
216,248,121973,1,0
352,272,122273,1,0
128,344,122573,6,0,B|80:344|48:312,2,86.2499974295498,2|0|0
264,352,123473,1,0
384,176,123773,6,0,B|432:176|464:144,2,86.2499974295498,2|0|0
248,184,124673,1,0
152,296,124973,5,2
296,256,125273,1,0
248,120,125573,1,0
104,176,125873,1,0
190,307,126173,5,2
307,214,126473,1,0
210,108,126773,1,0
104,224,127073,1,0
288,336,127373,6,0,B|376:336,1,86.2499974295498,2|0
480,232,127973,2,0,B|392:232,1,86.2499974295498
224,336,128573,6,0,B|136:336,1,86.2499974295498,2|0
32,232,129173,2,0,B|120:232,1,86.2499974295498,0|0
328,64,129773,5,2
184,64,130073,1,0
328,64,130373,1,0
184,64,130673,1,0
388,150,130973,5,2
283,249,131273,1,0
388,150,131573,1,0
283,249,131873,1,0
56,192,132173,5,2
104,24,132473,1,0
232,136,132773,1,0
392,72,133073,1,0
456,232,133373,5,2
352,368,133673,1,0
192,296,133973,1,2
128,136,134273,1,0
256,192,134573,12,2,139373
