osu file format v12

[General]
AudioFilename: tutorial.mp3
AudioLeadIn: 0
PreviewTime: 36102
Countdown: 0
SampleSet: Normal
StackLeniency: 0.7
Mode: 3
LetterboxInBreaks: 0

[Editor]
DistanceSpacing: 0.8
BeatDivisor: 3
GridSize: 32

[Metadata]
Title:osu! tutorial
TitleUnicode:osu! tutorial
Artist:Peter Lambert
ArtistUnicode:Peter Lambert
Creator:popner
Version:8K Basics
Source:
Tags:
BeatmapID:225861
BeatmapSetID:77753

[Difficulty]
HPDrainRate:5
CircleSize:8
OverallDifficulty:7
ApproachRate:5
SliderMultiplier:1.4
SliderTickRate:1

[Events]
//Background and Video events
0,0,"bg.jpg",0,0
//Break Periods
//Storyboard Layer 0 (Background)
//Storyboard Layer 1 (Fail)
//Storyboard Layer 2 (Pass)
//Storyboard Layer 3 (Foreground)
//Storyboard Sound Samples
//Background Colour Transformations
3,100,163,162,255

[TimingPoints]
280,374.125481686558,4,1,0,50,1,0
96056,-100,4,1,0,25,0,0
106531,-100,4,1,0,50,0,0
108028,-100,4,1,0,25,0,0
108776,-100,4,1,0,50,0,0
109524,-100,4,1,0,25,0,0
110272,-100,4,1,0,50,0,0
111021,-100,4,1,0,25,0,0
111769,-100,4,1,0,50,0,0
112517,-100,4,1,0,25,0,0
118503,-100,4,1,0,50,0,0
119626,-100,4,1,0,30,0,0

[HitObjects]
352,192,18238,5,0,0:0:0:0:
224,192,18986,128,0,19360:0:0:0:0:
416,192,19734,5,0,0:0:0:0:
160,192,20482,128,0,20856:0:0:0:0:
480,192,21231,5,0,0:0:0:0:
96,192,21979,128,0,22353:0:0:0:0:
288,192,22727,5,0,0:0:0:0:
32,192,23475,5,4,1:2:0:0:
288,192,24224,5,0,0:0:0:0:
288,192,24598,5,0,0:0:0:0:
224,192,24972,5,0,0:0:0:0:
224,192,25346,5,0,0:0:0:0:
352,192,25720,5,0,0:0:0:0:
352,192,26094,5,0,0:0:0:0:
160,192,26468,5,0,0:0:0:0:
160,192,26842,5,0,0:0:0:0:
416,192,27217,5,0,0:0:0:0:
416,192,27591,5,0,0:0:0:0:
96,192,27965,5,0,0:0:0:0:
96,192,28339,5,0,0:0:0:0:
480,192,28713,5,0,0:0:0:0:
480,192,29087,5,0,0:0:0:0:
32,192,29461,5,4,1:2:0:0:
32,192,29835,5,4,1:2:0:0:
224,192,30210,5,0,0:0:0:0:
224,192,30584,5,0,0:0:0:0:
224,192,30958,5,0,0:0:0:0:
224,192,31332,5,0,0:0:0:0:
352,192,31706,5,0,0:0:0:0:
352,192,32080,5,0,0:0:0:0:
352,192,32454,5,0,0:0:0:0:
352,192,32828,5,0,0:0:0:0:
160,192,33203,5,0,0:0:0:0:
160,192,33577,5,0,0:0:0:0:
416,192,33951,5,0,0:0:0:0:
416,192,34325,5,0,0:0:0:0:
288,192,34699,5,0,0:0:0:0:
288,192,35073,5,0,0:0:0:0:
32,192,35447,5,4,1:2:0:0:
32,192,35821,5,4,1:2:0:0:
224,192,36196,5,0,0:0:0:0:
160,192,36570,1,0,0:0:0:0:
224,192,36944,5,0,0:0:0:0:
160,192,37318,5,0,0:0:0:0:
352,192,37692,1,0,0:0:0:0:
416,192,38066,1,0,0:0:0:0:
352,192,38440,1,0,0:0:0:0:
416,192,38814,1,0,0:0:0:0:
224,192,39189,1,0,0:0:0:0:
160,192,39563,1,0,0:0:0:0:
224,192,39937,1,0,0:0:0:0:
160,192,40311,1,0,0:0:0:0:
480,192,40685,1,0,0:0:0:0:
416,192,41059,1,0,0:0:0:0:
352,192,41433,1,0,0:0:0:0:
32,192,41807,1,4,1:2:0:0:
224,192,42182,1,0,0:0:0:0:
96,192,42556,1,0,0:0:0:0:
224,192,42930,1,0,0:0:0:0:
96,192,43304,1,0,0:0:0:0:
352,192,43678,1,0,0:0:0:0:
480,192,44052,1,0,0:0:0:0:
352,192,44426,1,0,0:0:0:0:
480,192,44800,1,0,0:0:0:0:
224,192,45175,1,0,0:0:0:0:
352,192,45549,1,0,0:0:0:0:
224,192,45923,1,0,0:0:0:0:
352,192,46297,1,0,0:0:0:0:
224,192,46671,1,0,0:0:0:0:
160,192,47045,1,0,0:0:0:0:
96,192,47419,1,0,0:0:0:0:
32,192,47793,1,4,1:2:0:0:
288,192,48168,1,0,0:0:0:0:
288,192,48542,1,0,0:0:0:0:
288,192,48916,1,0,0:0:0:0:
96,192,49290,1,0,0:0:0:0:
288,192,49664,1,0,0:0:0:0:
288,192,50038,1,0,0:0:0:0:
288,192,50412,1,0,0:0:0:0:
448,192,50786,1,0,0:0:0:0:
160,192,51161,1,0,0:0:0:0:
416,192,51535,1,0,0:0:0:0:
160,192,51909,1,0,0:0:0:0:
416,192,52283,1,0,0:0:0:0:
96,192,52657,1,0,0:0:0:0:
160,192,53031,1,0,0:0:0:0:
224,192,53405,1,0,0:0:0:0:
32,192,53779,1,4,1:2:0:0:
192,192,54154,1,0,0:0:0:0:
352,192,54528,1,0,0:0:0:0:
192,192,54902,5,0,0:0:0:0:
352,192,55276,5,0,0:0:0:0:
160,192,55650,5,0,0:0:0:0:
416,192,56024,5,0,0:0:0:0:
160,192,56398,5,0,0:0:0:0:
416,192,56772,5,0,0:0:0:0:
64,192,57147,5,0,0:0:0:0:
480,192,57521,5,0,0:0:0:0:
96,192,57895,5,0,0:0:0:0:
480,192,58269,5,0,0:0:0:0:
288,192,58643,1,0,0:0:0:0:
288,192,59017,1,0,0:0:0:0:
288,192,59391,1,0,0:0:0:0:
288,192,59765,5,0,0:0:0:0:
32,192,60140,5,4,1:2:0:0:
352,192,60514,128,0,60888:0:0:0:0:
224,192,61262,5,0,0:0:0:0:
352,192,61636,5,0,0:0:0:0:
224,192,62010,128,0,62384:0:0:0:0:
352,192,62758,5,0,0:0:0:0:
32,192,63133,5,4,1:2:0:0:
352,192,63507,128,0,63881:0:0:0:0:
224,192,64255,5,0,0:0:0:0:
352,192,64629,5,0,0:0:0:0:
224,192,65003,5,0,0:0:0:0:
352,192,65377,5,0,0:0:0:0:
224,192,65751,5,0,0:0:0:0:
32,192,66126,1,4,1:2:0:0:
416,192,66500,1,0,0:0:0:0:
160,192,66874,1,0,0:0:0:0:
416,192,67248,1,0,0:0:0:0:
160,192,67622,1,0,0:0:0:0:
416,192,67996,1,0,0:0:0:0:
160,192,68370,1,0,0:0:0:0:
416,192,68744,1,0,0:0:0:0:
32,192,69119,1,4,1:2:0:0:
480,192,69493,1,0,0:0:0:0:
96,192,69867,128,0,70241:0:0:0:0:
480,192,70615,128,0,70989:0:0:0:0:
96,192,71363,1,0,0:0:0:0:
480,192,71737,1,0,0:0:0:0:
32,192,72112,5,4,1:2:0:0:
288,192,72486,5,0,0:0:0:0:
288,192,72860,5,0,0:0:0:0:
288,192,73234,5,0,0:0:0:0:
224,192,73608,5,0,0:0:0:0:
224,192,73982,5,0,0:0:0:0:
352,192,74356,5,0,0:0:0:0:
352,192,74730,5,0,0:0:0:0:
32,192,75105,5,4,1:2:0:0:
160,192,75479,5,0,0:0:0:0:
160,192,75853,5,0,0:0:0:0:
160,192,76227,5,0,0:0:0:0:
480,192,76601,5,0,0:0:0:0:
416,192,76975,5,0,0:0:0:0:
352,192,77349,5,0,0:0:0:0:
352,192,77723,1,0,0:0:0:0:
32,192,78098,1,4,1:2:0:0:
288,192,78846,128,0,79220:0:0:0:0:
224,192,79594,128,0,79968:0:0:0:0:
352,192,80342,128,0,80716:0:0:0:0:
32,192,81091,1,4,1:2:0:0:
160,192,81839,128,0,82213:0:0:0:0:
480,192,82587,128,0,82961:0:0:0:0:
96,192,83335,128,0,83709:0:0:0:0:
32,192,84084,128,4,84458:1:2:0:0:
96,192,84832,128,0,85206:0:0:0:0:
32,192,85580,128,4,85954:1:2:0:0:
160,192,86328,128,0,86702:0:0:0:0:
32,192,87077,128,4,87451:1:2:0:0:
224,192,87825,128,0,88199:0:0:0:0:
32,192,88573,128,4,88947:1:2:0:0:
160,192,89321,128,0,89695:0:0:0:0:
32,192,90070,128,4,90444:1:2:0:0:
480,192,90818,128,0,91192:0:0:0:0:
32,192,91566,128,4,91940:1:2:0:0:
416,192,92314,128,0,92688:0:0:0:0:
32,192,93063,128,4,93437:1:2:0:0:
352,192,93811,128,0,94185:0:0:0:0:
32,192,94559,128,4,94933:1:2:0:0:
416,192,95307,128,0,95681:0:0:0:0:
32,192,96056,5,4,1:2:0:0:
224,192,96056,1,0,0:0:0:0:
32,192,96804,5,4,1:2:0:0:
224,192,96804,1,0,0:0:0:0:
32,192,97552,5,4,1:2:0:0:
224,192,97552,1,0,0:0:0:0:
32,192,98300,5,4,1:2:0:0:
224,192,98300,1,0,0:0:0:0:
32,192,99049,5,4,1:2:0:0:
352,192,99049,1,0,0:0:0:0:
32,192,99797,5,4,1:2:0:0:
352,192,99797,1,0,0:0:0:0:
224,192,100545,5,0,0:0:0:0:
352,192,100545,1,0,0:0:0:0:
416,192,101293,5,0,0:0:0:0:
160,192,101293,1,0,0:0:0:0:
32,192,102042,5,4,1:2:0:0:
96,192,102042,1,0,0:0:0:0:
32,192,102790,5,4,1:2:0:0:
480,192,102790,1,0,0:0:0:0:
32,192,103538,5,4,1:2:0:0:
96,192,103538,1,0,0:0:0:0:
32,192,104286,5,4,1:2:0:0:
480,192,104286,1,0,0:0:0:0:
32,192,105035,1,4,1:2:0:0:
96,192,105035,1,0,0:0:0:0:
32,192,105783,5,4,1:2:0:0:
480,192,105783,1,0,0:0:0:0:
96,192,106531,5,0,0:0:0:0:
480,192,107279,5,0,0:0:0:0:
224,192,108028,5,0,0:0:0:0:
352,192,108028,1,0,0:0:0:0:
416,192,108402,5,0,0:0:0:0:
160,192,108402,1,0,0:0:0:0:
32,192,108776,1,4,0:0:0:0:
32,192,109150,5,4,0:0:0:0:
224,192,109524,1,0,0:0:0:0:
352,192,109524,1,0,0:0:0:0:
160,192,109898,1,0,0:0:0:0:
416,192,109898,1,0,0:0:0:0:
32,192,110272,1,4,0:0:0:0:
32,192,110647,1,4,0:0:0:0:
192,192,111021,1,0,0:0:0:0:
352,192,111021,1,0,0:0:0:0:
160,192,111395,1,0,0:0:0:0:
416,192,111395,1,0,0:0:0:0:
32,192,111769,1,4,0:0:0:0:
32,192,112143,1,4,0:0:0:0:
352,192,112517,1,0,0:0:0:0:
224,192,112517,1,0,0:0:0:0:
416,192,112891,1,0,0:0:0:0:
160,192,112891,1,0,0:0:0:0:
480,192,113265,1,0,0:0:0:0:
96,192,113265,1,0,0:0:0:0:
480,192,113640,1,0,0:0:0:0:
96,192,113640,1,0,0:0:0:0:
160,192,114014,1,0,0:0:0:0:
224,192,114014,1,0,0:0:0:0:
416,192,114388,1,0,0:0:0:0:
352,192,114388,1,0,0:0:0:0:
160,192,114762,1,0,0:0:0:0:
224,192,114762,1,0,0:0:0:0:
416,192,115136,1,0,0:0:0:0:
352,192,115136,1,0,0:0:0:0:
64,192,115510,1,0,0:0:0:0:
160,192,115510,1,0,0:0:0:0:
480,192,115884,1,0,0:0:0:0:
416,192,115884,1,0,0:0:0:0:
64,192,116258,1,0,0:0:0:0:
160,192,116258,1,0,0:0:0:0:
480,192,116633,1,0,0:0:0:0:
416,192,116633,1,0,0:0:0:0:
160,192,117007,1,0,0:0:0:0:
224,192,117007,1,0,0:0:0:0:
352,192,117381,1,0,0:0:0:0:
416,192,117381,1,0,0:0:0:0:
160,192,117755,1,0,0:0:0:0:
224,192,117755,1,0,0:0:0:0:
416,192,118129,1,0,0:0:0:0:
352,192,118129,1,0,0:0:0:0:
352,192,118503,1,0,0:0:0:0:
352,192,118877,1,0,0:0:0:0:
352,192,119251,1,0,0:0:0:0:
32,192,119626,1,4,1:2:0:0:
352,192,119626,1,0,0:0:0:0:
