osu file format v12

[General]
AudioFilename: tutorial.mp3
AudioLeadIn: 0
PreviewTime: 36102
Countdown: 0
SampleSet: Normal
StackLeniency: 0.7
Mode: 3
LetterboxInBreaks: 0

[Editor]
DistanceSpacing: 0.8
BeatDivisor: 3
GridSize: 32

[Metadata]
Title:osu! tutorial
TitleUnicode:osu! tutorial
Artist:Peter Lambert
ArtistUnicode:Peter Lambert
Creator:popner
Version:7K Basics
Source:
Tags:
BeatmapID:225860
BeatmapSetID:77753

[Difficulty]
HPDrainRate:5
CircleSize:7
OverallDifficulty:7
ApproachRate:5
SliderMultiplier:1.4
SliderTickRate:1

[Events]
//Background and Video events
0,0,"bg.jpg",0,0
//Break Periods
//Storyboard Layer 0 (Background)
//Storyboard Layer 1 (Fail)
//Storyboard Layer 2 (Pass)
//Storyboard Layer 3 (Foreground)
//Storyboard Sound Samples
//Background Colour Transformations
3,100,163,162,255

[TimingPoints]
280,374.125481686558,4,1,0,50,1,0
108028,-100,4,1,0,25,0,0
112517,-100,4,1,0,50,0,0
114014,-100,4,1,0,25,0,0
118503,-100,4,1,0,50,0,0
119626,-100,4,1,0,20,0,0

[HitObjects]
192,192,18238,5,0,0:0:0:0:
320,192,18986,128,0,19360:0:0:0:0:
192,192,19734,5,0,0:0:0:0:
320,192,20482,128,0,20856:0:0:0:0:
192,192,21231,5,0,0:0:0:0:
320,192,21979,128,0,22353:0:0:0:0:
64,192,22727,5,0,0:0:0:0:
475,192,23475,5,4,1:2:0:0:
192,192,24224,5,0,0:0:0:0:
192,192,24598,5,0,0:0:0:0:
182,192,24972,5,0,0:0:0:0:
182,192,25346,5,0,0:0:0:0:
329,192,25720,5,0,0:0:0:0:
329,192,26094,5,0,0:0:0:0:
320,192,26468,5,0,0:0:0:0:
320,192,26842,5,0,0:0:0:0:
109,192,27217,5,0,0:0:0:0:
109,192,27591,5,0,0:0:0:0:
402,192,27965,5,0,0:0:0:0:
402,192,28339,5,0,0:0:0:0:
64,192,28713,5,0,0:0:0:0:
36,192,29087,5,0,0:0:0:0:
475,192,29461,5,4,1:2:0:0:
448,192,29835,5,4,1:2:0:0:
109,192,30210,5,0,0:0:0:0:
109,192,30584,5,0,0:0:0:0:
109,192,30958,5,0,0:0:0:0:
109,192,31332,5,0,0:0:0:0:
402,192,31706,5,0,0:0:0:0:
402,192,32080,5,0,0:0:0:0:
402,192,32454,5,0,0:0:0:0:
402,192,32828,5,0,0:0:0:0:
182,192,33203,5,0,0:0:0:0:
182,192,33577,5,0,0:0:0:0:
329,192,33951,5,0,0:0:0:0:
329,192,34325,5,0,0:0:0:0:
256,192,34699,5,0,0:0:0:0:
256,192,35073,5,0,0:0:0:0:
256,192,35447,5,4,1:2:0:0:
256,192,35821,5,4,1:2:0:0:
64,192,36196,5,0,0:0:0:0:
192,192,36570,1,0,0:0:0:0:
64,192,36944,5,0,0:0:0:0:
192,192,37318,5,0,0:0:0:0:
192,192,37692,1,0,0:0:0:0:
320,192,38066,1,0,0:0:0:0:
192,192,38440,1,0,0:0:0:0:
320,192,38814,1,0,0:0:0:0:
320,192,39189,1,0,0:0:0:0:
448,192,39563,1,0,0:0:0:0:
320,192,39937,1,0,0:0:0:0:
448,192,40311,1,0,0:0:0:0:
448,192,40685,1,0,0:0:0:0:
320,192,41059,1,0,0:0:0:0:
192,192,41433,1,4,1:2:0:0:
64,192,41807,1,4,1:2:0:0:
64,192,42182,1,0,0:0:0:0:
192,192,42556,1,0,0:0:0:0:
64,192,42930,1,0,0:0:0:0:
192,192,43304,1,0,0:0:0:0:
320,192,43678,1,0,0:0:0:0:
192,192,44052,1,0,0:0:0:0:
320,192,44426,1,0,0:0:0:0:
192,192,44800,1,0,0:0:0:0:
320,192,45175,1,0,0:0:0:0:
448,192,45549,1,0,0:0:0:0:
320,192,45923,1,0,0:0:0:0:
448,192,46297,1,0,0:0:0:0:
448,192,46671,1,0,0:0:0:0:
320,192,47045,1,0,0:0:0:0:
192,192,47419,1,0,0:0:0:0:
64,192,47793,1,4,1:2:0:0:
256,192,48168,1,0,0:0:0:0:
109,192,48542,1,0,0:0:0:0:
256,192,48916,1,0,0:0:0:0:
402,192,49290,1,0,0:0:0:0:
256,192,49664,1,0,0:0:0:0:
109,192,50038,1,0,0:0:0:0:
256,192,50412,1,0,0:0:0:0:
402,192,50786,1,0,0:0:0:0:
256,192,51161,1,0,0:0:0:0:
109,192,51535,1,0,0:0:0:0:
256,192,51909,1,0,0:0:0:0:
402,192,52283,1,0,0:0:0:0:
64,192,52657,1,0,0:0:0:0:
192,192,53031,1,0,0:0:0:0:
320,192,53405,1,0,0:0:0:0:
448,192,53779,1,4,1:2:0:0:
192,192,54154,1,0,0:0:0:0:
320,192,54528,1,0,0:0:0:0:
256,192,54902,128,0,55276:0:0:0:0:
109,192,55650,5,0,0:0:0:0:
402,192,56024,5,0,0:0:0:0:
256,192,56398,128,0,56772:0:0:0:0:
64,192,57147,5,0,0:0:0:0:
475,192,57521,5,0,0:0:0:0:
256,192,57895,128,0,58269:0:0:0:0:
448,192,58643,1,0,0:0:0:0:
320,192,59017,1,0,0:0:0:0:
192,192,59391,1,0,0:0:0:0:
64,192,59765,5,0,0:0:0:0:
36,192,60140,5,4,1:2:0:0:
192,192,60514,5,0,0:0:0:0:
64,192,60888,5,0,0:0:0:0:
320,192,61262,5,0,0:0:0:0:
64,192,61636,5,0,0:0:0:0:
448,192,62010,5,0,0:0:0:0:
64,192,62384,5,0,0:0:0:0:
320,192,62758,5,0,0:0:0:0:
64,192,63133,5,4,1:2:0:0:
192,192,63507,5,0,0:0:0:0:
64,192,63881,5,0,0:0:0:0:
320,192,64255,5,0,0:0:0:0:
64,192,64629,5,0,0:0:0:0:
192,192,65003,5,0,0:0:0:0:
320,192,65377,5,0,0:0:0:0:
448,192,65751,5,0,0:0:0:0:
256,192,66126,5,4,1:2:0:0:
329,192,66500,5,0,0:0:0:0:
256,192,66874,5,0,0:0:0:0:
182,192,67248,5,0,0:0:0:0:
256,192,67622,5,0,0:0:0:0:
402,192,67996,5,0,0:0:0:0:
256,192,68370,5,0,0:0:0:0:
109,192,68744,5,0,0:0:0:0:
256,192,69119,5,4,1:2:0:0:
475,192,69493,5,0,0:0:0:0:
256,192,69867,5,0,0:0:0:0:
36,192,70241,5,0,0:0:0:0:
64,192,70615,5,0,0:0:0:0:
192,192,70989,5,0,0:0:0:0:
320,192,71363,5,0,0:0:0:0:
448,192,71737,5,0,0:0:0:0:
64,192,72112,5,4,1:2:0:0:
64,192,72486,5,0,0:0:0:0:
192,192,72860,5,0,0:0:0:0:
192,192,73234,5,0,0:0:0:0:
320,192,73608,5,0,0:0:0:0:
320,192,73982,5,0,0:0:0:0:
448,192,74356,5,0,0:0:0:0:
448,192,74730,5,0,0:0:0:0:
109,192,75105,5,4,1:2:0:0:
109,192,75479,5,0,0:0:0:0:
402,192,75853,5,0,0:0:0:0:
402,192,76227,5,0,0:0:0:0:
256,192,76601,128,0,77349:0:0:0:0:
256,192,77723,1,0,0:0:0:0:
64,192,78098,1,4,1:2:0:0:
192,192,78472,1,0,0:0:0:0:
320,192,78846,1,0,0:0:0:0:
448,192,79220,1,0,0:0:0:0:
64,192,79594,1,0,0:0:0:0:
192,192,79968,1,0,0:0:0:0:
320,192,80342,1,0,0:0:0:0:
448,192,80716,1,0,0:0:0:0:
36,192,81091,1,4,1:2:0:0:
192,192,81465,1,0,0:0:0:0:
320,192,81839,5,0,0:0:0:0:
448,192,82213,5,0,0:0:0:0:
64,192,82587,5,0,0:0:0:0:
192,192,82961,5,0,0:0:0:0:
320,192,83335,1,0,0:0:0:0:
448,192,83709,5,0,0:0:0:0:
64,192,84084,128,4,84458:1:2:0:0:
448,192,84832,128,0,85206:0:0:0:0:
109,192,85580,128,4,85954:1:2:0:0:
402,192,86328,128,0,86702:0:0:0:0:
192,192,87077,128,4,87451:1:2:0:0:
320,192,87825,128,0,88199:0:0:0:0:
109,192,88573,128,4,88947:1:2:0:0:
402,192,89321,128,0,89695:0:0:0:0:
64,192,90070,128,4,90444:1:2:0:0:
402,192,90818,128,0,91192:0:0:0:0:
182,192,91566,128,4,91940:1:2:0:0:
256,192,92314,128,0,92688:0:0:0:0:
475,192,93063,128,4,93437:1:2:0:0:
109,192,93811,128,0,94185:0:0:0:0:
329,192,94559,128,4,94933:1:2:0:0:
256,192,95307,128,0,95681:0:0:0:0:
64,192,96056,5,4,1:2:0:0:
192,192,96430,5,4,1:2:0:0:
320,192,96804,5,4,1:2:0:0:
448,192,97178,5,4,1:2:0:0:
475,192,97552,5,4,1:2:0:0:
329,192,97926,5,4,1:2:0:0:
182,192,98300,5,4,1:2:0:0:
36,192,98675,5,4,1:2:0:0:
64,192,99049,5,4,1:2:0:0:
192,192,99423,5,4,1:2:0:0:
320,192,99797,5,4,1:2:0:0:
448,192,100171,5,4,1:2:0:0:
448,192,100545,5,0,0:0:0:0:
320,192,100919,5,0,0:0:0:0:
192,192,101293,5,0,0:0:0:0:
64,192,101668,5,0,0:0:0:0:
64,192,102042,5,4,1:2:0:0:
109,192,102416,5,4,1:2:0:0:
182,192,102790,5,4,1:2:0:0:
256,192,103164,5,4,1:2:0:0:
329,192,103538,5,4,1:2:0:0:
402,192,103912,5,4,1:2:0:0:
475,192,104286,5,4,1:2:0:0:
402,192,104661,5,4,1:2:0:0:
329,192,105035,1,4,1:2:0:0:
256,192,105409,5,4,1:2:0:0:
182,192,105783,5,4,1:2:0:0:
109,192,106157,5,4,1:2:0:0:
36,192,106531,128,0,107654:0:0:0:0:
192,192,108028,5,0,0:0:0:0:
320,192,108028,1,0,0:0:0:0:
402,192,108402,5,0,0:0:0:0:
109,192,108402,1,0,0:0:0:0:
192,192,108776,1,0,0:0:0:0:
320,192,108776,1,0,0:0:0:0:
109,192,109150,5,0,0:0:0:0:
402,192,109150,1,0,0:0:0:0:
192,192,109524,1,0,0:0:0:0:
320,192,109524,1,0,0:0:0:0:
64,192,109898,1,0,0:0:0:0:
448,192,109898,1,0,0:0:0:0:
192,192,110272,1,0,0:0:0:0:
320,192,110272,1,0,0:0:0:0:
64,192,110647,1,0,0:0:0:0:
448,192,110647,1,0,0:0:0:0:
109,192,111021,1,0,0:0:0:0:
402,192,111021,1,0,0:0:0:0:
64,192,111395,1,0,0:0:0:0:
448,192,111395,1,0,0:0:0:0:
109,192,111769,1,0,0:0:0:0:
402,192,111769,1,0,0:0:0:0:
64,192,112143,1,0,0:0:0:0:
448,192,112143,1,0,0:0:0:0:
256,192,112517,128,0,113640:0:0:0:0:
109,192,114014,1,0,0:0:0:0:
192,192,114014,1,0,0:0:0:0:
320,192,114388,1,0,0:0:0:0:
402,192,114388,1,0,0:0:0:0:
109,192,114762,1,0,0:0:0:0:
192,192,114762,1,0,0:0:0:0:
320,192,115136,1,0,0:0:0:0:
402,192,115136,1,0,0:0:0:0:
36,192,115510,1,0,0:0:0:0:
192,192,115510,1,0,0:0:0:0:
320,192,115884,1,0,0:0:0:0:
448,192,115884,1,0,0:0:0:0:
64,192,116258,1,0,0:0:0:0:
192,192,116258,1,0,0:0:0:0:
320,192,116633,1,0,0:0:0:0:
448,192,116633,1,0,0:0:0:0:
64,192,117007,1,0,0:0:0:0:
109,192,117007,1,0,0:0:0:0:
402,192,117381,1,0,0:0:0:0:
448,192,117381,1,0,0:0:0:0:
64,192,117755,1,0,0:0:0:0:
109,192,117755,1,0,0:0:0:0:
402,192,118129,1,0,0:0:0:0:
448,192,118129,1,0,0:0:0:0:
256,192,118503,1,0,0:0:0:0:
256,192,118877,1,0,0:0:0:0:
256,192,119251,1,0,0:0:0:0:
256,192,119626,1,4,0:0:0:0:
182,192,119626,1,4,0:0:0:0:
329,192,119626,1,4,0:0:0:0:
