osu file format v12

[General]
AudioFilename: tutorial.mp3
AudioLeadIn: 0
PreviewTime: 36102
Countdown: 0
SampleSet: Normal
StackLeniency: 0.7
Mode: 3
LetterboxInBreaks: 0

[Editor]
DistanceSpacing: 0.8
BeatDivisor: 4
GridSize: 32

[Metadata]
Title:osu! tutorial
TitleUnicode:osu! tutorial
Artist:Peter Lambert
ArtistUnicode:Peter Lambert
Creator:popner
Version:5K Basics
Source:
Tags:
BeatmapID:218189
BeatmapSetID:77753

[Difficulty]
HPDrainRate:5
CircleSize:5
OverallDifficulty:7
ApproachRate:5
SliderMultiplier:1.4
SliderTickRate:1

[Events]
//Background and Video events
0,0,"bg.jpg",0,0
//Break Periods
//Storyboard Layer 0 (Background)
//Storyboard Layer 1 (Fail)
//Storyboard Layer 2 (Pass)
//Storyboard Layer 3 (Foreground)
//Storyboard Sound Samples
//Background Colour Transformations
3,100,163,162,255

[TimingPoints]
280,374.125481686558,4,1,0,50,1,0
96056,-100,4,1,0,25,0,0
100545,-100,4,1,0,50,0,0
102042,-100,4,1,0,25,0,0
112517,-100,4,1,0,50,0,0
114014,-100,4,1,0,25,0,0
118503,-100,4,1,0,50,0,0
119626,-100,4,1,0,20,0,0

[HitObjects]
256,192,18238,5,0,0:0:0:0:
51,192,18986,128,0,19360:0:0:0:0:
256,192,19734,5,0,0:0:0:0:
153,192,20482,128,0,20856:0:0:0:0:
256,192,21231,5,0,0:0:0:0:
358,192,21979,128,0,22353:0:0:0:0:
460,192,22727,128,0,23101:0:0:0:0:
51,192,23475,128,4,23849:1:2:0:0:
51,192,24224,5,0,0:0:0:0:
51,192,24598,5,0,0:0:0:0:
51,192,24972,5,0,0:0:0:0:
51,192,25346,1,0,0:0:0:0:
460,192,25720,5,0,0:0:0:0:
460,192,26094,5,0,0:0:0:0:
460,192,26468,5,0,0:0:0:0:
460,192,26842,5,0,0:0:0:0:
153,192,27217,5,0,0:0:0:0:
153,192,27591,5,0,0:0:0:0:
153,192,27965,5,0,0:0:0:0:
153,192,28339,5,0,0:0:0:0:
358,192,28713,1,0,0:0:0:0:
358,192,29087,1,0,0:0:0:0:
256,192,29461,1,4,1:2:0:0:
256,192,29835,5,4,1:2:0:0:
256,192,30210,5,0,0:0:0:0:
256,192,30584,5,0,0:0:0:0:
153,192,30958,5,0,0:0:0:0:
51,192,31332,5,0,0:0:0:0:
256,192,31706,5,0,0:0:0:0:
256,192,32080,5,0,0:0:0:0:
358,192,32454,5,0,0:0:0:0:
460,192,32828,5,0,0:0:0:0:
256,192,33203,5,0,0:0:0:0:
256,192,33577,5,0,0:0:0:0:
153,192,33951,5,0,0:0:0:0:
51,192,34325,5,0,0:0:0:0:
51,192,34699,1,0,0:0:0:0:
153,192,35073,1,0,0:0:0:0:
358,192,35447,1,4,1:2:0:0:
460,192,35821,1,4,1:2:0:0:
256,192,36196,128,0,36570:0:0:0:0:
358,192,36944,128,0,37318:0:0:0:0:
460,192,37692,128,0,38066:0:0:0:0:
358,192,38440,128,0,38814:0:0:0:0:
460,192,39189,128,0,39563:0:0:0:0:
358,192,39937,128,0,40311:0:0:0:0:
256,192,40685,128,0,41807:0:0:0:0:
256,192,42182,128,0,42556:0:0:0:0:
153,192,42930,128,0,43304:0:0:0:0:
51,192,43678,128,0,44052:0:0:0:0:
153,192,44426,128,0,44800:0:0:0:0:
51,192,45175,128,0,45549:0:0:0:0:
153,192,45923,128,0,46297:0:0:0:0:
256,192,46671,128,0,47793:0:0:0:0:
51,192,48168,128,0,48542:0:0:0:0:
460,192,48916,128,0,49290:0:0:0:0:
153,192,49664,128,0,50038:0:0:0:0:
358,192,50412,128,0,50786:0:0:0:0:
51,192,51161,128,0,51535:0:0:0:0:
460,192,51909,128,0,52283:0:0:0:0:
256,192,52657,128,0,53779:0:0:0:0:
153,192,54154,128,0,54528:0:0:0:0:
358,192,54902,128,0,55276:0:0:0:0:
460,192,55650,128,0,56024:0:0:0:0:
51,192,56398,128,0,56772:0:0:0:0:
153,192,57147,128,0,57521:0:0:0:0:
358,192,57895,128,0,58269:0:0:0:0:
256,192,58643,128,0,59765:0:0:0:0:
153,192,60140,1,4,1:2:0:0:
153,192,60514,5,0,0:0:0:0:
51,192,60888,5,0,0:0:0:0:
51,192,61262,5,0,0:0:0:0:
153,192,61636,1,0,0:0:0:0:
153,192,62010,1,0,0:0:0:0:
64,192,62384,5,0,0:0:0:0:
51,192,62758,1,0,0:0:0:0:
358,192,63133,1,4,1:2:0:0:
358,192,63507,1,0,0:0:0:0:
460,192,63881,1,0,0:0:0:0:
460,192,64255,1,0,0:0:0:0:
256,192,64629,1,0,0:0:0:0:
256,192,65377,1,0,0:0:0:0:
153,192,66126,5,4,1:2:0:0:
51,192,66500,5,0,0:0:0:0:
153,192,66874,5,0,0:0:0:0:
51,192,67248,5,0,0:0:0:0:
358,192,67622,5,0,0:0:0:0:
460,192,67996,5,0,0:0:0:0:
358,192,68370,5,0,0:0:0:0:
460,192,68744,5,0,0:0:0:0:
153,192,69119,5,4,1:2:0:0:
51,192,69493,5,0,0:0:0:0:
153,192,69867,5,0,0:0:0:0:
51,192,70241,5,0,0:0:0:0:
256,192,70615,5,0,0:0:0:0:
256,192,71363,5,0,0:0:0:0:
64,192,72112,5,4,1:2:0:0:
64,192,72486,5,0,0:0:0:0:
192,192,72860,5,0,0:0:0:0:
192,192,73234,5,0,0:0:0:0:
320,192,73608,5,0,0:0:0:0:
320,192,73982,5,0,0:0:0:0:
448,192,74356,5,0,0:0:0:0:
448,192,74730,5,0,0:0:0:0:
64,192,75105,5,4,1:2:0:0:
64,192,75479,5,0,0:0:0:0:
448,192,75853,5,0,0:0:0:0:
448,192,76227,5,0,0:0:0:0:
256,192,76601,5,0,0:0:0:0:
256,192,76975,5,0,0:0:0:0:
256,192,77349,5,0,0:0:0:0:
256,192,77723,1,0,0:0:0:0:
64,192,78098,1,4,1:2:0:0:
192,192,78472,1,0,0:0:0:0:
320,192,78846,1,0,0:0:0:0:
448,192,79220,1,0,0:0:0:0:
64,192,79594,1,0,0:0:0:0:
192,192,79968,1,0,0:0:0:0:
320,192,80342,1,0,0:0:0:0:
448,192,80716,1,0,0:0:0:0:
64,192,81091,1,4,1:2:0:0:
192,192,81465,1,0,0:0:0:0:
320,192,81839,5,0,0:0:0:0:
448,192,82213,5,0,0:0:0:0:
256,192,82587,5,0,0:0:0:0:
256,192,82961,1,0,0:0:0:0:
256,192,83335,1,0,0:0:0:0:
256,192,83709,5,0,0:0:0:0:
51,192,84084,128,4,84458:1:2:0:0:
448,192,84832,128,0,85206:0:0:0:0:
64,192,85580,128,4,85954:1:2:0:0:
448,192,86328,128,0,86702:0:0:0:0:
192,192,87077,128,4,87451:1:2:0:0:
320,192,87825,128,0,88199:0:0:0:0:
153,192,88573,128,4,88947:1:2:0:0:
320,192,89321,128,0,89695:0:0:0:0:
51,192,90070,128,0,90444:0:0:0:0:
192,192,90818,128,0,91192:0:0:0:0:
320,192,91566,128,4,91940:1:2:0:0:
448,192,92314,128,0,92688:0:0:0:0:
64,192,93063,128,4,93437:1:2:0:0:
320,192,93811,128,0,94185:0:0:0:0:
192,192,94559,128,0,94933:0:0:0:0:
448,192,95307,128,0,95681:0:0:0:0:
153,192,96056,5,4,1:2:0:0:
358,192,96056,1,4,1:2:0:0:
460,192,96804,5,4,1:2:0:0:
51,192,96804,1,4,1:2:0:0:
153,192,97552,5,4,1:2:0:0:
358,192,97552,1,4,1:2:0:0:
51,192,98300,5,4,1:2:0:0:
460,192,98300,1,4,1:2:0:0:
153,192,99049,5,4,1:2:0:0:
358,192,99049,1,4,1:2:0:0:
51,192,99797,5,4,1:2:0:0:
460,192,99797,1,4,1:2:0:0:
256,192,100545,5,0,0:0:0:0:
256,192,100919,5,0,0:0:0:0:
256,192,101293,5,0,0:0:0:0:
256,192,101668,5,0,0:0:0:0:
51,192,102042,5,4,1:2:0:0:
256,192,102042,1,4,1:2:0:0:
256,192,102790,5,4,1:2:0:0:
460,192,102790,1,4,1:2:0:0:
256,192,103538,5,4,1:2:0:0:
51,192,103538,5,4,1:2:0:0:
256,192,104286,5,4,1:2:0:0:
460,192,104286,1,4,1:2:0:0:
153,192,105035,1,4,1:2:0:0:
256,192,105035,1,4,1:2:0:0:
256,192,105783,5,4,1:2:0:0:
358,192,105783,1,4,1:2:0:0:
256,192,106531,5,0,0:0:0:0:
153,192,106531,1,0,0:0:0:0:
256,192,107279,5,0,0:0:0:0:
358,192,107279,1,0,0:0:0:0:
192,192,108028,5,0,0:0:0:0:
320,192,108028,1,0,0:0:0:0:
448,192,108402,5,0,0:0:0:0:
64,192,108402,1,0,0:0:0:0:
192,192,108776,1,0,0:0:0:0:
320,192,108776,1,0,0:0:0:0:
64,192,109150,5,0,0:0:0:0:
448,192,109150,1,0,0:0:0:0:
192,192,109524,1,0,0:0:0:0:
320,192,109524,1,0,0:0:0:0:
64,192,109898,1,0,0:0:0:0:
448,192,109898,1,0,0:0:0:0:
192,192,110272,1,0,0:0:0:0:
320,192,110272,1,0,0:0:0:0:
64,192,110647,1,0,0:0:0:0:
448,192,110647,1,0,0:0:0:0:
192,192,111021,1,0,0:0:0:0:
320,192,111021,1,0,0:0:0:0:
64,192,111395,1,0,0:0:0:0:
448,192,111395,1,0,0:0:0:0:
192,192,111769,1,0,0:0:0:0:
320,192,111769,1,0,0:0:0:0:
51,192,112143,1,0,0:0:0:0:
448,192,112143,1,0,0:0:0:0:
256,192,112517,1,0,0:0:0:0:
256,192,112891,1,0,0:0:0:0:
256,192,113265,1,0,0:0:0:0:
256,192,113640,1,0,0:0:0:0:
64,192,114014,1,0,0:0:0:0:
192,192,114014,1,0,0:0:0:0:
320,192,114388,1,0,0:0:0:0:
448,192,114388,1,0,0:0:0:0:
64,192,114762,1,0,0:0:0:0:
192,192,114762,1,0,0:0:0:0:
320,192,115136,1,0,0:0:0:0:
448,192,115136,1,0,0:0:0:0:
64,192,115510,1,0,0:0:0:0:
192,192,115510,1,0,0:0:0:0:
320,192,115884,1,0,0:0:0:0:
448,192,115884,1,0,0:0:0:0:
64,192,116258,1,0,0:0:0:0:
192,192,116258,1,0,0:0:0:0:
320,192,116633,1,0,0:0:0:0:
448,192,116633,1,0,0:0:0:0:
64,192,117007,1,0,0:0:0:0:
192,192,117007,1,0,0:0:0:0:
320,192,117381,1,0,0:0:0:0:
448,192,117381,1,0,0:0:0:0:
64,192,117755,1,0,0:0:0:0:
192,192,117755,1,0,0:0:0:0:
320,192,118129,1,0,0:0:0:0:
448,192,118129,1,0,0:0:0:0:
256,192,118503,1,0,0:0:0:0:
256,192,118877,1,0,0:0:0:0:
256,192,119251,1,0,0:0:0:0:
256,192,119626,1,4,1:2:0:0:
153,192,119626,1,4,0:0:0:0:
358,192,119626,1,4,0:0:0:0:
