osu file format v10

[General]
AudioFilename: 03. Haus am See.mp3
AudioLeadIn: 2000
PreviewTime: 61841
Countdown: 0
SampleSet: Soft
StackLeniency: 0.7
Mode: 0
LetterboxInBreaks: 0

[Editor]
Bookmarks: 85608,85851,86093,86336,86578,86821,87063,87306,202019,203474
DistanceSpacing: 0.8
BeatDivisor: 4
GridSize: 16

[Metadata]
Title:Haus am See
TitleUnicode:Haus am See
Artist:Peter Fox
ArtistUnicode:Peter Fox
Creator:Magicphoenix
Version:Orangenbaumblaetter
Source:
Tags:Stadtaffe p3n DarkDunskin Cold Steel Reggae
BeatmapID:166245
BeatmapSetID:40940

[Difficulty]
HPDrainRate:2
CircleSize:4
OverallDifficulty:2
ApproachRate:3
SliderMultiplier:1
SliderTickRate:1

[Events]
//Background and Video events
Video,-800,"Peter Fox - Haus am See (Official Video HD) [Lyrics in Description](360p_H.264-AAC).flv"
0,0,"Haus am See.jpg"
//Break Periods
2,78048,84168
2,155655,161290
2,186697,192818
//Storyboard Layer 0 (Background)
//Storyboard Layer 1 (Fail)
//Storyboard Layer 2 (Pass)
//Storyboard Layer 3 (Foreground)
//Storyboard Sound Samples
//Background Colour Transformations
3,100,163,162,255

[TimingPoints]
241,485.044462409054,4,2,1,70,1,0
7031,-100,4,1,0,60,0,0
8486,-100,4,2,1,70,0,0
14792,-100,4,1,0,60,0,0
15762,-100,4,1,0,50,0,0
16004,-100,4,2,1,50,0,0
30313,-100,4,1,0,60,0,0
31283,-100,4,2,1,70,0,0
45835,-100,4,1,0,60,0,0
46805,-100,4,2,1,70,0,0
60871,-100,4,1,0,60,0,0
62326,-100,4,2,1,70,0,1
77848,-100,4,2,1,70,0,0
92399,-100,4,1,0,60,0,0
92641,-100,4,2,1,70,0,0
92884,-100,4,1,0,60,0,0
93127,-100,4,2,1,70,0,0
107920,-100,4,1,0,70,0,0
108890,-100,4,2,1,70,0,0
123442,-100,4,1,0,60,0,0
124412,-100,4,2,1,70,0,0
137993,-100,4,1,0,60,0,0
139933,-100,4,2,1,70,0,1
155455,-100,4,2,1,70,0,0
163215,-100,4,2,1,70,0,1
178737,-100,4,2,1,70,0,0
185527,-100,4,1,0,60,0,1
186498,-100,4,2,1,70,0,0
209295,-100,4,2,1,80,0,0
210750,-100,4,2,1,90,0,0
211720,-100,4,2,1,100,0,0
212084,-100,4,2,1,70,0,0

[Colours]
Combo1 : 255,128,0
Combo2 : 10,95,188
Combo3 : 159,0,0
Combo4 : 185,185,185
Combo5 : 98,188,44

[HitObjects]
104,92,241,2,0,B|104:204,1,100,0|2,0:0|0:0,0:0:0
147,259,1211,2,0,B|179:319|227:319|275:319|307:259,1,200
387,256,2666,2,0,B|387:144,1,100,2|0,0:0|0:0,0:0:0
330,99,3636,1,2,0:0:0
273,42,4121,6,0,B|176:20|176:76|64:36,2,200
329,98,6546,2,0,B|392:175,1,100,2|0,0:0|0:0,0:0:0
353,245,7516,1,0,0:0:0
274,259,8001,5,4,0:0:0
197,247,8486,2,0,B|149:231|120:168|149:103|197:87,2,200,2|2|8,0:0|0:0|0:0,0:0:0
224,168,10911,2,2,B|317:137|317:204|429:159,1,200,2|0,0:0|0:0,0:0:0
408,80,12367,6,0,B|364:92|300:76|284:28|364:28|348:76|284:92|236:80,2,200,10|10|8,0:0|0:0|0:0,0:0:0
408,164,14792,2,0,B|393:209|330:238|265:209|249:161,1,200,0|4,0:0|0:0,0:0:0
168,176,16247,5,8,0:0:0
141,251,16732,2,0,B|103:266|61:243|52:208,1,100,0|8,0:0|0:0,0:0:0
93,146,17702,2,0,B|159:71,1,100,0|8,0:0|0:0,0:0:0
239,71,18672,2,0,B|248:128|336:160|400:96,1,200,0|8,0:0|0:0,0:0:0
456,152,20127,5,0,0:0:0
490,228,20612,2,0,B|312:336,1,200,8|8,0:0|0:0,0:0:0
249,292,22068,2,0,B|225:248|249:196,1,100,8|8,0:0|0:0,0:0:0
362,82,23523,6,0,B|386:126|362:178,1,100,0|8,0:0|0:0,0:0:0
293,132,24493,1,0,0:0:0
255,61,24978,2,0,B|140:61,1,100,8|0,0:0|0:0,0:0:0
79,36,25948,1,8,0:0:0
31,100,26433,1,0,0:0:0
104,132,26918,5,8,0:0:0
70,205,27403,2,0,B|78:263|132:276,1,100,0|8,0:0|0:0,0:0:0
164,203,28373,2,0,B|156:145|102:132,1,100,0|8,0:0|0:0,0:0:0
23,132,29343,2,0,B|24:29,1,100,0|8,0:0|0:0,0:0:0
104,32,30313,2,0,B|144:72|192:84|244:76|288:32,1,200,0|4,0:0|0:0,0:0:0
339,93,31768,6,0,B|404:174,2,100,8|8|8,0:0|0:0|0:0,0:0:0
284,145,33224,2,8,B|349:226,1,100,8|8,0:0|0:0,0:0:0
390,290,34194,5,8,0:0:0
310,290,34679,1,2,0:0:0
230,290,35164,1,8,0:0:0
153,269,35649,6,8,B|88:188,2,100,8|8|8,0:0|0:0|0:0,0:0:0
228,239,37105,2,8,B|168:168,2,75,10|2|2,0:0|0:0|0:0,0:0:0
380,191,38802,5,0,0:0:0
447,90,39529,2,8,B|503:112|517:183,2,100
379,46,40984,2,8,B|333:28|333:64|273:44,1,100
146,132,42439,6,8,B|192:114|192:150|252:130,1,100,8|8,0:0|0:0,0:0:0
280,203,43409,6,8,B|232:203|168:267|220:267|156:203|96:203,2,200
351,239,45835,2,0,B|391:203|403:155|391:107|351:59,1,200,0|4,0:0|0:0,0:0:0
272,60,47290,5,8,0:0:0
205,104,47775,1,8,0:0:0
138,148,48260,1,8,0:0:0
117,225,48745,2,8,B|98:285|149:334,1,100
209,285,49715,6,8,B|304:248|304:328|412:284,2,200,8|0|8,0:0|0:0|0:0,0:0:0
129,285,52140,2,8,B|74:292|42:344,2,100,8|8|8,0:0|0:0|0:0,0:0:0
170,216,53595,2,2,B|156:167|184:99|272:107|300:143,1,200,10|2,0:0|0:0,0:0:0
366,178,55051,6,0,B|488:184,1,100,8|0,0:0|0:0,0:0:0
465,102,56021,2,0,B|365:97,1,100,8|0,0:0|0:0,0:0:0
297,139,56991,2,8,B|224:144|224:144|196:120|152:104|104:144,1,200
109,219,58446,6,8,B|151:254|195:238|224:216|224:216|304:224,1,200
368,185,59901,1,8,0:0:0
447,185,60386,1,8,0:0:0
456,105,60871,6,0,B|344:105,1,100
299,161,61841,2,0,B|188:160,1,100,0|4,0:0|0:0,0:0:0
128,108,62811,6,8,B|124:168|80:196|24:176|24:176|4:248,1,200
27,304,64266,2,8,B|240:360,1,200,8|8,0:0|0:0,0:0:0
220,274,65722,2,0,B|263:248|263:176,1,100,8|8,0:0|0:0,0:0:0
241,111,66692,6,8,B|269:74|329:46|385:74|417:114,1,200
414,191,68147,2,8,B|386:228|326:256|270:228|238:188,1,200
240,110,69602,1,8,0:0:0
162,90,70087,6,0,B|58:114,1,100,8|8,0:0|0:0,0:0:0
64,192,71057,2,8,B|161:169,1,100
181,246,72027,2,8,B|108:263,2,75,8|0|0,0:0|0:0|0:0,0:0:0
256,160,73482,6,0,B|240:112|268:112|256:60,1,100,8|8,0:0|0:0,0:0:0
336,36,74452,6,8,B|376:72|384:124|376:176|308:220,1,200
256,165,75907,2,8,B|216:201|208:253|216:305|284:349,1,200
325,281,77363,6,0,B|364:317|439:288,1,100,2|0,0:0|0:0,0:0:0
184,224,85608,6,0,B|240:224|296:192|296:128|256:120|256:120|216:128|216:192|272:224|328:224,2,350,8|0|8,0:0|0:0|0:0,0:0:0
117,179,89489,1,8,0:0:0
177,72,90216,6,0,B|216:96|216:96|280:48|352:88|360:120|360:120|360:120,2,200,2|2|0,0:0|0:0|0:0,0:0:0
148,43,92399,2,0,B|40:216,1,200,0|4,0:0|0:0,0:0:0
72,288,93854,6,8,B|89:345|145:361|209:345|225:289,2,200
89,209,96279,2,0,B|88:96,2,100,2|2|2,0:0|0:0|0:0,0:0:0
163,181,97734,6,8,B|228:104,1,100
306,120,98705,2,8,B|324:168|376:184|376:184|428:168|452:120,2,200
380,96,101130,6,8,B|336:192|404:192|368:292,2,200
308,54,103555,2,8,B|257:32|201:44|161:84|165:148|169:148,1,200
188,221,105010,1,8,0:0:0
150,291,105495,6,8,B|111:279|88:242|104:198,2,100
229,291,106950,2,0,B|268:279|291:242|275:198,2,100,8|0|0,0:0|0:0|0:0,0:0:0
188,221,108405,1,0,0:0:0
188,141,108890,1,4,0:0:0
244,84,109376,6,8,B|288:60|340:76|364:124|356:172|332:200,2,200
175,42,111801,1,8,0:0:0
175,121,112286,1,8,0:0:0
175,200,112771,1,8,0:0:0
143,273,113256,6,8,B|153:303|137:331|117:343|85:339,2,100
220,294,114711,2,8,B|268:310|268:310|314:295,1,100
269,228,115681,1,8,0:0:0
269,148,116166,1,8,0:0:0
269,68,116651,1,8,0:0:0
339,106,117136,6,8,B|382:122|410:126|450:102|466:70|470:38|458:14|438:-10,2,200
263,78,119561,2,8,B|212:56|160:80,2,100
221,148,121017,6,8,B|198:208|142:212|90:208|66:140,2,200
278,205,123442,1,0,0:0:0
242,276,123927,1,0,0:0:0
279,346,124412,1,4,0:0:0
320,277,124897,6,8,B|100:276,1,200
120,356,126352,2,8,B|64:260|153:260|97:148,1,200
66,93,127807,1,8,0:0:0
145,93,128292,1,8,0:0:0
224,108,128777,6,8,B|269:117|277:161|272:192,1,100
329,240,129747,2,8,B|324:263|332:307|377:316,1,100
412,244,130717,2,8,B|234:357,1,200
162,351,132173,6,8,B|112:332|100:272|116:212|168:192,2,200
193,277,134598,1,8,0:0:0
258,322,135083,1,8,0:0:0
319,277,135568,1,8,0:0:0
256,228,136053,6,8,B|256:120,1,100,8|0,0:0|0:0,0:0:0
180,92,137023,2,0,B|180:192,1,100
192,272,137993,2,0,B|200:336|256:360|312:336|320:272,2,200,0|0|4,0:0|0:0|0:0,0:0:0
257,228,140418,6,8,B|297:181|265:117,1,100
215,77,141388,2,8,B|175:124|207:188,2,100
139,49,142844,2,8,B|92:9|28:41,1,100
63,111,143814,6,8,B|39:167|103:175|103:247|55:279|31:287|7:279,2,200
136,78,146239,2,8,B|252:52,2,100
175,147,147694,6,8,B|165:212|197:260|245:284|309:268,2,200
244,106,150119,2,8,B|283:148|338:131,1,100
308,55,151089,5,8,0:0:0
387,52,151574,6,8,B|419:164,1,100
338,173,152544,2,8,B|292:284,1,100
256,192,153515,12,8,155455,0:0:0
256,32,162730,5,0,0:0:0
256,111,163215,2,0,B|256:219,1,100,4|8,0:0|0:0,0:0:0
175,211,164186,2,0,B|121:236|136:312,1,100,0|8,0:0|0:0,0:0:0
211,280,165156,2,0,B|374:247,2,150,8|0|8,0:0|0:0|0:0,0:0:0
154,223,167096,6,8,B|142:186|142:186|166:162|178:130|162:102|146:70|102:74|82:86,2,200
176,302,169521,2,8,B|208:362|256:362|304:362|336:302,1,200
256,264,170976,6,8,B|216:168|296:168|256:64,2,200
322,216,173401,1,8,0:0:0
389,172,173886,1,0,0:0:0
394,250,174371,6,0,B|364:309|296:293,1,100,2|8,0:0|0:0,0:0:0
256,239,175342,2,0,B|208:264|160:248,1,100,8|8,0:0|0:0,0:0:0
142,169,176312,2,8,B|248:160,1,100
241,80,177282,2,8,B|186:59|144:83,2,100
318,56,178737,6,8,B|369:103|385:199|345:279|265:303,1,300
203,252,180677,2,0,B|113:194,2,100,2|2|2,0:0|0:0|0:0,0:0:0
203,331,182132,1,2,0:0:0
127,303,182617,6,8,B|76:256|60:160|100:80|180:56,1,300
256,88,184557,2,8,B|216:192|296:192|256:288,2,200,8|0|0,0:0|0:0|0:0,0:0:0
56,80,194258,6,0,B|72:64|104:56|144:88|96:152|176:184|208:176|224:160,1,200,2|0,0:0|0:0,0:0:0
256,104,195713,1,0,0:0:0
304,168,196198,2,0,B|320:168|352:184|432:152|384:88|424:56|456:64|472:80,1,200,2|0,0:0|0:0,0:0:0
256,48,198381,5,0,0:0:0
256,88,198624,2,0,B|256:200,1,100,0|2,0:0|0:0,0:0:0
297,256,199594,2,0,B|317:284|344:292|369:288|393:276,2,100,0|0|0,0:0|0:0|0:0,0:0:0
217,256,201049,2,0,B|197:284|170:292|145:288|121:276,1,100,2|0,0:0|0:0,0:0:0
144,200,202019,6,0,B|160:152|192:104|256:108|320:104|352:152|368:200,2,300
221,339,205899,5,2,0:0:0
294,307,206384,2,0,B|294:190,2,100,0|2|0,0:0|0:0|0:0,0:0:0
256,192,207840,12,0,212084,0:0:0
