osu file format v10

[General]
AudioFilename: 03. Haus am See.mp3
AudioLeadIn: 2000
PreviewTime: 61841
Countdown: 0
SampleSet: Soft
StackLeniency: 0.7
Mode: 0
LetterboxInBreaks: 0

[Editor]
Bookmarks: 19400
DistanceSpacing: 0
BeatDivisor: 4
GridSize: 4

[Metadata]
Title:Haus am See
TitleUnicode:Haus am See
Artist:Peter Fox
ArtistUnicode:Peter Fox
Creator:Magicphoenix
Version:Haus am See
Source:
Tags:Stadtaffe p3n DarkDunskin Cold Steel Reggae
BeatmapID:182203
BeatmapSetID:40940

[Difficulty]
HPDrainRate:7
CircleSize:5
OverallDifficulty:7
ApproachRate:7
SliderMultiplier:1.8
SliderTickRate:1

[Events]
//Background and Video events
Video,-800,"Peter Fox - Haus am See (Official Video HD) [Lyrics in Description](360p_H.264-AAC).flv"
0,0,"Haus am See.jpg"
//Break Periods
2,79988,84708
2,157595,161830
//Storyboard Layer 0 (Background)
//Storyboard Layer 1 (Fail)
//Storyboard Layer 2 (Pass)
//Storyboard Layer 3 (Foreground)
//Storyboard Sound Samples
//Background Colour Transformations
3,100,163,162,255

[TimingPoints]
241,485.044462409054,4,2,1,70,1,0
7031,-100,4,1,0,60,0,0
8001,-100,4,2,1,70,0,0
14792,-100,4,1,0,60,0,0
15883,-100,4,2,1,70,0,0
30313,-100,4,1,0,60,0,0
31283,-100,4,2,1,70,0,0
45835,-100,4,1,0,60,0,0
46805,-100,4,2,1,70,0,0
60871,-100,4,1,0,60,0,0
62326,-100,4,2,1,70,0,1
77848,-100,4,2,1,70,0,0
92399,-100,4,1,0,60,0,0
92641,-100,4,2,1,70,0,0
92884,-100,4,1,0,60,0,0
93127,-100,4,2,1,70,0,0
96643,-100,4,2,1,20,0,0
96764,-100,4,2,1,70,0,0
97128,-100,4,2,1,20,0,0
97249,-100,4,2,1,70,0,0
100523,-100,4,2,1,20,0,0
100645,-100,4,2,1,70,0,0
101008,-100,4,2,1,20,0,0
101130,-100,4,2,1,70,0,0
107920,-100,4,1,0,60,0,0
108890,-100,4,2,1,70,0,0
123442,-100,4,1,0,60,0,0
124412,-100,4,2,1,70,0,0
137993,-100,4,1,0,60,0,0
139933,-100,4,2,1,70,0,1
155455,-100,4,2,1,70,0,0
163215,-100,4,2,1,70,0,1
178737,-100,4,2,1,70,0,0
185527,-100,4,1,0,60,0,1
186498,-100,4,2,1,60,0,0
209295,-100,4,2,1,80,0,0
210750,-100,4,2,1,90,0,0
211720,-100,4,2,1,100,0,0
212084,-100,4,2,1,40,0,0

[Colours]
Combo1 : 255,128,0
Combo2 : 10,95,188
Combo3 : 159,0,0
Combo4 : 185,185,185
Combo5 : 98,188,44

[HitObjects]
48,136,241,2,0,B|224:80,1,180,0|2,0:0|0:0,0:0:0
282,116,968,1,0,0:0:0
354,116,1211,2,0,B|352:208|242:212|208:144,1,180,0|2,0:0|0:0,0:0:0
282,116,1938,1,0,0:0:0
308,48,2181,2,0,B|490:45,1,180,0|2,0:0|0:0,0:0:0
473,115,2908,1,0,0:0:0
454,185,3151,2,0,B|364:153|364:217|244:177,2,180,0|2|0,0:0|0:0|0:0,0:0:0
454,185,4606,5,2,0:0:0
492,245,4848,1,0,0:0:0
440,296,5091,2,0,B|376:264|304:296|296:368,1,180,0|2,0:0|0:0,0:0:0
231,327,5819,1,0,0:0:0
268,265,6061,2,0,B|156:113,1,180,0|2,0:0|0:0,0:0:0
123,58,6789,1,0,0:0:0
123,58,7031,5,0,0:0:0
389,58,7395,1,0,0:0:0
389,58,7516,1,0,0:0:0
256,121,7759,1,0,0:0:0
256,192,8001,6,0,B|256:297,1,90,8|0,0:0|0:0,0:0:0
204,333,8486,1,2,0:0:0
139,118,8729,1,0,0:0:0
186,173,8971,2,0,B|186:263,1,90,8|0,0:0|0:0,0:0:0
116,281,9457,2,0,B|116:191,1,90,2|0,0:0|0:0,0:0:0
65,331,9941,1,8,0:0:0
47,171,10184,2,0,B|47:261,1,90,0|8,0:0|0:0,0:0:0
0,119,10669,1,0,0:0:0
50,68,10911,2,2,B|136:48|136:96|240:64,1,180,2|2,0:0|0:0,0:0:0
304,192,11882,5,0,0:0:0
443,228,12367,2,0,B|443:317,1,90,10|0,0:0|0:0,0:0:0
443,155,12852,1,0,0:0:0
341,256,13337,2,0,B|341:166,1,90,10|0,0:0|0:0,0:0:0
341,329,13822,1,0,0:0:0
239,227,14307,2,0,B|239:316,1,90,10|0,0:0|0:0,0:0:0
238,154,14792,5,0,0:0:0
238,154,14913,1,0,0:0:0
238,81,15156,1,0,0:0:0
238,81,15277,1,0,0:0:0
299,117,15519,1,0,0:0:0
299,44,15762,6,0,B|376:16|416:64|440:104,1,135,4|0,0:0|0:0,0:0:0
402,107,16247,2,0,B|374:184|422:224|454:246,1,120,8|0,0:0|0:0,0:0:0
466,216,16732,2,0,B|377:297,1,90
347,326,17217,2,0,B|240:344,1,90,8|0,0:0|0:0,0:0:0
88,272,17702,6,0,B|114:331|192:319|224:279,1,135
211,261,18187,2,0,B|169:203|105:224|82:247,1,120,8|0,0:0|0:0,0:0:0
62,249,18672,2,0,B|33:195|69:131,1,90,0|0,0:0|0:0,0:0:0
106,110,19157,1,8,0:0:0
180,107,19400,1,0,0:0:0
230,56,19642,1,0,0:0:0
300,69,19885,6,0,B|344:152,1,90,0|8,0:0|0:0,0:0:0
412,133,20370,1,0,0:0:0
393,202,20612,2,0,B|384:256|336:280|293:266,1,120
267,258,21097,2,0,B|258:204|210:180|170:197,1,120,8|0,0:0|0:0,0:0:0
143,208,21582,2,0,B|91:110,1,90
170,270,22068,1,8,0:0:0
172,123,22310,2,0,B|120:25,1,90
202,186,22796,1,0,0:0:0
256,72,23038,1,8,0:0:0
144,264,23523,6,0,B|182:218|254:242,1,90,0|0,0:0|0:0,0:0:0
298,259,24008,2,0,B|480:328,1,180,8|0,0:0|0:0,0:0:0
466,322,24735,1,0,0:0:0
485,253,24978,2,0,B|456:208|488:152,1,90,8|0,0:0|0:0,0:0:0
408,48,25463,2,0,B|437:93|405:149,2,90,0|0|8,0:0|0:0|0:0,0:0:0
342,76,26190,1,0,0:0:0
277,42,26433,2,0,B|216:48|176:120|224:200,1,180,8|0,0:0|0:0,0:0:0
274,221,27160,5,0,0:0:0
341,247,27403,2,0,B|397:255|421:207,1,90
480,177,27888,2,0,B|505:318,1,120
469,295,28373,2,0,B|392:296|361:374,1,135,8|0,0:0|0:0,0:0:0
334,346,28858,2,0,B|249:308,1,90,8|0,0:0|0:0,0:0:0
200,258,29343,1,8,0:0:0
170,192,29586,5,0,0:0:0
163,74,29828,1,8,0:0:0
270,23,30071,1,0,0:0:0
270,139,30313,5,0,0:0:0
318,277,30677,1,0,0:0:0
318,277,30798,1,0,0:0:0
318,204,31041,1,0,0:0:0
380,239,31283,5,4,0:0:0
380,311,31526,1,0,0:0:0
319,350,31768,2,0,B|232:336,1,90,8|0,0:0|0:0,0:0:0
230,263,32253,2,0,B|317:277,1,90
318,205,32738,2,0,B|231:191,1,90,8|0,0:0|0:0,0:0:0
224,118,33224,2,0,B|266:90|323:96|355:152,1,135
360,168,33709,2,0,B|402:196|459:190|480:160,1,90,8|0,0:0|0:0,0:0:0
497,131,34194,5,0,0:0:0
378,49,34679,1,8,0:0:0
306,49,34921,1,0,0:0:0
233,49,35164,1,0,0:0:0
233,192,35649,5,8,0:0:0
161,192,35891,1,0,0:0:0
88,192,36134,2,0,B|88:88,1,90
16,192,36619,2,0,B|16:296,1,90,8|0,0:0|0:0,0:0:0
88,282,37104,2,0,B|240:282,2,135
15,282,38074,6,0,B|15:94,1,180,8|8,0:0|0:0,0:0:0
80,70,38802,2,0,B|166:96|166:40|282:84,1,180
238,144,39529,2,0,B|248:192|320:200,1,90,8|0,0:0|0:0,0:0:0
372,178,40014,2,0,B|362:130|290:122,1,90
306,52,40499,2,0,B|412:56,1,90,8|0,0:0|0:0,0:0:0
464,32,40984,1,0,0:0:0
464,140,41348,1,0,0:0:0
464,140,41469,1,8,0:0:0
392,348,41954,5,8,0:0:0
136,332,42439,2,0,B|103:302|103:234|139:202,1,135,8|0,0:0|0:0,0:0:0
116,176,42924,2,0,B|153:241|229:256,1,135,8|0,0:0|0:0,0:0:0
256,264,43409,2,0,B|256:112,1,120,8|0,0:0|0:0,0:0:0
285,114,43895,2,0,B|328:123|365:178|347:229,1,135,8|0,0:0|0:0,0:0:0
337,252,44380,2,0,B|451:308,1,112.5,8|0,0:0|0:0,0:0:0
437,301,44865,1,8,0:0:0
487,250,45107,1,0,0:0:0
468,180,45350,1,8,0:0:0
291,142,45835,5,0,0:0:0
291,142,45956,1,0,0:0:0
227,108,46199,1,0,0:0:0
227,108,46320,1,0,0:0:0
165,144,46562,1,0,0:0:0
165,144,46805,5,4,0:0:0
100,110,47047,1,0,0:0:0
119,40,47290,2,0,B|211:40,1,90,8|0,0:0|0:0,0:0:0
318,108,47775,2,0,B|228:108,1,90,8|0,0:0|0:0,0:0:0
86,170,48260,2,0,B|178:170,1,90,8|0,0:0|0:0,0:0:0
245,189,48745,2,0,B|258:254|318:274|354:274,1,120,8|0,0:0|0:0,0:0:0
371,261,49230,1,8,0:0:0
440,288,49473,5,0,0:0:0
440,100,49715,1,8,0:0:0
500,100,50200,1,8,0:0:0
500,284,50443,1,0,0:0:0
452,192,50685,6,0,B|340:192,1,90,8|0,0:0|0:0,0:0:0
212,228,51170,2,0,B|240:240|272:240|300:228,1,90,8|2,0:0|0:0,0:0:0
299,156,51655,2,0,B|271:144|239:144|211:156,1,90,8|0,0:0|0:0,0:0:0
58,191,52140,2,0,B|148:191,2,90,8|2|8,0:0|0:0|0:0,0:0:0
212,157,52868,1,0,0:0:0
212,228,53110,1,8,0:0:0
274,191,53353,1,0,0:0:0
274,119,53595,2,10,B|237:72|180:79|137:104|142:178,2,180,10|10|10,0:0|0:0|0:0,0:0:0
274,191,54808,6,0,B|274:293,1,90,0|8,0:0|0:0,0:0:0
334,321,55293,1,0,0:0:0
273,360,55536,1,8,0:0:0
213,320,55778,1,0,0:0:0
274,281,56021,2,0,B|274:191,1,90,8|0,0:0|0:0,0:0:0
274,118,56506,2,8,B|303:80|351:93|383:106|378:161,1,120,8|0,0:0|0:0,0:0:0
386,173,56991,2,0,B|415:209|461:205|495:185|493:126,1,135,8|0,0:0|0:0,0:0:0
490,116,57476,5,8,0:0:0
362,48,57961,1,8,0:0:0
362,119,58203,1,0,0:0:0
362,191,58446,2,0,B|320:208|320:180|272:200,1,90,8|0,0:0|0:0,0:0:0
361,119,58931,2,0,B|319:136|319:108|271:128,1,90,8|0,0:0|0:0,0:0:0
361,48,59416,2,0,B|319:65|319:37|271:57,1,90,8|0,0:0|0:0,0:0:0
203,76,59901,1,8,0:0:0
133,95,60143,1,0,0:0:0
72,134,60386,1,8,0:0:0
72,277,60871,5,0,0:0:0
182,316,61114,1,0,0:0:0
291,275,61356,1,0,0:0:0
291,248,61477,1,0,0:0:0
257,183,61720,1,0,0:0:0
257,156,61841,1,0,0:0:0
291,93,62084,1,0,0:0:0
303,22,62326,6,0,B|348:28|372:60|366:116,1,120,12|0,0:0|0:0,0:0:0
224,72,62811,2,0,B|179:66|159:14,1,90,8|0,0:0|0:0,0:0:0
20,72,63296,2,0,B|65:66|85:14,1,90,8|0,0:0|0:0,0:0:0
124,112,63781,1,8,0:0:0
124,215,64024,1,0,0:0:0
160,276,64266,6,0,B|188:296|232:296|256:273|286:204,2,120,8|0|0,0:0|0:0|0:0,0:0:0
65,256,65236,2,0,B|-3:189,1,90,8|0,0:0|0:0,0:0:0
63,156,65722,2,0,B|55:64,1,90,8|0,0:0|0:0,0:0:0
189,31,66207,5,8,0:0:0
257,53,66449,1,0,0:0:0
308,104,66692,2,0,B|332:156|296:203,1,90,8|0,0:0|0:0,0:0:0
244,230,67177,2,0,B|220:178|256:131,2,90,8|0|8,0:0|0:0|0:0,0:0:0
307,262,67904,1,0,0:0:0
364,308,68147,2,0,B|336:345|278:347|244:305,2,135,8|0|0,0:0|0:0|0:0,0:0:0
307,262,69117,2,0,B|307:161,1,90,8|0,0:0|0:0,0:0:0
212,232,69602,2,0,B|212:131,1,90,8|0,0:0|0:0,0:0:0
13,50,70087,6,0,B|13:151,1,90,8|0,0:0|0:0,0:0:0
108,80,70572,2,0,B|108:181,1,90,8|0,0:0|0:0,0:0:0
108,242,71057,1,8,0:0:0
108,314,71300,1,0,0:0:0
178,329,71542,6,0,B|221:342|221:322|273:330,1,90,8|0,0:0|0:0,0:0:0
267,257,72027,2,0,B|313:264|313:244|356:257,2,90,8|0|8,0:0|0:0|0:0,0:0:0
192,255,72755,2,0,B|148:220|148:136|196:96,1,180
257,57,73482,6,0,B|300:44|300:64|352:56,1,90,8|0,0:0|0:0,0:0:0
413,32,73967,6,0,B|476:116,1,90,8|0,0:0|0:0,0:0:0
399,129,74452,2,0,B|345:56,1,90,8|0,0:0|0:0,0:0:0
293,108,74937,1,8,0:0:0
332,168,75180,1,0,0:0:0
270,204,75422,2,0,B|204:218|199:310,1,120,8|0,0:0|0:0,0:0:0
172,332,75907,2,0,B|126:358|72:338|48:298|57:238,1,180,8|8,0:0|0:0,0:0:0
135,268,76635,5,0,0:0:0
135,190,76878,1,8,0:0:0
135,268,77120,1,0,0:0:0
135,112,77363,5,2,0:0:0
135,268,77605,1,0,0:0:0
256,192,77848,1,2,0:0:0
256,192,77969,12,0,79788,0:0:0
257,121,85608,5,8,0:0:0
257,264,86093,1,8,0:0:0
329,264,86336,6,0,B|377:312|441:312|489:264,1,180,2|0,0:0|0:0,0:0:0
452,202,87063,1,8,0:0:0
487,139,87306,2,0,B|439:91|375:91|327:139,1,180,2|0,0:0|0:0,0:0:0
362,201,88034,2,0,B|464:201,1,90,8|0,0:0|0:0,0:0:0
452,273,88519,2,10,B|256:272,1,180
176,192,89246,5,0,0:0:0
176,119,89489,2,0,B|176:56|176:80|136:32,1,90,8|0,0:0|0:0,0:0:0
71,40,89974,1,8,0:0:0
103,104,90216,6,0,B|274:40,1,180,2|0,0:0|0:0,0:0:0
271,40,90944,1,8,0:0:0
244,132,91186,2,0,B|265:230,1,90,2|0,0:0|0:0,0:0:0
324,144,91671,2,0,B|389:209,1,90,0|8,0:0|0:0,0:0:0
400,112,92156,6,0,B|505:125,1,90
388,208,92641,2,0,B|367:306,1,90
291,186,93126,2,0,B|189:150,1,90,0|4,0:0|0:0,0:0:0
184,86,93612,5,0,0:0:0
256,79,93854,2,0,B|300:63|352:79,1,90,8|0,0:0|0:0,0:0:0
404,37,94339,2,0,B|279:181,1,180,0|8,0:0|0:0,0:0:0
337,223,95067,1,0,0:0:0
300,284,95309,2,0,B|296:328|296:328|304:376,1,90,8|0,0:0|0:0,0:0:0
224,304,95794,2,0,B|228:260|228:260|220:212,1,90,8|0,0:0|0:0,0:0:0
192,148,96279,2,0,B|160:96|192:48|232:36,1,135
254,62,96764,2,0,B|268:124|321:131|368:112,1,135
367,155,97249,1,8,0:0:0
342,222,97492,6,0,B|384:242|440:218,1,90,0|8,0:0|0:0,0:0:0
457,155,97977,1,0,0:0:0
416,96,98219,2,0,B|432:60|432:60|466:25,2,90,8|0|8,0:0|0:0|0:0,0:0:0
343,96,98947,2,0,B|240:140,2,90,0|8|0,0:0|0:0|0:0,0:0:0
289,43,99675,2,8,B|409:-5,1,90,8|0,0:0|0:0,0:0:0
343,96,100160,2,0,B|346:169|286:233|247:213,1,135,8|0,0:0|0:0,0:0:0
248,210,100645,2,0,B|182:183|98:209,1,135,8|0,0:0|0:0,0:0:0
79,210,101130,5,8,0:0:0
51,276,101372,1,0,0:0:0
82,340,101615,1,8,0:0:0
153,340,101857,1,0,0:0:0
183,274,102100,1,8,0:0:0
151,209,102342,2,0,B|120:304|24:270,2,135,0|0|8,0:0|0:0|0:0,0:0:0
151,136,103312,2,0,B|152:41,1,90,0|8,0:0|0:0,0:0:0
224,46,103797,1,0,0:0:0
224,118,104040,2,0,B|225:213,2,90,8|0|8,0:0|0:0|0:0,0:0:0
429,96,104768,6,0,B|403:149|349:136,1,90,0|8,0:0|0:0,0:0:0
361,66,105253,1,0,0:0:0
432,256,105495,2,0,B|406:203|352:216,1,90,8|0,0:0|0:0,0:0:0
360,286,105980,2,0,B|334:339|280:326,1,90,8|0,0:0|0:0,0:0:0
288,255,106465,2,0,B|314:202|368:215,1,90,8|0,0:0|0:0,0:0:0
359,285,106950,5,8,0:0:0
432,256,107193,1,0,0:0:0
288,256,107435,1,0,0:0:0
448,184,107678,1,0,0:0:0
264,184,107920,1,0,0:0:0
264,184,108042,1,0,0:0:0
359,122,108284,1,0,0:0:0
359,122,108405,2,0,B|359:211,1,90
359,284,108890,5,4,0:0:0
324,347,109133,2,0,B|278:371|224:328,1,90,0|8,0:0|0:0,0:0:0
175,303,109618,2,0,B|120:296|88:344,1,90,0|8,0:0|0:0,0:0:0
44,283,110103,1,0,0:0:0
95,231,110346,1,8,0:0:0
44,180,110588,1,0,0:0:0
44,107,110831,2,0,B|44:18,1,90,8|0,0:0|0:0,0:0:0
116,17,111316,2,8,B|116:113|116:113|208:186,2,180
187,17,112528,6,0,B|232:4|232:28|280:12,1,90,0|8,0:0|0:0,0:0:0
335,53,113013,5,0,0:0:0
275,94,113256,2,0,B|256:136|272:184,1,90,8|0,0:0|0:0,0:0:0
322,232,113741,2,0,B|248:296,1,90,8|0,0:0|0:0,0:0:0
188,260,114226,1,8,0:0:0
188,188,114468,1,0,0:0:0
123,219,114711,2,0,B|42:148,1,90,8|0,0:0|0:0,0:0:0
188,260,115196,1,8,0:0:0
188,332,115439,1,0,0:0:0
122,301,115681,5,8,0:0:0
390,301,116166,1,8,0:0:0
256,66,116651,1,8,0:0:0
256,138,116894,5,0,0:0:0
205,188,117136,2,0,B|189:228|205:280,1,90,8|0,0:0|0:0,0:0:0
307,188,117621,2,0,B|323:228|307:280,1,90,8|0,0:0|0:0,0:0:0
256,138,118106,2,0,B|256:40,1,90,8|0,0:0|0:0,0:0:0
326,32,118591,1,8,0:0:0
186,32,118834,1,0,0:0:0
256,137,119076,1,8,0:0:0
307,188,119319,1,0,0:0:0
328,120,119561,6,8,B|428:32|352:32|455:122,2,180
378,169,120774,1,0,0:0:0
429,220,121017,2,0,B|464:264|448:316|416:340,1,120,8|0,0:0|0:0,0:0:0
439,364,121502,2,0,B|328:320,1,112.5,8|0,0:0|0:0,0:0:0
285,345,121987,2,0,B|315:312|315:244,1,90,8|0,0:0|0:0,0:0:0
314,189,122472,2,0,B|314:138|284:105,1,90,8|0,0:0|0:0,0:0:0
233,157,122957,1,8,0:0:0
182,207,123199,1,0,0:0:0
64,192,123442,5,0,0:0:0
146,108,123806,1,0,0:0:0
146,134,123927,1,0,0:0:0
256,84,124169,1,0,0:0:0
256,13,124412,5,4,0:0:0
325,29,124654,1,0,0:0:0
395,13,124897,2,0,B|480:72,1,90,8|0,0:0|0:0,0:0:0
419,117,125382,2,0,B|396:164|420:208,1,90
468,254,125867,2,0,B|394:305,1,90,8|0,0:0|0:0,0:0:0
331,269,126352,5,8,0:0:0
256,192,126595,1,0,0:0:0
331,115,126837,1,8,0:0:0
181,269,127322,1,8,0:0:0
181,115,127807,1,8,0:0:0
256,192,128050,1,0,0:0:0
256,192,128292,5,8,0:0:0
256,119,128535,1,0,0:0:0
321,148,128777,2,0,B|368:104|324:104|380:148,1,90,8|0,0:0|0:0,0:0:0
191,148,129262,2,0,B|144:104|188:104|132:148,1,90,8|0,0:0|0:0,0:0:0
162,213,129747,1,8,0:0:0
256,240,129990,1,0,0:0:0
350,214,130232,2,0,B|367:266|333:310,1,90,8|0,0:0|0:0,0:0:0
256,240,130717,2,8,B|256:54,2,180
344,308,131930,5,0,0:0:0
276,332,132173,2,0,B|237:369|168:324,1,90,8|0,0:0|0:0,0:0:0
234,281,132658,2,0,B|177:281|160:208,1,90,8|0,0:0|0:0,0:0:0
240,218,133143,2,0,B|196:186|229:110,1,90,8|0,0:0|0:0,0:0:0
275,91,133628,2,0,B|319:123|286:199,1,90,8|0,0:0|0:0,0:0:0
240,218,134113,5,8,0:0:0
309,250,134355,1,0,0:0:0
378,230,134598,1,8,0:0:0
266,149,135083,1,8,0:0:0
198,128,135325,1,0,0:0:0
129,148,135568,1,8,0:0:0
241,234,135810,5,0,0:0:0
382,238,136053,2,0,B|408:232|408:232|467:198,1,90,8|0,0:0|0:0,0:0:0
413,147,136538,2,0,B|368:168|368:168|324:160,1,90,0|2,0:0|0:0,0:0:0
360,95,137023,1,0,0:0:0
295,62,137266,1,0,0:0:0
224,47,137508,1,0,0:0:0
151,47,137751,1,2,0:0:0
81,63,137993,5,0,0:0:0
142,193,138478,1,0,0:0:0
81,321,138963,1,0,0:0:0
81,321,139084,1,0,0:0:0
153,321,139327,1,0,0:0:0
153,321,139448,1,0,0:0:0
187,257,139691,1,0,0:0:0
140,192,139933,6,0,B|48:192,1,90,4|0,0:0|0:0,0:0:0
232,192,140418,2,0,B|326:191,1,90,8|0,0:0|0:0,0:0:0
352,256,140903,1,8,0:0:0
352,128,141146,1,0,0:0:0
232,192,141388,1,8,0:0:0
228,64,141631,1,0,0:0:0
228,64,141873,6,8,B|176:48|104:88|108:168,1,180
158,213,142601,2,0,B|161:287|89:327|37:311,1,180
38,239,143329,2,0,B|39:136,1,90,8|0,0:0|0:0,0:0:0
98,105,143814,5,8,0:0:0
161,140,144056,1,0,0:0:0
212,89,144299,1,8,0:0:0
181,24,144541,1,0,0:0:0
331,24,144784,5,8,0:0:0
300,89,145026,1,0,0:0:0
351,140,145269,1,8,0:0:0
414,105,145511,1,0,0:0:0
408,33,145754,6,8,B|514:12,2,90,8|0|8,0:0|0:0|0:0,0:0:0
414,105,146481,2,0,B|462:193|414:286,1,180
345,277,147209,2,0,B|300:292|235:277,1,90,8|0,0:0|0:0,0:0:0
160,204,147694,6,0,B|205:189|270:204,1,90,8|0,0:0|0:0,0:0:0
352,112,148179,2,0,B|307:127|242:112,1,90,8|0,0:0|0:0,0:0:0
198,84,148664,1,8,0:0:0
182,13,148907,1,0,0:0:0
348,9,149149,1,8,0:0:0
332,80,149392,1,0,0:0:0
264,115,149634,2,8,B|219:125|174:110,2,90,8|0|8,0:0|0:0|0:0,0:0:0
256,188,150362,2,0,B|224:273|264:377,1,180
187,364,151089,6,0,B|148:344|148:376|88:352,1,90,8|0,0:0|0:0,0:0:0
124,288,151574,6,0,B|96:192,1,90,8|0,0:0|0:0,0:0:0
169,216,152059,2,0,B|173:120,1,90,8|0,0:0|0:0,0:0:0
235,160,152544,2,0,B|278:66,1,90,8|0,0:0|0:0,0:0:0
313,137,153030,2,0,B|396:63,1,90,8|0,0:0|0:0,0:0:0
415,140,153515,2,0,B|300:243,2,135,8|0|0,0:0|0:0|0:0,0:0:0
466,88,154485,5,8,0:0:0
386,46,154727,1,0,0:0:0
279,25,154970,1,2,0:0:0
160,66,155212,1,0,0:0:0
77,184,155455,1,2,0:0:0
256,192,155576,12,0,157395,0:0:0
380,240,162730,5,0,0:0:0
332,186,162973,1,0,0:0:0
341,113,163215,1,4,0:0:0
235,135,163579,1,0,0:0:0
235,135,163700,2,0,B|201:89|141:109,1,90,8|0,0:0|0:0,0:0:0
173,175,164186,1,8,0:0:0
237,206,164428,1,0,0:0:0
220,276,164671,2,0,B|236:328|305:329,1,90,8|0,0:0|0:0,0:0:0
358,308,165156,2,0,B|489:261,2,135,8|0|0,0:0|0:0|0:0,0:0:0
286,328,166126,5,8,0:0:0
349,209,166368,1,0,0:0:0
286,328,166611,1,8,0:0:0
229,209,166853,1,0,0:0:0
291,172,167096,6,0,B|293:73,1,90,8|0,0:0|0:0,0:0:0
231,44,167581,1,8,0:0:0
161,36,167823,1,0,0:0:0
114,90,168066,2,0,B|66:86|27:124,1,90,8|0,0:0|0:0,0:0:0
3,185,168551,1,8,0:0:0
74,185,168793,1,0,0:0:0
137,218,169036,2,0,B|173:253|245:237|249:161,2,135,8|0|0,0:0|0:0|0:0,0:0:0
178,158,170006,6,0,B|165:109|201:69,1,90,8|0,0:0|0:0,0:0:0
256,114,170491,2,0,B|277:68|330:60,1,90,8|0,0:0|0:0,0:0:0
442,38,170976,6,8,B|480:124|428:216,1,180,8|8,0:0|0:0,0:0:0
323,268,171825,1,0,0:0:0
323,268,171946,2,0,B|312:226|253:216|219:253,1,112.5,8|0,0:0|0:0,0:0:0
211,278,172431,2,0,B|145:254|156:179,1,112.5,8|0,0:0|0:0,0:0:0
126,162,172916,2,0,B|266:86,2,135,8|0|0,0:0|0:0|0:0,0:0:0
64,212,173886,5,8,0:0:0
256,308,174129,1,0,0:0:0
64,212,174371,6,0,B|44:256|76:256|56:312,1,90,8|0,0:0|0:0,0:0:0
132,232,174857,6,0,B|144:180|100:148,1,90,8|0,0:0|0:0,0:0:0
168,32,175342,2,0,B|156:84|200:116,1,90,8|0,0:0|0:0,0:0:0
257,75,175827,1,8,0:0:0
319,110,176069,2,0,B|358:81|346:29,1,90,0|8,0:0|0:0,0:0:0
256,160,176554,1,0,0:0:0
256,232,176797,2,0,B|232:300|288:300|248:372,2,135,8|0|0,0:0|0:0|0:0,0:0:0
321,262,177767,2,0,B|367:251|392:196,1,90,8|0,0:0|0:0,0:0:0
448,166,178252,1,10,0:0:0
349,66,178737,6,8,B|280:33|212:77|216:145,1,180,4|10,0:0|0:0,0:0:0
266,186,179464,2,0,B|269:244|201:288|132:255,1,180
134,184,180192,1,8,0:0:0
134,111,180435,1,0,0:0:0
173,51,180677,6,0,B|220:24|264:68,1,90,10|0,0:0|0:0,0:0:0
205,111,181162,2,0,B|258:120|263:182,1,90,10|0,0:0|0:0,0:0:0
190,171,181647,2,0,B|224:212|189:263,1,90,10|0,0:0|0:0,0:0:0
132,217,182132,2,0,B|131:271|71:287,1,90,10|0,0:0|0:0,0:0:0
60,215,182617,5,8,0:0:0
452,215,183102,1,10,0:0:0
388,250,183345,1,0,0:0:0
326,286,183587,1,8,0:0:0
60,215,184072,1,10,0:0:0
124,250,184315,1,0,0:0:0
186,286,184557,1,8,0:0:0
255,267,184800,6,0,B|256:176,1,90,0|8,0:0|0:0,0:0:0
326,190,185285,2,0,B|326:95,1,90,0|0,0:0|0:0,0:0:0
402,176,185891,1,0,0:0:0
402,176,186013,2,0,B|402:75,1,90,0|0,0:0|0:0,0:0:0
402,13,186498,5,8,0:0:0
283,94,186983,2,0,B|283:184,1,90,2|0,0:0|0:0,0:0:0
283,21,187468,1,0,0:0:0
206,184,187953,2,0,B|206:94,1,90,2|0,0:0|0:0,0:0:0
206,257,188438,1,0,0:0:0
128,94,188923,2,0,B|128:184,1,90,2|0,0:0|0:0,0:0:0
128,21,189408,1,0,0:0:0
48,186,189893,2,0,B|48:370,1,180,2|0,0:0|0:0,0:0:0
174,297,190863,6,0,B|216:324|260:304,1,90,2|0,0:0|0:0,0:0:0
222,242,191348,1,0,0:0:0
174,297,191833,6,0,B|216:324|260:304,1,90,2|0,0:0|0:0,0:0:0
235,180,192318,1,0,0:0:0
174,297,192803,6,0,B|216:324|260:304,1,90,2|0,0:0|0:0,0:0:0
245,118,193288,1,0,0:0:0
371,49,193773,5,2,0:0:0
376,192,194258,6,0,B|400:236|380:284,1,90
319,242,194743,2,0,B|295:198|315:150,1,90,2|0,0:0|0:0,0:0:0
379,128,195228,2,0,B|176:160,2,180,0|2|0,0:0|0:0|0:0,0:0:0
359,58,196441,2,0,B|256:76,1,90,0|2,0:0|0:0,0:0:0
199,88,196926,1,0,0:0:0
128,103,197169,1,0,0:0:0
58,121,197411,1,0,0:0:0
256,320,198381,5,0,0:0:0
319,286,198624,2,0,B|348:252|348:252|344:196,1,90,2|0,0:0|0:0,0:0:0
193,286,199109,2,0,B|164:252|164:252|168:196,1,90
212,147,199594,2,0,B|307:146,1,90,2|0,0:0|0:0,0:0:0
301,73,200079,2,0,B|211:73,1,90
138,73,200564,2,0,B|43:72,1,90,2|0,0:0|0:0,0:0:0
48,144,201049,2,0,B|143:143,1,90
348,189,202019,5,2,0:0:0
408,228,202262,1,0,0:0:0
408,156,202504,1,0,0:0:0
470,192,202747,1,0,0:0:0
470,120,202989,1,2,0:0:0
409,81,203232,2,0,B|408:232,2,135,0|0|2,0:0|0:0|0:0,0:0:0
373,81,204080,6,0,B|344:124|284:128|248:88,2,135
409,81,204929,2,0,B|407:188,1,90,2|0,0:0|0:0,0:0:0
300,328,205657,6,0,B|298:221,1,90,0|2,0:0|0:0,0:0:0
221,161,206263,1,0,0:0:0
221,161,206384,2,0,B|219:272,1,90
219,323,206869,2,0,B|120:323,1,90,2|0,0:0|0:0,0:0:0
77,271,207354,1,0,0:0:0
101,203,207597,1,0,0:0:0
81,133,207840,6,0,B|176:88,1,90,2|0,0:0|0:0,0:0:0
194,78,208203,1,0,0:0:0
219,103,208325,2,0,B|304:140,1,90
373,138,208810,2,0,B|450:91,1,90,2|0,0:0|0:0,0:0:0
256,192,209173,12,0,212084,0:0:0
