osu file format v10

[General]
AudioFilename: 03. Haus am See.mp3
AudioLeadIn: 2000
PreviewTime: 61841
Countdown: 0
SampleSet: Soft
StackLeniency: 0.7
Mode: 0
LetterboxInBreaks: 0

[Editor]
Bookmarks: 19400,23038
DistanceSpacing: 0
BeatDivisor: 4
GridSize: 16

[Metadata]
Title:Haus am See
TitleUnicode:Haus am See
Artist:Peter Fox
ArtistUnicode:Peter Fox
Creator:Magicphoenix
Version:Ende der Strasse
Source:
Tags:Stadtaffe p3n DarkDunskin Cold Steel Reggae
BeatmapID:182393
BeatmapSetID:40940

[Difficulty]
HPDrainRate:4
CircleSize:4
OverallDifficulty:4
ApproachRate:5
SliderMultiplier:1.2
SliderTickRate:1

[Events]
//Background and Video events
Video,-800,"Peter Fox - Haus am See (Official Video HD) [Lyrics in Description](360p_H.264-AAC).flv"
0,0,"Haus am See.jpg"
//Break Periods
2,78048,84408
2,155655,161530
//Storyboard Layer 0 (Background)
//Storyboard Layer 1 (Fail)
//Storyboard Layer 2 (Pass)
//Storyboard Layer 3 (Foreground)
//Storyboard Sound Samples
//Background Colour Transformations
3,100,163,162,255

[TimingPoints]
241,485.044462409054,4,2,1,70,1,0
7031,-100,4,1,0,60,0,0
8244,-100,4,2,1,70,0,0
14792,-100,4,1,0,60,0,0
16004,-100,4,2,1,70,0,0
30313,-100,4,1,0,60,0,0
31283,-100,4,2,1,70,0,0
45835,-100,4,1,0,60,0,0
46805,-100,4,2,1,70,0,0
60871,-100,4,1,0,60,0,0
62326,-100,4,2,1,70,0,1
77848,-100,4,2,1,70,0,0
92399,-100,4,1,0,60,0,0
92641,-100,4,2,1,70,0,0
92884,-100,4,1,0,60,0,0
93127,-100,4,2,1,70,0,0
107920,-100,4,1,0,60,0,0
108890,-100,4,2,1,70,0,0
123927,-100,4,1,0,60,0,0
124412,-100,4,2,1,70,0,0
137993,-100,4,1,0,60,0,0
139933,-100,4,2,1,70,0,1
155455,-100,4,2,1,70,0,0
163215,-100,4,2,1,70,0,1
178737,-100,4,2,1,70,0,0
185527,-100,4,1,0,60,0,1
186498,-100,4,2,1,60,0,0
209295,-100,4,2,1,80,0,0
210750,-100,4,2,1,90,0,0
211720,-100,4,2,1,100,0,0
212084,-100,4,2,1,40,0,0

[Colours]
Combo1 : 255,128,0
Combo2 : 10,95,188
Combo3 : 159,0,0
Combo4 : 185,185,185
Combo5 : 98,188,44

[HitObjects]
115,214,241,2,0,B|235:278,2,120,0|2|0,0:0|0:0|0:0,0:0:0
152,112,1696,2,0,B|115:46,2,60,2|0|0,0:0|0:0|0:0,0:0:0
258,130,2666,2,0,B|250:197,2,60,2|0|0,0:0|0:0|0:0,0:0:0
357,87,3636,2,0,B|409:139|390:225,1,120,2|0,0:0|0:0,0:0:0
408,304,4606,6,0,B|464:328,2,60,2|0|0,0:0|0:0|0:0,0:0:0
331,227,5576,2,0,B|296:152,2,60,2|0|0,0:0|0:0|0:0,0:0:0
300,330,6546,6,0,B|177:304,1,120,2|0,0:0|0:0,0:0:0
146,203,7516,2,0,B|118:264|38:250,1,120,0|4,0:0|0:0,0:0:0
61,153,8486,6,0,B|88:75|198:41|271:121,2,240,8|8|8,0:0|0:0|0:0,0:0:0
13,249,10911,2,2,B|56:305|117:261|174:213|242:272|242:272,1,240,2|0,0:0|0:0,0:0:0
344,304,12367,5,10,0:0:0
449,280,12852,1,0,0:0:0
358,220,13337,5,10,0:0:0
266,163,13822,1,0,0:0:0
371,138,14307,5,8,0:0:0
475,110,14792,2,0,B|461:40|380:28,2,120,0|0|4,0:0|0:0|0:0,0:0:0
370,137,16247,5,8,0:0:0
292,213,16732,2,0,B|327:267|305:346,1,120,0|8,0:0|0:0,0:0:0
208,282,17702,1,0,0:0:0
208,174,18187,2,0,B|173:120|195:41,1,120,8|0,0:0|0:0,0:0:0
298,58,19157,1,8,0:0:0
362,147,19642,1,0,0:0:0
364,256,20127,5,8,0:0:0
364,256,20370,2,0,B|292:296,1,60
251,195,21097,2,0,B|240:116,1,60,8|0,0:0|0:0,0:0:0
204,97,21582,2,0,B|272:96|316:40,2,120,0|8|0,0:0|0:0|0:0,0:0:0
65,180,23280,5,0,0:0:0
103,218,23523,2,0,B|184:204,1,60
200,244,24008,2,0,B|312:192,1,120,8|0,0:0|0:0,0:0:0
416,192,24978,2,0,B|416:264|365:305,2,120,8|0|8,0:0|0:0|0:0,0:0:0
432,141,26190,1,0,0:0:0
417,88,26433,1,0,0:0:0
318,134,26918,6,0,B|261:175|185:137,1,120,8|0,0:0|0:0,0:0:0
130,66,27888,2,0,B|187:25|263:63,2,120,8|0|8,0:0|0:0|0:0,0:0:0
102,170,29343,2,0,B|128:236|196:242,1,120,8|8,0:0|0:0,0:0:0
269,168,30313,2,0,B|309:69,2,90
269,168,31283,1,4,0:0:0
372,138,31768,6,0,B|351:195|387:192|367:256,1,120,8|8,0:0|0:0,0:0:0
270,207,32738,2,0,B|216:190|216:222|152:202,2,120,8|8|8,0:0|0:0|0:0,0:0:0
234,309,34194,2,0,B|285:268|289:180|261:116|209:84,1,240,8|0,0:0|0:0,0:0:0
115,94,35649,6,0,B|71:167,1,60,8|0,0:0|0:0,0:0:0
131,168,36134,2,0,B|132:236,1,60
183,244,36619,2,0,B|232:296,1,60,8|0,0:0|0:0,0:0:0
274,268,37104,2,0,B|384:292,2,90,8|0|0,0:0|0:0|0:0,0:0:0
296,108,38559,5,8,0:0:0
296,108,38802,2,0,B|224:89|168:152,1,120
184,189,39529,2,0,B|155:247|89:248|57:228,1,120,8|8,0:0|0:0,0:0:0
105,136,40499,2,0,B|134:78|200:77|232:97,2,120,8|8|8,0:0|0:0|0:0,0:0:0
105,243,41954,5,8,0:0:0
154,338,42439,2,0,B|212:360|212:316|280:348,1,120,8|8,0:0|0:0,0:0:0
321,363,43167,1,0,0:0:0
321,309,43409,6,0,B|372:260|333:180|333:180,2,120,8|8|8,0:0|0:0|0:0,0:0:0
273,283,44622,2,0,B|204:240,1,60,0|8,0:0|0:0,0:0:0
176,222,45107,2,0,B|107:179,1,60,0|8,0:0|0:0,0:0:0
100,84,45835,2,0,B|55:85|23:114|19:154|19:178,1,120
46,205,46562,1,0,0:0:0
92,233,46805,6,0,B|220:201,2,120,4|8|8,0:0|0:0|0:0,0:0:0
172,305,48260,2,8,B|296:273,1,120
320,173,49230,2,0,B|200:205,2,120,8|2|2,0:0|0:0|0:0,0:3:0
262,81,50685,6,0,B|188:53,1,60,2|0,0:0|0:0,0:0:0
151,59,51170,2,0,B|120:123|48:123,1,120,8|8,0:0|0:0,0:0:0
133,199,52140,2,8,B|201:200|232:258,2,120
85,225,53353,2,0,B|72:299,1,60,0|10,0:0|0:0,0:0:0
155,357,54080,1,10,0:0:0
231,280,54565,6,8,B|200:214|227:155,1,120
267,64,55536,2,8,B|325:20|393:54,1,120
447,137,56506,2,8,B|480:199|460:263,2,120
370,214,57961,6,8,B|328:268|248:252,1,120
290,149,58931,2,8,B|222:124|223:35,1,120
119,83,59901,1,8,0:0:0
14,110,60386,1,8,0:0:0
90,186,60871,6,0,B|104:256,1,60
140,283,61356,2,0,B|241:341,2,90
140,283,62326,6,0,B|179:256|190:223|185:181|173:165,1,120,4|8,0:0|0:0,0:0:0
268,116,63296,2,8,B|241:77|208:66|168:67|150:80,1,120
180,179,64266,2,8,B|214:236|298:242|365:222|374:123|374:123,2,240
268,114,66692,6,8,B|277:72|300:36|371:32|371:32,1,120
369,145,67662,1,8,0:0:0
280,207,68147,2,8,B|249:252|185:228,1,90,8|0,0:0|0:0,0:0:0
155,165,68874,2,0,B|99:214|133:284,1,120
175,299,69602,1,8,0:0:0
69,319,70087,5,8,0:0:0
72,214,70572,2,0,B|56:140,1,60,8|0,0:0|0:0,0:0:0
21,117,71057,2,8,B|72:154|144:112,1,120
210,40,72027,2,8,B|324:110|296:264,1,240
222,323,73482,6,0,B|185:341|145:301|105:325,1,120,2|8,0:0|0:0,0:0:0
28,248,74452,6,8,B|152:184,2,120
28,140,75907,2,8,B|65:38|177:34|248:92,1,240
256,180,77363,2,0,B|256:304,1,120,2|8,0:0|0:0,0:0:0
149,87,85608,5,8,0:0:0
256,87,86093,1,8,0:0:0
256,88,86336,2,0,B|256:276,1,180,2|8,0:0|0:0,0:0:0
217,306,87306,2,0,B|300:272|300:336|396:296,1,180,2|8,0:0|0:0,0:0:0
411,191,88519,2,2,B|299:244|299:144|175:208,1,240,2|8,0:0|0:0,0:0:0
89,238,89974,5,8,0:0:0
89,238,90216,2,0,B|101:276|121:300|153:312|181:312|213:308|237:292,1,180,2|8,0:0|0:0,0:0:0
250,345,91186,2,0,B|262:307|282:283|314:271|342:271|374:275|398:291,1,180,2|8,0:0|0:0,0:0:0
441,303,92156,6,0,B|421:246,1,60
455,212,92641,2,0,B|513:239,2,60
420,177,93369,6,0,B|368:219|308:192,1,120,4|8,0:0|0:0,0:0:0
271,103,94339,1,8,0:0:0
271,103,94824,2,8,B|148:88,2,120
347,179,96279,5,2,0:0:0
308,279,96764,1,2,0:0:0
398,331,97249,1,2,0:0:0
398,331,97492,6,0,B|429:328|472:300,1,60,0|8,0:0|0:0,0:0:0
492,272,97977,2,0,B|512:236|516:208,1,60,0|8,0:0|0:0,0:0:0
504,163,98462,2,0,B|496:124|480:104,1,60,0|8,0:0|0:0,0:0:0
436,79,98947,2,0,B|412:56|380:52,1,60,0|8,0:0|0:0,0:0:0
344,90,99432,2,0,B|316:147|253:133,1,90
196,168,100160,5,2,0:0:0
196,58,100645,1,2,0:0:0
101,110,101130,1,2,0:0:0
24,186,101615,6,0,B|-14:252|38:314,1,120,8|8,0:0|0:0,0:0:0
39,351,102342,2,0,B|64:290|137:286,1,120
177,315,103070,2,0,B|237:353,2,60,8|0|8,0:0|0:0|0:0,0:0:0
196,206,104040,5,2,0:0:0
144,111,104525,1,2,0:0:0
251,111,105010,1,2,0:0:0
300,206,105495,6,0,B|364:324,2,120,8|8|8,0:0|0:0|0:0,0:0:0
249,110,106950,1,0,0:0:0
171,311,107920,1,0,0:0:0
116,216,108405,2,0,B|58:110,1,120,0|4,0:0|0:0,0:0:0
160,55,109376,5,8,0:0:0
160,55,109861,2,0,B|232:96,1,60,8|0,0:0|0:0,0:0:0
261,62,110346,2,8,B|408:80,2,120
293,165,111801,6,0,B|348:272,1,120,2|2,0:0|0:0,0:0:0
241,251,112771,1,2,0:0:0
241,251,113013,6,0,B|156:268,2,60,0|8|0,0:0|0:0|0:0,0:0:0
258,199,113741,2,0,B|316:187,2,60,8|0|8,0:0|0:0|0:0,0:0:0
219,160,114468,2,0,B|134:177,2,60,0|8|0,0:0|0:0|0:0,0:0:0
257,121,115196,2,0,B|308:80|312:8,2,120,8|2|2,0:0|0:0|0:0,0:0:0
155,85,116651,1,2,0:0:0
122,188,117136,6,8,B|122:334,1,120
210,246,118106,2,0,B|211:167,1,60,8|0,0:0|0:0,0:0:0
172,147,118591,2,8,B|228:112|236:40,2,120,8|8|10,0:0|0:0|0:0,0:0:0
95,223,120046,6,8,B|40:273|60:341,1,120,8|10,0:0|0:0,0:0:0
161,302,121017,6,8,B|216:252|196:184,1,120
122,118,121987,1,8,0:0:0
198,194,122472,2,8,B|248:192|288:140|292:104,1,120
270,71,123199,2,0,B|456:100,1,180,0|4,0:0|0:0,0:0:0
447,98,124412,5,4,0:0:0
447,205,124897,1,8,0:0:0
421,252,125139,1,0,0:0:0
385,293,125382,2,0,B|328:320|264:280,1,120,0|8,0:0|0:0,0:0:0
162,283,126352,1,8,0:0:0
78,216,126837,5,8,0:0:0
138,126,127322,1,8,0:0:0
182,224,127807,6,0,B|157:280|202:291|177:350,1,120,2|8,0:0|0:0,0:0:0
262,261,128777,6,8,B|287:205|242:194|267:135,2,120
365,292,130232,2,0,B|374:258|370:226,1,60,8|0,0:0|0:0,0:0:0
353,181,130717,2,8,B|338:107|370:59,2,120
263,241,132173,6,8,B|226:229|198:242|198:242|142:222,1,120
178,116,133143,2,8,B|202:195|126:240,1,120
118,333,134113,2,8,B|94:254|170:209,1,120
249,187,135083,5,8,0:0:0
221,82,135568,1,8,0:0:0
324,113,136053,6,0,B|350:131|388:137|425:119|449:91,1,120,0|0,0:0|0:0,0:0:0
410,209,137023,2,0,B|413:247|429:271|454:287|485:293,1,120
378,320,137993,2,0,B|334:315|287:296|257:208|308:147|343:155|343:155|357:188|306:249|214:234|185:194|175:150,1,480
222,57,140418,5,8,0:0:0
322,104,140903,2,8,B|395:155|413:270|367:339,2,240
222,147,143329,2,0,B|188:216,1,60,8|0,0:0|0:0,0:0:0
204,254,143814,6,0,B|148:256|84:280,1,120,8|8,0:0|0:0,0:0:0
87,170,144784,2,0,B|20:197|7:259,1,120,8|8,0:0|0:0,0:0:0
103,304,145754,2,0,B|184:352,2,90,8|0|0,0:0|0:0|0:0,0:0:0
141,265,146724,2,0,B|216:256,1,60,8|0,0:0|0:0,0:0:0
177,208,147209,2,8,B|264:116,1,120
154,95,148179,6,8,B|71:182,1,120
71,290,149149,1,8,0:0:0
109,328,149392,1,0,0:0:0
161,342,149634,2,8,B|222:368|223:323|285:351,2,120
219,251,151089,6,0,B|280:225|281:270|343:242,1,120,2|8,0:0|0:0,0:0:0
415,174,152059,5,8,0:0:0
309,151,152544,1,8,0:0:0
207,114,153030,1,8,0:0:0
115,56,153515,2,8,B|118:91|106:117|76:144|46:143,1,120,0|0,0:0|0:0,0:0:0
77,189,154242,6,0,B|98:270,1,60,0|8,0:0|0:0,0:0:0
156,336,154970,1,2,0:0:0
256,364,155455,1,8,0:0:0
256,36,162730,6,0,B|256:118,1,60
217,134,163215,2,0,B|216:208,1,60,4|0,0:0|0:0,0:0:0
177,232,163700,2,8,B|176:352,2,120
100,155,165156,2,8,B|101:35,2,120
156,248,166611,1,8,0:0:0
256,204,167096,5,8,0:0:0
294,242,167338,2,0,B|344:292,1,60,0|8,0:0|0:0,0:0:0
366,180,168066,2,0,B|376:112,1,60,8|0,0:0|0:0,0:0:0
327,93,168551,2,8,B|264:112|188:84,1,120
141,46,169400,6,0,B|85:24|31:44,1,90
22,82,170006,1,8,0:0:0
45,187,170491,1,0,0:0:0
67,236,170734,1,0,0:0:0
117,255,170976,6,8,B|157:307|224:292,1,120
265,192,171946,2,8,B|305:140|372:155,1,120
418,181,172674,1,0,0:0:0
431,128,172916,2,0,B|443:77|404:47,2,90,8|0|0,0:0|0:0|0:0,0:0:0
417,180,173886,1,8,0:0:0
360,271,174371,6,0,B|308:317|244:297,1,120,2|8,0:0|0:0,0:0:0
142,313,175342,6,8,B|159:254|119:254|151:186,1,120
167,89,176312,2,8,B|217:42|227:82|278:44,2,120
216,184,177767,2,0,B|260:256,1,60,8|0,0:0|0:0,0:0:0
266,285,178252,2,8,B|300:340|336:312|352:372,1,120
448,320,179222,6,0,B|488:228|456:148|381:110|381:110,1,240,2|8,0:0|0:0,0:0:0
299,53,180677,2,8,B|268:40|268:40|240:72|200:72|179:55,1,120,2|2,0:0|0:0,0:0:0
206,174,181647,2,8,B|194:146|194:146|150:145|122:117|117:93,2,120,2|2|8,0:0|0:0|0:0,0:0:0
310,178,183102,6,0,B|310:254,1,60,8|0,0:0|0:0,0:0:0
310,292,183587,1,8,0:0:0
402,235,184072,2,0,B|402:159,1,60,8|0,0:0|0:0,0:0:0
402,121,184557,1,8,0:0:0
492,179,185042,2,0,B|492:255,1,60,8|0,0:0|0:0,0:0:0
492,293,185527,2,0,B|252:344,1,240,0|0,0:0|0:0,0:0:0
180,266,186983,6,0,B|147:252|128:220,2,60,2|0|0,0:0|0:0|0:0,0:0:0
203,160,187953,2,0,B|191:129|196:96,2,60,2|0|0,0:0|0:0|0:0,0:0:0
297,107,188923,2,0,B|308:78|338:56,1,60,2|0,0:0|0:0,0:0:0
385,46,189408,2,0,B|452:48|484:112,2,120,0|2|0,0:0|0:0|0:0,0:0:0
364,152,190863,6,0,B|364:231,2,60,2|0|0,0:0|0:0|0:0,0:0:0
269,203,191833,2,0,B|269:282,2,60,2|0|0,0:0|0:0|0:0,0:0:0
168,241,192803,2,0,B|168:320,1,60,2|0,0:0|0:0,0:0:0
193,348,193288,2,0,B|134:376|135:332|60:360,1,120,0|2,0:0|0:0,0:0:0
23,262,194258,6,0,B|136:244|172:152|172:100|168:72,1,240
71,50,195713,1,2,0:0:0
71,157,196198,2,0,B|128:236|196:244|276:224|296:196,2,240
147,80,198624,6,0,B|276:32,1,120,0|2,0:0|0:0,0:0:0
356,92,199594,2,0,B|224:144,1,120
208,237,200564,2,0,B|278:262,2,60,0|0|2,0:0|0:0|0:0,0:0:0
104,209,201534,1,0,0:0:0
104,210,202019,6,0,B|96:152|131:64|232:68|273:91,2,240,0|2|0,0:0|0:0|0:0,0:0:0
206,175,204444,2,0,B|236:240|312:240,2,120,0|2|0,0:0|0:0|0:0,0:0:0
154,269,205899,6,0,B|134:333|75:355,1,120,0|0,0:0|0:0,0:0:0
56,248,206869,2,0,B|17:110|142:28,1,240,2|0,0:0|0:0,0:0:0
256,192,208082,12,0,212084,0:0:0
