osu file format v14

[General]
AudioFilename: forest.mp3
AudioLeadIn: 0
PreviewTime: 54226
Countdown: 0
SampleSet: Soft
StackLeniency: 0.7
Mode: 0
LetterboxInBreaks: 0
EpilepsyWarning: 1
WidescreenStoryboard: 1

[Editor]
Bookmarks: 24826,27911,50540,54654,69054,73169,82083,84483,97854
DistanceSpacing: 1.3
BeatDivisor: 4
GridSize: 4
TimelineZoom: 1.8

[Metadata]
Title:The Ancient Forest Of Light
TitleUnicode:The Ancient Forest Of Light
Artist:Peter Crowley Fantasy Dream
ArtistUnicode:Peter Crowley Fantasy Dream
Creator:Mao
Version:Advanced
Source:
Tags:Celtic Forest Music elf elven fantasy Collection Vol.1 woodland harp epic Irish celt Dream symphonic peaceful sanctuary lotr middle-earth realm Desperate-kun Kenterz
BeatmapID:719056
BeatmapSetID:323314

[Difficulty]
HPDrainRate:4.5
CircleSize:3.5
OverallDifficulty:5
ApproachRate:5.5
SliderMultiplier:1.2
SliderTickRate:1

[Events]
//Background and Video events
0,0,"472599.jpg",0,0
//Break Periods
2,28111,28844
//Storyboard Layer 0 (Background)
//Storyboard Layer 1 (Fail)
//Storyboard Layer 2 (Pass)
//Storyboard Layer 3 (Foreground)
//Storyboard Sound Samples

[TimingPoints]
8369,342.857142857143,3,2,0,30,1,0
8369,-133.333333333333,3,2,4,30,0,0
24826,-133.333333333333,3,2,4,20,0,0
25854,-133.333333333333,3,2,4,15,0,0
26883,-133.333333333333,3,2,4,10,0,0
27911,-133.333333333333,3,2,4,5,0,0
29969,-133.333333333333,3,2,3,10,0,0
34083,-100,3,2,0,30,0,0
50540,-100,3,2,1,30,0,0
54654,-100,3,2,2,80,0,1
69397,-100,3,2,0,50,0,1
69569,-100,3,2,2,80,0,1
70426,-100,3,2,0,50,0,1
70597,-100,3,2,2,80,0,1
71454,-100,3,2,0,50,0,1
71626,-100,3,2,2,80,0,1
72311,-100,3,2,2,60,0,1
73169,-100,3,2,2,60,0,0
97854,-100,3,2,2,80,0,1
108140,-100,3,2,2,60,0,0
108483,-100,3,2,2,53,0,0
108826,-100,3,2,2,45,0,0
109169,-100,3,2,2,35,0,0
109511,-100,3,2,2,15,0,0
109854,-100,3,2,2,5,0,0

[Colours]
Combo1 : 249,108,133
Combo2 : 200,239,97
Combo3 : 243,179,58
Combo4 : 143,250,226
Combo5 : 70,166,99
Combo6 : 107,203,254
Combo7 : 153,242,191
Combo8 : 253,189,247

[HitObjects]
53,65,8369,6,0,P|71:150|146:194,1,180.000006866455,6|2,0:0|0:0,0:0:0:0:
202,175,9226,1,0,0:0:0:0:
254,200,9397,2,0,L|240:293,2,90.0000034332277,2|0|0,0:0|0:0|0:0,0:0:0:0:
351,265,10426,6,0,L|337:358,2,90.0000034332277,6|0|0,0:0|0:0|0:0,0:0:0:0:
457,216,11454,2,0,P|484:166|435:61,1,180.000006866455,2|2,0:0|0:0,0:0:0:0:
378,69,12311,1,0,0:0:0:0:
324,96,12483,102,0,B|232:64|240:128|146:94,1,180.000006866455,6|2,0:0|0:0,0:0:0:0:
99,62,13340,1,0,0:0:0:0:
57,102,13511,2,0,L|72:286,1,180.000006866455,2|2,0:0|0:0,0:0:0:0:
124,308,14369,1,0,0:0:0:0:
168,269,14540,6,0,P|192:232|232:208,2,90.0000034332277,6|0|0,0:0|0:0|0:0,0:0:0:0:
273,320,15569,2,0,P|330:354|434:320,1,180.000006866455,2|0,0:0|0:0,0:0:0:0:
464,272,16426,1,2,0:0:0:0:
442,218,16597,102,0,B|486:92|486:92|474:73|474:73|469:50,1,180.000006866455,6|2,0:0|0:0,0:0:0:0:
411,60,17454,1,0,0:0:0:0:
355,40,17626,2,0,P|294:29|188:72,1,180.000006866455,2|2,0:0|0:0,0:0:0:0:
187,190,18654,6,0,B|202:235|202:235|197:314|133:341,1,180.000006866455,6|2,0:0|0:0,0:0:0:0:
107,226,19683,2,0,L|302:261,1,180.000006866455,2|2,0:0|0:0,0:0:0:0:
363,343,20711,102,0,P|371:306|489:252,1,180.000006866455,6|2,0:0|0:0,0:0:0:0:
462,137,21740,1,2,0:0:0:0:
348,166,22083,1,0,0:0:0:0:
273,75,22426,1,2,0:0:0:0:
159,104,22769,6,0,P|70:162|117:316,2,270.000010299683,6|2|4,0:0|0:0|0:0,0:0:0:0:
256,192,24997,12,0,27911,0:0:0:0:
387,151,29969,117,2,0:0:0:0:
481,81,30311,1,0,0:0:0:0:
481,81,30483,1,0,0:0:0:0:
440,252,30997,2,0,P|462:293|500:328,2,90.0000034332277,6|0|0,0:0|0:0|0:0,0:0:0:0:
329,288,32026,85,2,0:0:0:0:
220,331,32369,1,0,0:0:0:0:
220,331,32540,1,0,0:0:0:0:
64,252,33054,2,0,L|47:350,2,90.0000034332277,6|0|2,0:0|0:0|0:1,0:0:0:0:
51,104,34083,22,0,P|99:136|163:132,1,120,4|2,0:0|0:0,0:0:0:0:
287,40,34769,2,0,L|280:103,1,60,0|0,0:0|0:0,0:0:0:0:
320,166,35111,2,0,B|381:157|372:199|436:191,1,120,2|0,0:3|0:0,0:0:0:0:
382,339,35797,2,0,P|343:350|314:351,1,60,2|0,0:0|0:0,0:0:0:0:
253,317,36140,6,0,P|209:301|135:313,1,120,4|0,0:0|0:0,0:0:0:0:
60,175,36826,2,0,L|65:245,1,60,2|0,0:0|0:0,0:0:0:0:
139,212,37169,2,0,L|130:85,1,120,2|0,0:3|0:0,0:0:0:0:
277,40,37854,2,0,L|265:103,1,60,2|0,0:0|0:0,0:0:0:0:
289,173,38197,102,0,B|322:190|322:190|361:188|391:149,1,120,4|0,0:0|0:0,0:0:0:0:
468,286,38883,2,0,P|432:318|411:331,1,60,2|0,0:0|0:0,0:0:0:0:
344,336,39226,2,0,L|216:316,1,120,2|0,0:3|0:0,0:0:0:0:
119,203,39911,2,0,P|111:241|98:264,1,60,2|0,0:0|0:0,0:0:0:0:
40,210,40254,6,0,L|37:86,2,120,4|0|2,0:0|0:0|0:0,0:0:0:0:
121,343,41283,1,2,0:3:0:0:
256,265,41626,1,2,0:0:0:0:
391,343,41969,1,2,0:0:0:0:
442,284,42140,1,2,0:0:0:0:
386,228,42311,102,0,B|374:170|374:170|392:108,1,120,4|0,0:0|0:0,0:0:0:0:
249,44,42997,2,0,P|212:62|184:69,1,60,2|0,0:0|0:0,0:0:0:0:
116,53,43340,2,0,P|68:31|14:68,1,120,2|0,0:3|0:0,0:0:0:0:
109,189,44026,2,0,L|173:180,1,60,2|0,0:0|0:0,0:0:0:0:
235,221,44369,6,0,L|353:203,1,120,6|0,0:0|0:0,0:0:0:0:
481,293,45054,1,2,0:0:0:0:
337,354,45397,2,0,P|287:360|221:334,1,120,2|0,0:3|0:0,0:0:0:0:
120,217,46083,2,0,L|105:290,1,60,2|0,0:0|0:0,0:0:0:0:
34,247,46426,102,0,B|46:189|46:189|24:132,1,120,4|0,0:0|0:0,0:0:0:0:
155,48,47111,2,0,P|197:56|218:53,1,60,2|0,0:0|0:0,0:0:0:0:
289,35,47454,2,0,P|348:30|412:47,2,120,2|0|2,0:3|0:0|0:0,0:0:0:0:
329,186,48483,6,0,P|269:185|207:207,2,120,4|0|2,0:0|0:0|0:0,0:0:0:0:
374,249,49340,1,0,0:0:0:0:
451,254,49511,2,0,L|490:132,1,120,2|2,0:3|0:3,0:0:0:0:
370,35,50197,1,2,0:0:0:0:
297,65,50369,1,2,0:0:0:0:
220,49,50540,21,6,0:0:0:0:
75,107,50883,2,0,L|58:171,1,60,2|0,0:0|0:0,0:0:0:0:
99,232,51226,2,0,L|82:296,1,60,2|0,0:0|0:0,0:0:0:0:
131,352,51569,2,0,P|167:325|250:321,1,120,2|2,0:0|0:0,0:0:0:0:
391,353,52254,2,0,L|459:352,1,60,2|0,0:0|0:0,0:0:0:0:
490,284,52597,6,0,P|499:234|483:161,1,120,2|2,0:0|0:0,0:0:0:0:
425,117,53111,1,0,0:0:0:0:
357,156,53283,2,0,L|345:223,2,60,2|0|2,0:0|0:0|0:0,0:0:0:0:
306,96,53797,101,0,1:0:0:0:
237,58,53969,2,0,L|178:61,1,60,0|0,1:0|1:0,0:0:0:0:
134,126,54311,2,0,L|75:129,1,60,0|0,1:0|1:0,0:0:0:0:
28,192,54654,6,0,B|48:256|121:253|123:251|124:249|197:246|218:311,1,240,6|2,1:2|0:0,0:0:0:0:
282,355,55511,1,10,0:0:0:0:
350,317,55683,2,0,L|476:338,2,120,2|2|2,1:2|0:0|0:0,0:0:0:0:
369,162,56711,102,0,L|488:117,2,120,2|2|2,1:2|0:0|0:0,0:0:0:0:
238,76,57740,2,0,P|247:145|126:249,1,240,2|2,1:2|0:0,0:0:0:0:
52,237,58597,1,8,0:0:0:0:
3,175,58769,6,0,L|27:55,1,120,6|0,1:2|0:0,0:0:0:0:
179,22,59454,1,0,0:0:0:0:
238,76,59626,1,10,0:0:0:0:
315,83,59797,2,0,B|381:102|434:46|434:46|464:97|439:152,1,240,2|2,1:2|0:0,0:0:0:0:
387,207,60654,1,10,0:0:0:0:
309,218,60826,102,0,L|184:193,2,120,6|2|2,1:2|0:0|0:0,0:0:0:0:
460,255,61854,2,0,P|441:314|282:335,1,240,2|2,1:2|0:0,0:0:0:0:
227,284,62711,1,8,0:0:0:0:
200,210,62883,6,0,P|116:236|79:315,1,180,6|2,1:2|0:0,0:0:0:0:
30,375,63569,2,0,P|7:347|2:313,1,60,0|2,0:0|0:0,0:0:0:0:
14,247,63911,2,0,P|67:174|208:132,1,240,2|2,1:2|0:0,0:0:0:0:
326,231,64940,102,0,P|428:269|496:176,1,240,6|2,1:2|0:0,0:0:0:0:
455,110,65797,1,8,0:0:0:0:
395,59,65969,2,0,B|335:27|286:81|286:84|286:86|237:140|176:109,1,240,2|2,1:2|0:0,0:0:0:0:
118,56,66826,1,10,0:0:0:0:
67,115,66997,6,0,L|57:241,1,120,6|0,1:2|0:0,0:0:0:0:
163,349,67683,1,2,0:0:0:0:
309,295,68026,2,0,P|374:299|423:330,2,120,2|2|2,1:2|0:0|0:0,0:0:0:0:
214,171,69054,102,0,B|333:190|333:190|386:164,1,180,6|2,1:2|1:2,0:0:0:0:
292,38,69911,1,8,0:0:0:0:
292,38,70083,2,0,P|234:105|147:110,1,180,6|2,1:2|1:2,0:0:0:0:
15,27,70940,1,8,0:0:0:0:
15,27,71111,6,0,L|30:213,1,180,4|2,1:2|1:2,0:0:0:0:
140,317,71969,1,8,0:0:0:0:
140,317,72140,2,0,B|240:281|228:345|320:313,1,180,4|2,1:2|1:2,0:0:0:0:
381,272,72826,2,0,P|393:307|393:332,1,60,2|2,1:2|1:2,0:0:0:0:
470,343,73169,6,0,P|480:298|471:221,1,120,6|8,0:0|0:0,0:0:0:0:
365,111,73854,2,0,L|359:183,1,60,0|10,0:0|0:0,0:0:0:0:
285,148,74197,2,0,L|295:22,2,120,2|2|2,1:2|0:0|0:0,0:0:0:0:
130,175,75226,6,0,L|120:49,2,120,6|2|2,1:2|0:0|0:0,0:0:0:0:
59,314,76254,2,0,B|100:261|167:290|168:292|169:295|236:324|279:270,1,240,6|2,1:2|0:0,0:0:0:0:
325,207,77111,1,0,0:0:0:0:
383,262,77283,6,0,B|399:319|399:319|454:352,1,120,6|2,1:2|0:0,0:0:0:0:
489,198,77969,1,2,0:0:0:0:
427,55,78311,2,0,P|371:33|307:51,1,120,2|2,1:2|0:0,0:0:0:0:
245,187,78997,1,2,0:0:0:0:
155,314,79340,6,0,P|97:326|42:305,1,120,6|2,1:2|0:0,0:0:0:0:
84,154,80026,1,2,0:0:0:0:
192,42,80369,2,0,L|256:53,1,60,2|2,1:2|0:0,0:0:0:0:
310,102,80711,2,0,L|374:91,1,60,2|8,0:0|0:0,0:0:0:0:
446,77,81054,1,2,0:0:0:0:
469,231,81397,70,0,P|452:278|388:308,1,120,6|0,1:2|0:0,0:0:0:0:
260,223,82083,2,0,L|263:298,1,60,4|0,0:0|0:0,0:0:0:0:
267,361,82426,1,4,1:2:0:0:
173,234,82769,2,0,P|184:177|230:140,1,120,2|2,0:0|0:0,0:0:0:0:
365,61,83454,6,0,P|317:99|157:58,1,240,6|0,1:2|0:0,0:0:0:0:
4,95,84483,2,0,P|30:111|50:134,1,60,6|0,1:2|0:0,0:0:0:0:
50,212,84826,2,0,P|69:234|95:250,1,60,4|0,0:0|0:0,0:0:0:0:
173,234,85169,1,4,0:0:0:0:
325,197,85511,6,0,L|312:320,2,120,6|2|2,1:2|0:0|0:0,0:0:0:0:
476,234,86540,2,0,L|463:114,2,120,2|2|2,1:2|0:0|0:0,0:0:0:0:
374,353,87569,5,6,1:2:0:0:
241,270,87911,2,0,B|209:261|209:261|182:267,1,60,4|0,0:0|0:0,0:0:0:0:
130,325,88254,2,0,B|103:331|103:331|71:322,1,60,4|0,0:0|0:0,0:0:0:0:
3,283,88597,1,2,1:2:0:0:
45,132,88940,2,0,L|31:74,1,60,4|0,0:0|1:0,0:0:0:0:
88,21,89283,1,4,0:0:0:0:
155,63,89454,1,4,0:3:0:0:
207,121,89626,6,0,P|248:137|407:28,1,240,6|2,1:2|0:0,0:0:0:0:
478,29,90483,1,2,0:0:0:0:
501,103,90654,2,0,L|482:232,2,120,2|2|2,1:2|0:0|0:0,0:0:0:0:
382,205,91683,6,0,L|363:334,2,120,6|2|2,1:2|0:0|0:0,0:0:0:0:
229,237,92711,2,0,P|152:222|66:95,1,240,2|2,1:2|0:0,0:0:0:0:
221,82,93740,6,0,L|252:321,1,240,6|2,1:2|0:0,0:0:0:0:
319,359,94597,1,10,0:0:0:0:
396,347,94769,2,0,P|451:307|471:252,1,120,2|2,1:2|0:0,0:0:0:0:
341,171,95454,1,2,0:0:0:0:
446,56,95797,6,0,B|426:120|353:117|351:115|350:113|277:110|256:175,1,240,6|2,1:2|0:0,0:0:0:0:
231,250,96654,1,10,0:0:0:0:
167,295,96826,2,0,P|114:301|50:269,2,120,6|2|2,1:2|0:0|0:0,0:0:0:0:
318,259,97854,70,0,B|354:306|354:306|421:320|469:264,1,180,6|10,1:2|0:0,0:0:0:0:
440,195,98540,1,2,0:0:0:0:
484,131,98711,1,8,0:0:0:0:
437,68,98883,2,0,L|316:83,1,120,2|2,1:2|0:0,0:0:0:0:
190,173,99569,1,2,0:0:0:0:
147,22,99911,6,0,P|161:109|108:178,1,180,6|10,1:2|0:0,0:0:0:0:
45,226,100597,2,0,P|46:255|58:283,1,60,2|8,0:0|0:0,0:0:0:0:
116,335,100940,1,2,1:2:0:0:
257,269,101283,2,0,L|242:336,2,60,2|10|2,0:0|0:0|0:0,0:0:0:0:
399,203,101969,6,0,L|372:320,1,120,6|2,1:2|0:0,0:0:0:0:
304,179,102654,1,2,0:0:0:0:
421,77,102997,2,0,P|322:128|243:49,1,240,2|2,1:2|0:0,0:0:0:0:
93,96,104026,6,0,B|157:116|154:189|152:191|149:192|147:265|212:286,1,240,6|0,1:2|0:0,0:0:0:0:
65,339,105054,2,0,P|34:297|14:222,1,120,2|2,1:2|0:0,0:0:0:0:
93,96,105740,1,2,0:0:0:0:
233,163,106083,70,0,B|293:169|293:169|350:128,1,120,6|0,1:2|1:0,0:0:0:0:
405,88,106597,1,10,0:0:0:0:
457,146,106769,2,0,L|464:208,1,60,0|8,1:0|0:0,0:0:0:0:
470,283,107111,6,0,P|439:336|377:348,1,120,6|6,1:2|0:0,0:0:0:0:
317,309,107626,1,8,0:0:0:0:
256,358,107797,1,6,1:2:0:0:
195,309,107969,1,8,0:0:0:0:
256,192,108140,12,0,109854,0:0:0:0:
