osu file format v10

[General]
AudioFilename: Sakurasou.mp3
AudioLeadIn: 993
PreviewTime: 64228
Countdown: 0
SampleSet: None
StackLeniency: 0.7
Mode: 0
LetterboxInBreaks: 1

[Editor]
DistanceSpacing: 0.8
BeatDivisor: 4
GridSize: 8

[Metadata]
Title:Kimi ga Yume o Tsurete Kita (TV Size)
TitleUnicode:Kimi ga Yume o Tsurete Kita (TV Size)
Artist:Pet no Kanojotachi
ArtistUnicode:Pet no Kanojotachi
Creator:JBsparta117
Version:Normal
Source:Sakurasou no Pet na Kanojo
Tags:
BeatmapID:196550
BeatmapSetID:67738

[Difficulty]
HPDrainRate:4
CircleSize:3
OverallDifficulty:3
ApproachRate:4
SliderMultiplier:1.2
SliderTickRate:1

[Events]
//Background and Video events
0,0,"Konachan.com - 148522 sample.jpg"
//Break Periods
//Storyboard Layer 0 (Background)
//Storyboard Layer 1 (Fail)
//Storyboard Layer 2 (Pass)
//Storyboard Layer 3 (Foreground)
//Storyboard Sound Samples
//Background Colour Transformations
3,100,163,162,255

[TimingPoints]
894.874207979748,444.444444444444,4,2,0,30,1,0
8005,-100,4,1,0,30,0,0
22228,-100,4,2,0,30,0,0
36450,-100,4,1,0,30,0,0
64894,-100,4,1,0,30,0,1
87894,-100,4,2,0,30,0,1
89339,-100,4,2,0,30,0,0

[Colours]
Combo1 : 235,47,20
Combo2 : 128,255,0
Combo3 : 0,255,255
Combo4 : 255,0,255
Combo5 : 255,255,43

[HitObjects]
80,144,894,38,0,P|64:208|112:264|176:272|224:248|224:248|240:192|288:160|336:168,1,360,2|0,0:0|0:0,0:0:0
328,264,2671,38,0,P|256:184|168:168|168:168|216:88|320:80,1,360,2|0,0:0|0:0,0:0:0
368,168,4449,6,0,P|304:168|240:200|216:256|216:320|216:320|152:272|80:280,1,360,2|0,0:0|0:0,0:0:0
256,192,6227,12,4,8005,0:0:0
128,224,8449,6,0,P|168:176|240:152,2,120,8|0|8,0:0|0:0|0:0,0:0:0
224,248,9782,2,0,P|288:216|320:168,2,120,0|8|0,0:0|0:0|0:0,0:0:0
160,320,11116,1,8,0:0:0
120,232,11560,2,0,P|152:184|160:112,1,120,0|8,0:0|0:0,0:0:0
256,152,12449,5,0,0:0:0
240,248,12894,1,8,0:0:0
312,312,13338,2,0,P|376:319|456:296,2,120,0|8|0,0:0|0:0|0:0,0:0:0
312,312,14449,1,8,0:0:0
312,312,14671,1,8,0:0:0
368,232,15116,5,0,0:0:0
384,136,15560,1,8,0:0:0
360,40,16005,2,0,P|312:80|232:88,1,120,0|8,0:0|0:0,0:0:0
192,160,16894,2,0,P|252:183|312:176,2,120,0|8|0,0:0|0:0|0:0,0:0:0
168,64,18227,1,8,0:0:0
104,136,18671,2,0,P|72:192|64:264,1,120,0|8,0:0|0:0,0:0:0
376,200,19560,6,0,P|320:200|256:240,1,120,0|8,0:0|0:0,0:0:0
168,240,20449,1,0,0:0:0
224,320,20894,1,8,0:0:0
264,232,21338,2,0,P|232:176|176:144,1,120,0|8,0:0|0:0,0:0:0
96,112,22227,5,4,0:0:0
176,56,22671,1,8,0:0:0
264,96,23116,2,0,P|320:128|384:128,1,120,0|8,0:0|0:0,0:0:0
344,40,24005,1,0,0:0:0
376,128,24450,2,0,P|354:189|360:248,1,120,8|0,0:0|0:0,0:0:0
264,240,25339,1,8,0:0:0
280,336,25782,6,0,P|216:328|168:272,2,120,0|8|0,0:0|0:0|0:0,0:0:0
264,240,27116,1,8,0:0:0
272,144,27560,6,0,P|216:160|168:224,2,120,0|8|0,0:0|0:0|0:0,0:0:0
272,144,28671,1,8,0:0:0
272,144,28894,1,8,0:0:0
360,192,29338,6,0,P|304:240|232:240,2,120,0|8|0,0:0|0:0|0:0,0:0:0
272,144,30671,1,8,0:0:0
176,152,31116,6,0,P|192:88|232:56,2,120,0|8|0,0:0|0:0|0:0,0:0:0
176,152,32227,1,0,0:0:0
176,152,32449,1,8,0:0:0
184,248,32894,6,0,P|120:232|88:184,1,120,0|8,0:0|0:0,0:0:0
176,152,33782,2,0,P|128:104|64:104,2,120,0|8|0,0:0|0:0|0:0,0:0:0
256,96,35116,1,8,0:0:0
344,136,35560,1,0,0:0:0
344,136,35782,1,0,0:0:0
344,136,36005,1,8,0:0:0
416,200,36449,5,4,0:0:0
416,200,36671,1,0,0:0:0
416,200,36894,2,0,P|440:152|424:80,2,120
344,136,38005,5,0,0:0:0
344,136,38227,2,0,P|224:136,2,120,0|8|0,0:0|0:0|0:0,0:0:0
344,136,39338,1,0,0:0:0
344,136,39560,1,8,0:0:0
320,232,40005,5,0,0:0:0
224,248,40449,2,0,P|256:304|328:328,1,120,8|0,0:0|0:0,0:0:0
392,296,41338,1,8,0:0:0
320,232,41782,2,0,P|376:200|448:216,2,120,0|8|0,0:0|0:0|0:0,0:0:0
320,232,42894,1,8,0:0:0
320,232,43116,1,8,0:0:0
256,160,43560,6,0,P|192:152|144:104,2,120,0|8|0,0:0|0:0|0:0,0:0:0
344,128,44894,1,8,0:0:0
328,224,45338,6,0,P|336:288|384:336,2,120,0|8|0,0:0|0:0|0:0,0:0:0
232,256,46671,1,8,0:0:0
328,224,47116,6,0,P|392:216|432:176,2,120,0|8|0,0:0|0:0|0:0,0:0:0
344,128,48449,1,8,0:0:0
256,192,48894,12,0,50227,0:0:0
336,112,50671,6,0,P|464:160,2,120,4|8|4,0:0|0:0|0:0,0:0:0
248,152,52005,1,8,0:0:0
328,208,52449,6,0,P|448:256,2,120,0|8|0,0:0|0:0|0:0,0:0:0
240,248,53782,1,8,0:0:0
160,192,54227,5,0,0:0:0
136,96,54671,1,8,0:0:0
208,32,55116,2,0,P|264:40|312:80,1,120,0|8,0:0|0:0,0:0:0
256,160,56005,6,0,P|312:168|384:152,2,120,0|8|0,0:0|0:0|0:0,0:0:0
176,208,57338,1,8,0:0:0
176,304,57782,6,0,P|128:304|96:272|96:272|40:272,2,120,0|8|0,0:0|0:0|0:0,0:0:0
176,208,59116,1,8,0:0:0
176,112,59560,2,0,P|224:112|256:144|256:144|312:144,2,120,0|8|0,0:0|0:0|0:0,0:0:0
176,208,60894,1,8,0:0:0
264,248,61338,5,0,0:0:0
360,224,61782,1,0,0:0:0
424,152,62227,1,0,0:0:0
416,56,62671,1,0,0:0:0
256,192,63005,12,0,64449,0:0:0
96,232,64894,6,0,P|121:253|157:252|157:252|178:281|211:288,2,120,4|8|0,0:0|0:0|0:0,0:0:0
152,152,66227,1,8,0:0:0
232,200,66671,2,0,P|248:144|216:88,2,120,0|8|0,0:0|0:0|0:0,0:0:0
232,200,67782,1,0,0:0:0
232,200,68005,1,8,0:0:0
272,288,68449,6,0,P|312:248|328:176,2,120,0|8|0,0:0|0:0|0:0,0:0:0
176,280,69782,1,8,0:0:0
232,200,70227,2,0,P|176:184|104:216,2,120,0|8|0,0:0|0:0|0:0,0:0:0
232,200,71338,1,0,0:0:0
232,200,71560,1,8,0:0:0
288,280,72005,6,0,P|262:301|226:300|226:300|205:329|172:336,2,120,0|8|0,0:0|0:0|0:0,0:0:0
232,200,73338,1,8,0:0:0
152,256,73782,2,0,P|136:200|160:136,1,120,0|8,0:0|0:0,0:0:0
232,200,74671,2,0,P|248:144|224:80,1,120,0|8,0:0|0:0,0:0:0
144,48,75560,5,0,0:0:0
152,144,76005,2,0,P|136:200|80:256,2,120,8|0|8,0:0|0:0|0:0,0:0:0
224,80,77338,1,0,0:0:0
312,104,77782,1,0,0:0:0
392,56,78227,1,0,0:0:0
456,120,78671,1,0,0:0:0
376,176,79116,6,0,P|320:200|256:184,2,120,0|12|0,0:0|0:0|0:0,0:0:0
416,264,80449,1,8,0:0:0
376,176,80894,2,0,P|360:120|384:48,2,120,0|8|0,0:0|0:0|0:0,0:0:0
320,256,82227,1,8,0:0:0
224,248,82671,6,0,P|224:208|256:176|256:176|256:128,2,120,0|8|0,0:0|0:0|0:0,0:0:0
224,248,83782,1,0,0:0:0
224,248,84005,1,8,0:0:0
232,344,84449,2,0,P|272:344|306:311|306:311|364:309,2,120,0|8|0,0:0|0:0|0:0,0:0:0
144,296,85782,5,8,0:0:0
120,200,86227,1,0,0:0:0
176,120,86671,1,8,0:0:0
176,120,86894,2,0,P|232:96|296:104,1,120,0|8,0:0|0:0,0:0:0
289,101,87561,1,0,0:0:0
256,192,87893,12,2,89338,0:0:0
