osu file format v10

[General]
AudioFilename: Sakurasou.mp3
AudioLeadIn: 993
PreviewTime: 64228
Countdown: 0
SampleSet: Normal
StackLeniency: 0.7
Mode: 0
LetterboxInBreaks: 1

[Editor]
DistanceSpacing: 1.1
BeatDivisor: 4
GridSize: 8

[Metadata]
Title:Kimi ga Yume o Tsurete Kita (TV Size)
TitleUnicode:Kimi ga Yume o Tsurete Kita (TV Size)
Artist:Pet no Kanojotachi
ArtistUnicode:Pet no Kanojotachi
Creator:JBsparta117
Version:Hard
Source:Sakurasou no Pet na Kanojo
Tags:
BeatmapID:196548
BeatmapSetID:67738

[Difficulty]
HPDrainRate:6
CircleSize:4
OverallDifficulty:6
ApproachRate:6
SliderMultiplier:1.6
SliderTickRate:1

[Events]
//Background and Video events
0,0,"Konachan.com - 146961 sample.jpg"
//Break Periods
//Storyboard Layer 0 (Background)
//Storyboard Layer 1 (Fail)
//Storyboard Layer 2 (Pass)
//Storyboard Layer 3 (Foreground)
//Storyboard Sound Samples
//Background Colour Transformations
3,100,163,162,255

[TimingPoints]
894.874207979748,444.444444444444,4,2,0,30,1,0
8005,-100,4,1,0,30,0,0
22228,-100,4,1,0,25,0,0
36450,-100,4,1,0,30,0,0
63117,-181.818181818181,4,1,0,30,0,0
63783,-100,4,2,0,30,0,0
64894,-100,4,1,0,30,0,1
64994,-100,4,1,0,30,0,1
89339,-100,4,2,0,30,0,1

[Colours]
Combo1 : 238,39,17
Combo2 : 0,255,255
Combo3 : 255,255,66
Combo4 : 255,0,255
Combo5 : 128,255,0

[HitObjects]
184,96,894,2,0,P|256:120|336:96,2,160,2|0|2,0:0|0:0|0:0,0:0:0
184,96,2005,2,0,P|218:74|258:67,2,80,0|2|0,0:0|0:0|0:0,0:0:0
112,152,2671,6,0,P|48:200,1,80
80,280,3117,2,0,P|144:232,1,80
176,312,3561,1,0,0:0:0
232,240,3784,2,0,P|224:192|200:160,2,80
272,320,4450,6,0,P|368:288,1,80
416,240,4894,2,0,P|320:208,1,80
344,128,5338,1,0,0:0:0
296,56,5560,2,0,P|272:80|256:128,2,80
256,192,6227,12,0,8006,0:0:0
120,144,8449,6,0,P|208:96,1,80,8|0,0:0|0:0,0:0:0
208,184,8894,2,0,P|288:152,1,80
368,184,9338,1,8,0:0:0
408,264,9560,1,0,0:0:0
312,280,9782,6,0,P|232:336,1,80
200,256,10227,2,0,P|120:288,1,80,8|0,0:0|0:0,0:0:0
128,200,10671,2,0,P|177:173|180:110|240:88,2,160,0|8|0,0:0|0:0|0:0,0:0:0
48,232,11782,1,0,0:0:0
112,288,12005,1,8,0:0:0
200,280,12228,1,0,0:0:0
280,320,12449,6,0,P|320:312|360:280,1,80
296,224,12894,2,0,P|336:200|376:200,1,80,8|0,0:0|0:0,0:0:0
432,256,13338,2,0,P|456:224|448:184|448:184|456:144|424:104,2,160,0|8|0,0:0|0:0|0:0,0:0:0
432,256,14449,1,8,0:0:0
432,256,14671,1,8,0:0:0
368,200,14894,1,0,0:0:0
232,136,15116,6,0,P|256:168|296:184,1,80
320,264,15560,2,0,P|280:264|240:248,1,80,8|0,0:0|0:0,0:0:0
168,208,16005,1,0,0:0:0
160,184,16227,1,0,0:0:0
152,160,16449,2,0,P|128:128|120:88,1,80,8|0,0:0|0:0,0:0:0
232,144,16894,6,0,P|288:88,1,80,0|0,0:0|0:0,0:0:0
376,104,17339,2,0,P|296:184,1,80,8|0,0:0|0:0,0:0:0
408,184,17783,2,0,P|464:120,1,80
496,200,18227,2,0,P|496:264|496:264|456:296|456:352,2,160,8|0|8,0:0|0:0|0:0,0:0:0
312,240,19560,5,0,0:0:0
224,216,19782,1,0,0:0:0
184,136,20005,1,8,0:0:0
96,112,20227,1,0,0:0:0
120,200,20450,6,0,P|69:269|-8:312,2,160,0|8|0,0:0|0:0|0:0,0:0:0
184,136,21561,1,0,0:0:0
224,216,21782,2,0,P|224:256|240:296,1,80,8|0,0:0|0:0,0:0:0
320,328,22227,5,0,0:0:0
344,312,22449,1,0,0:0:0
368,296,22671,2,0,P|408:260|408:260|464:240|488:176,2,160
320,128,24005,5,0,0:0:0
304,144,24227,1,0,0:0:0
288,160,24449,1,0,0:0:0
272,176,24672,2,0,P|208:216|120:224,1,160
160,144,25338,1,8,0:0:0
96,80,25560,6,0,P|130:58|175:60,2,80
80,168,26227,2,0,P|136:216|232:224,2,160,0|0|8,0:0|0:0|0:0,0:0:0
208,40,27560,1,0,0:0:0
80,168,28005,1,0,0:0:0
248,224,28450,1,0,0:0:0
328,192,28672,5,8,0:0:0
328,192,28894,1,8,0:0:0
408,152,29116,2,0,P|416:192|400:256,2,80
336,104,29782,2,0,P|277:123|216:112|216:112|184:152,2,160,0|0|8,0:0|0:0|0:0,0:0:0
240,256,31116,5,0,0:0:0
264,248,31338,1,0,0:0:0
288,240,31560,1,0,0:0:0
312,232,31782,2,0,P|352:184|328:128|328:128|344:72,1,160,0|0,0:0|0:0,0:0:0
416,128,32449,1,8,0:0:0
344,80,32671,6,0,P|284:68|232:96|160:80,2,160
416,128,33782,6,0,P|408:192|456:240|440:312,2,160
344,80,34894,1,0,0:0:0
312,160,35116,2,0,P|276:132|256:96,2,80
336,240,35782,1,0,0:0:0
272,296,36005,1,8,0:0:0
80,296,36449,5,4,0:0:0
168,280,36671,1,0,0:0:0
168,280,36894,2,0,P|160:228|112:208|112:208|120:168|72:128,2,160,8|0|8,0:0|0:0|0:0,0:0:0
256,304,38005,1,0,0:0:0
304,232,38228,2,0,P|264:216|224:224,2,80,0|0|8,0:0|0:0|0:0,0:0:0
384,272,38894,1,0,0:0:0
384,184,39117,2,0,P|348:153|296:136,1,80
320,144,39561,1,8,0:0:0
232,136,39782,6,0,P|191:155|160:196,2,80
320,144,40449,2,0,P|384:96|488:88,2,160,8|0|8,0:0|0:0|0:0,0:0:0
272,216,41560,2,0,P|336:248|400:320,2,160,0|0|0,0:0|0:0|0:0,0:0:0
184,208,42671,1,0,0:0:0
104,240,42894,1,8,0:0:0
104,240,43116,1,8,0:0:0
168,80,43560,5,0,0:0:0
256,96,43782,1,0,0:0:0
328,152,44005,2,0,P|280:192|232:184|232:184|176:248,2,160,0|0|8,0:0|0:0|0:0,0:0:0
152,168,45338,1,0,0:0:0
296,264,45782,1,0,0:0:0
296,264,46005,2,0,P|259:305|259:305|211:297|163:337,1,160
88,296,46672,5,0,0:0:0
264,280,47116,2,0,P|344:240|392:176,2,160,0|8|0,0:0|0:0|0:0,0:0:0
176,272,48227,1,0,0:0:0
88,296,48449,1,8,0:0:0
256,192,48782,12,0,50227,0:0:0
256,192,50672,5,4,0:0:0
384,312,51116,2,0,P|400:256|456:232|472:160,2,160
256,192,52449,5,4,0:0:0
136,64,52894,2,0,P|120:120|64:144|48:216,2,160
256,192,54227,5,4,0:0:0
328,136,54449,2,0,P|400:80,2,80
256,192,55116,1,0,0:0:0
184,248,55338,2,0,P|216:280|264:288|312:272|336:232,1,160
400,192,56005,5,4,0:0:0
224,184,56449,1,0,0:0:0
384,112,56894,1,0,0:0:0
208,104,57339,1,0,0:0:0
296,80,57561,1,0,0:0:0
384,112,57782,6,0,P|424:112|464:144,1,80,4|0,0:0|0:0,0:0:0
400,192,58228,1,0,0:0:0
480,216,58450,2,0,P|421:271|344:256,1,160,0|0,0:0|0:0,0:0:0
296,192,59116,5,8,0:0:0
296,192,59338,2,0,P|215:173|136:192,1,160
56,216,60005,2,0,P|56:176|88:128,2,80
120,272,60671,1,0,0:0:0
208,256,60894,1,8,0:0:0
128,96,61338,5,0,0:0:0
208,256,61782,1,0,0:0:0
344,144,62227,1,0,0:0:0
432,296,62671,1,0,0:0:0
264,336,63116,2,0,P|296:272|392:240|440:168,1,240
288,72,64227,5,0,0:0:0
200,80,64449,1,0,0:0:0
136,136,64671,1,0,0:0:0
136,224,64894,2,0,P|176:216|216:168,1,80
280,152,65338,2,0,P|320:152|360:112,1,80,8|0,0:0|0:0,0:0:0
432,168,65782,2,0,P|408:200|360:216,1,80
288,240,66227,2,0,P|248:256|216:296,1,80,8|0,0:0|0:0,0:0:0
136,304,66671,1,0,0:0:0
72,240,66894,1,0,0:0:0
131,98,67116,2,0,P|160:96|208:112,1,80,8|0,0:0|0:0,0:0:0
371,107,67560,6,0,P|340:124|296:128,2,80,0|0|8,0:0|0:0|0:0,0:0:0
344,200,68227,1,0,0:0:0
256,224,68449,1,0,0:0:0
168,216,68671,1,0,0:0:0
230,81,68894,2,0,P|160:104|96:160,2,160,8|0|8,0:0|0:0|0:0,0:0:0
72,160,70005,1,0,0:0:0
72,248,70227,6,0,P|144:280|240:288,2,160,0|8|0,0:0|0:0|0:0,0:0:0
72,160,71338,2,0,P|95:124|136:88,1,80,0|8,0:0|0:0,0:0:0
208,120,71782,1,0,0:0:0
288,88,72005,6,0,P|288:128|272:192,1,80,0|0,0:0|0:0,0:0:0
344,104,72449,2,0,P|352:144|344:208,1,80,8|0,0:0|0:0,0:0:0
464,152,72894,1,0,0:0:0
424,80,73117,1,0,0:0:0
408,208,73339,1,8,0:0:0
376,272,73561,1,0,0:0:0
472,272,73783,1,0,0:0:0
424,344,74005,2,0,P|468:350|512:344,2,80,0|8|0,0:0|0:0|0:0,0:0:0
264,272,74894,5,0,0:0:0
264,272,75116,2,0,P|232:304|168:312,1,80,8|0,0:0|0:0,0:0:0
112,288,75561,1,0,0:0:0
112,200,75783,1,0,0:0:0
200,208,76005,2,0,P|232:184|280:184,2,80,8|0|0,0:0|0:0|0:0,0:0:0
264,272,76672,2,0,P|312:256|352:216,2,80,0|8|0,0:0|0:0|0:0,0:0:0
184,296,77338,1,0,0:0:0
112,136,77782,1,0,0:0:0
272,72,78227,5,0,0:0:0
352,112,78449,1,0,0:0:0
352,112,78671,1,8,0:0:0
352,112,78894,1,0,0:0:0
352,112,79116,2,0,P|328:144|272:160,1,80
328,240,79560,2,0,P|288:248|216:232,1,80,8|0,0:0|0:0,0:0:0
272,328,80005,2,0,P|232:328|184:296,1,80
112,288,80449,2,0,P|129:251|168:232,1,80,8|0,0:0|0:0,0:0:0
216,160,80894,5,0,0:0:0
304,160,81117,2,0,P|288:112|248:80,2,80,0|8|0,0:0|0:0|0:0,0:0:0
440,272,82005,1,0,0:0:0
376,328,82228,1,8,0:0:0
304,280,82449,5,0,0:0:0
232,328,82671,2,0,P|160:288|104:216,2,160,0|8|0,0:0|0:0|0:0,0:0:0
304,280,83782,1,0,0:0:0
304,280,84005,2,0,P|280:256|232:240,1,80,8|0,0:0|0:0,0:0:0
176,176,84449,6,0,P|216:152|280:144,1,80
336,128,84894,2,0,P|384:120|424:104,2,80,8|0|0,0:0|0:0|0:0,0:0:0
304,208,85560,1,0,0:0:0
384,232,85782,1,8,0:0:0
448,176,86005,1,0,0:0:0
488,256,86227,6,0,P|464:296|416:320,1,80
352,328,86671,1,8,0:0:0
264,320,86894,2,0,P|178:284|120:232,1,160
128,240,87561,1,8,0:0:0
256,192,87894,12,0,89339,0:0:0
