osu file format v10

[General]
AudioFilename: Kimi ga Yume wo Tsuretekita.mp3
AudioLeadIn: 2000
PreviewTime: 63728
Countdown: 0
SampleSet: Normal
StackLeniency: 0.3
Mode: 0
LetterboxInBreaks: 0

[Editor]
Bookmarks: 7611,21833,36055,50277,64499,78722
DistanceSpacing: 1
BeatDivisor: 2
GridSize: 4

[Metadata]
Title:Kimi ga Yume wo Tsuretekita (TV Size)
TitleUnicode:君が夢を連れてきた (TV Size)
Artist:Pet na Kanojotachi
ArtistUnicode:ペットな彼女たち
Creator:Fumika
Version:-Kirito's Normal
Source:Sakurasou no Pet na Kanojo
Tags:-Neipezi climbb65588 opening Ai Kayano Mariko Nakatsu Natsumi Takamori -Kirito Netsukawa No_Gu NoGu Wataru Wataruselaka
BeatmapID:184012
BeatmapSetID:61684

[Difficulty]
HPDrainRate:3
CircleSize:3
OverallDifficulty:4
ApproachRate:5
SliderMultiplier:1.3
SliderTickRate:1

[Events]
//Background and Video events
Video,0,"Kimi ga Yume wo Tsuretekita.avi"
0,0,"BG.jpg"
//Break Periods
//Storyboard Layer 0 (Background)
//Storyboard Layer 1 (Fail)
//Storyboard Layer 2 (Pass)
//Storyboard Layer 3 (Foreground)
//Storyboard Sound Samples
//Background Colour Transformations
3,100,163,162,255

[TimingPoints]
477,444.444444444444,4,2,1,80,1,0
7588,-100,4,1,1,80,0,0
7810,-100,4,2,1,80,0,0
8032,-100,4,1,1,80,0,0
8254,-100,4,2,1,80,0,0
8476,-100,4,1,1,80,0,0
8699,-100,4,2,1,80,0,0
8921,-100,4,1,1,80,0,0
9143,-100,4,2,1,80,0,0
9365,-100,4,1,1,80,0,0
9588,-100,4,2,1,80,0,0
9810,-100,4,1,1,80,0,0
10032,-100,4,2,1,80,0,0
10254,-100,4,1,1,80,0,0
10476,-100,4,2,1,80,0,0
10699,-100,4,1,1,80,0,0
11365,-100,4,2,1,80,0,0
11587,-100,4,1,1,80,0,0
11809,-100,4,2,1,80,0,0
12031,-100,4,1,1,80,0,0
12254,-100,4,2,1,80,0,0
12476,-100,4,1,1,80,0,0
12698,-100,4,2,1,80,0,0
12920,-100,4,1,1,80,0,0
13143,-100,4,2,1,80,0,0
13365,-100,4,1,1,80,0,0
13587,-100,4,2,1,80,0,0
13809,-100,4,1,1,80,0,0
14031,-100,4,2,2,80,0,0
14254,-100,4,1,2,80,0,0
14476,-100,4,2,1,80,0,0
14698,-100,4,1,1,80,0,0
14920,-100,4,2,1,80,0,0
15142,-100,4,1,1,80,0,0
15364,-100,4,2,1,80,0,0
15586,-100,4,1,1,80,0,0
15809,-100,4,2,1,80,0,0
16031,-100,4,1,1,80,0,0
16253,-100,4,2,1,80,0,0
16475,-100,4,1,1,80,0,0
16698,-100,4,2,1,80,0,0
16920,-100,4,1,1,80,0,0
17586,-100,4,2,1,80,0,0
17809,-100,4,1,1,80,0,0
18031,-100,4,2,1,80,0,0
18253,-100,4,1,1,80,0,0
18919,-100,4,2,1,80,0,0
19141,-100,4,1,1,80,0,0
19364,-100,4,2,1,80,0,0
19586,-100,4,1,1,80,0,0
19808,-100,4,2,1,80,0,0
20030,-100,4,1,1,80,0,0
21141,-100,4,2,1,80,0,0
21364,-100,4,1,1,80,0,0
21586,-100,4,2,1,80,0,0
21808,-100,4,1,1,80,0,0
22030,-100,4,2,1,80,0,0
22252,-100,4,1,1,80,0,0
22474,-100,4,2,1,80,0,0
22696,-100,4,1,1,80,0,0
22919,-100,4,2,1,80,0,0
23141,-100,4,1,1,80,0,0
23363,-100,4,2,1,80,0,0
23585,-100,4,1,1,80,0,0
23808,-100,4,2,1,80,0,0
24030,-100,4,1,1,80,0,0
24252,-100,4,2,1,80,0,0
24476,-100,4,1,1,80,0,0
24919,-100,4,1,1,80,0,0
25141,-100,4,2,1,80,0,0
25363,-100,4,1,1,80,0,0
25585,-100,4,2,1,80,0,0
25807,-100,4,1,1,80,0,0
26029,-100,4,2,1,80,0,0
26251,-100,4,1,1,80,0,0
26474,-100,4,2,1,80,0,0
26696,-100,4,1,1,80,0,0
26918,-100,4,2,1,80,0,0
27140,-100,4,1,1,80,0,0
27363,-100,4,2,1,80,0,0
27585,-100,4,1,1,80,0,0
27807,-100,4,2,1,80,0,0
28029,-100,4,1,1,80,0,0
28251,-100,4,2,2,60,0,0
28474,-100,4,1,2,60,0,0
28696,-100,4,2,1,80,0,0
28918,-100,4,1,1,80,0,0
29140,-100,4,2,1,80,0,0
29362,-100,4,1,1,80,0,0
30029,-100,4,2,1,80,0,0
30251,-100,4,1,1,80,0,0
30473,-100,4,2,1,80,0,0
30695,-100,4,1,1,80,0,0
30918,-100,4,2,1,80,0,0
31140,-100,4,1,1,80,0,0
31362,-100,4,2,1,80,0,0
31584,-100,4,1,1,80,0,0
31806,-100,4,2,1,80,0,0
32029,-100,4,1,1,80,0,0
32251,-100,4,2,1,80,0,0
32473,-100,4,1,1,80,0,0
32695,-100,4,2,1,80,0,0
32917,-100,4,1,1,80,0,0
33139,-100,4,2,1,80,0,0
33361,-100,4,1,1,80,0,0
33584,-100,4,2,1,80,0,0
33806,-100,4,1,1,80,0,0
34028,-100,4,2,1,80,0,0
34250,-100,4,1,1,80,0,0
34473,-100,4,2,1,80,0,0
34695,-100,4,1,1,80,0,0
34917,-100,4,2,1,80,0,0
35139,-100,4,1,1,80,0,0
35361,-100,4,2,1,80,0,0
35584,-100,4,1,1,80,0,0
36250,-100,4,2,1,80,0,0
36472,-100,4,1,1,80,0,0
36694,-100,4,2,1,80,0,0
36916,-100,4,1,1,80,0,0
37139,-100,4,2,1,80,0,0
37361,-100,4,1,1,80,0,0
37583,-100,4,2,1,80,0,0
37805,-100,4,1,1,80,0,0
38028,-100,4,2,1,80,0,0
38250,-100,4,1,1,80,0,0
38472,-100,4,2,1,80,0,0
38694,-100,4,1,1,80,0,0
38916,-100,4,2,1,80,0,0
39139,-100,4,1,1,80,0,0
39361,-100,4,2,1,80,0,0
39583,-100,4,1,1,80,0,0
39805,-100,4,2,1,80,0,0
40027,-100,4,1,1,80,0,0
40249,-100,4,2,1,80,0,0
40471,-100,4,1,1,80,0,0
40694,-100,4,2,1,80,0,0
40916,-100,4,1,1,80,0,0
41138,-100,4,2,1,80,0,0
41360,-100,4,1,1,80,0,0
41583,-100,4,2,1,80,0,0
41805,-100,4,1,1,80,0,0
42027,-100,4,2,1,80,0,0
42249,-100,4,1,1,80,0,0
42471,-100,4,2,2,70,0,0
42694,-100,4,1,2,70,0,0
42916,-100,4,2,1,80,0,0
43138,-100,4,1,1,80,0,0
43360,-100,4,2,1,80,0,0
43582,-100,4,1,1,80,0,0
43804,-100,4,2,1,80,0,0
44026,-100,4,1,1,80,0,0
44693,-100,4,2,1,80,0,0
44915,-100,4,1,1,80,0,0
45138,-100,4,2,1,80,0,0
45360,-100,4,1,1,80,0,0
45582,-100,4,2,1,80,0,0
45804,-100,4,1,1,80,0,0
46026,-100,4,2,1,80,0,0
46249,-100,4,1,1,80,0,0
46471,-100,4,2,1,80,0,0
46693,-100,4,1,1,80,0,0
46915,-100,4,2,1,80,0,0
47137,-100,4,1,1,80,0,0
47359,-100,4,2,1,80,0,0
47581,-100,4,1,1,80,0,0
47804,-100,4,2,1,80,0,0
48026,-100,4,1,1,80,0,0
48248,-100,4,2,1,80,0,0
48470,-100,4,1,1,80,0,0
48693,-100,4,2,1,80,0,0
48915,-100,4,1,1,80,0,0
49137,-100,4,2,1,80,0,0
49359,-100,4,1,1,80,0,0
49581,-100,4,2,1,80,0,0
49804,-100,4,1,1,80,0,0
50026,-100,4,2,1,80,0,0
50248,-100,4,1,1,80,0,0
50470,-100,4,2,1,80,0,0
50692,-100,4,1,1,80,0,0
50914,-100,4,2,1,80,0,0
51136,-100,4,1,1,80,0,0
51803,-100,4,2,1,80,0,0
52025,-100,4,1,1,80,0,0
52248,-100,4,2,1,80,0,0
52470,-100,4,1,1,80,0,0
52692,-100,4,2,1,80,0,0
52914,-100,4,1,1,80,0,0
53581,-100,4,2,1,80,0,0
53803,-100,4,1,1,80,0,0
54025,-100,4,2,1,80,0,0
54247,-100,4,1,1,80,0,0
54469,-100,4,2,1,80,0,0
54691,-100,4,1,1,80,0,0
55358,-100,4,2,1,80,0,0
55580,-100,4,1,1,80,0,0
55803,-100,4,2,1,80,0,0
56025,-100,4,1,1,80,0,0
56247,-100,4,2,1,80,0,0
56469,-100,4,1,1,80,0,0
56691,-100,4,2,1,80,0,0
56914,-100,4,1,1,80,0,0
57580,-100,4,2,1,80,0,0
57802,-100,4,1,1,80,0,0
58024,-100,4,2,1,80,0,0
58246,-100,4,1,1,80,0,0
58913,-100,4,2,1,80,0,0
59135,-100,4,1,1,80,0,0
59802,-100,4,2,1,80,0,0
60024,-100,4,1,1,80,0,0
60691,-100,4,2,1,80,0,0
60913,-100,4,1,1,80,0,0
61135,-100,4,2,1,80,0,0
61357,-100,4,1,1,80,0,0
61579,-100,4,2,1,80,0,0
61801,-100,4,1,1,80,0,0
62024,-100,4,2,1,80,0,0
62246,-100,4,1,1,80,0,0
62468,-100,4,2,1,80,0,0
62699,-100,4,1,1,80,0,0
62810,-100,4,2,1,80,0,0
64032,-100,4,2,2,80,0,0
64254,-100,4,2,1,80,0,0
64476,-100,4,1,1,80,0,1
64690,-100,4,2,1,80,0,1
64912,-100,4,1,1,80,0,1
65134,-100,4,2,1,80,0,1
65356,-100,4,1,1,80,0,1
65579,-100,4,2,1,80,0,1
65801,-100,4,1,1,80,0,1
66023,-100,4,2,1,80,0,1
66245,-100,4,1,1,80,0,1
66468,-100,4,2,1,80,0,1
66690,-100,4,1,1,80,0,1
66912,-100,4,2,1,80,0,1
67134,-100,4,1,1,80,0,1
67356,-100,4,2,1,80,0,1
67579,-100,4,1,1,80,0,1
67801,-100,4,2,1,80,0,1
68023,-100,4,1,1,80,0,1
68245,-100,4,2,1,80,0,1
68467,-100,4,1,1,80,0,1
68689,-100,4,2,1,80,0,1
68911,-100,4,1,1,80,0,1
69134,-100,4,2,1,80,0,1
69356,-100,4,1,1,80,0,1
69578,-100,4,2,1,80,0,1
69800,-100,4,1,1,80,0,1
70023,-100,4,2,1,80,0,1
70245,-100,4,1,1,80,0,1
70467,-100,4,2,1,80,0,1
70689,-100,4,1,1,80,0,1
70911,-100,4,2,1,80,0,1
71134,-100,4,1,1,80,0,1
71356,-100,4,2,1,80,0,1
71476,-100,4,2,1,80,0,0
71588,-100,4,1,1,80,0,1
71800,-100,4,2,1,80,0,1
72022,-100,4,1,1,80,0,1
72244,-100,4,2,1,80,0,1
72466,-100,4,1,1,80,0,1
72689,-100,4,2,1,80,0,1
72911,-100,4,1,1,80,0,1
73133,-100,4,2,1,80,0,1
73355,-100,4,1,1,80,0,1
73578,-100,4,2,1,80,0,1
73800,-100,4,1,1,80,0,1
74022,-100,4,2,1,80,0,1
74244,-100,4,1,1,80,0,1
74466,-100,4,2,1,80,0,1
74689,-100,4,1,1,80,0,1
74911,-100,4,2,1,80,0,1
75133,-100,4,1,1,80,0,1
75355,-100,4,2,1,80,0,1
75577,-100,4,1,1,80,0,1
75799,-100,4,2,1,80,0,1
76021,-100,4,1,1,80,0,1
76244,-100,4,2,1,80,0,1
76466,-100,4,1,1,80,0,1
76688,-100,4,2,1,80,0,1
76910,-100,4,1,1,80,0,1
77133,-100,4,2,1,80,0,1
77355,-100,4,1,1,80,0,1
77577,-100,4,2,1,80,0,1
77799,-100,4,1,1,80,0,1
78021,-100,4,2,1,80,0,1
78244,-100,4,1,1,80,0,1
78466,-100,4,2,1,80,0,1
78699,-100,4,1,1,80,0,0
79143,-100,4,2,2,50,0,1
79354,-100,4,2,1,80,0,1
79576,-100,4,1,1,80,0,1
79799,-100,4,2,1,80,0,1
80021,-100,4,1,1,80,0,1
80243,-100,4,2,1,80,0,1
80465,-100,4,1,1,80,0,1
80688,-100,4,2,1,80,0,1
80910,-100,4,1,1,80,0,1
81132,-100,4,2,1,80,0,1
81354,-100,4,1,1,80,0,1
81576,-100,4,2,1,80,0,1
81799,-100,4,1,1,80,0,1
82021,-100,4,2,1,80,0,1
82243,-100,4,1,1,80,0,1
82465,-100,4,2,1,80,0,1
82687,-100,4,1,1,80,0,1
82909,-100,4,2,1,80,0,1
83131,-100,4,1,1,80,0,1
83354,-100,4,2,1,80,0,1
83576,-100,4,1,1,80,0,1
83798,-100,4,2,1,80,0,1
84020,-100,4,1,1,80,0,1
84243,-100,4,2,1,80,0,1
84465,-100,4,1,1,80,0,1
84687,-100,4,2,1,80,0,1
84909,-100,4,1,1,80,0,1
85131,-100,4,2,1,80,0,1
85354,-100,4,1,1,80,0,1
85576,-100,4,2,1,80,0,1
85798,-100,4,1,1,80,0,1
86464,-100,4,2,1,80,0,1
86686,-100,4,1,1,80,0,1
86909,-100,4,2,1,80,0,1
87131,-100,4,1,1,80,0,1
87353,-100,4,2,1,80,0,1
87588,-100,4,2,1,60,0,0
88365,-100,4,2,1,20,0,0
88921,-100,4,2,1,5,0,0

[Colours]
Combo1 : 255,128,64
Combo2 : 128,255,0
Combo3 : 154,235,252
Combo4 : 218,65,65
Combo5 : 255,236,0
Combo6 : 255,128,192
Combo7 : 255,255,255
Combo8 : 80,0,128
SliderBorder : 255,255,255

[HitObjects]
64,256,477,1,2,0:0:0
192,224,921,2,0,B|256:240|320:224,1,130
448,256,1810,1,0,0:0:0
376,144,2254,6,0,B|312:96|256:112|256:112|192:96|128:144,1,260,2|0,0:0|0:0,0:0:0
40,232,3588,1,0,0:0:0
104,344,4032,6,0,B|200:360|288:288|256:192,1,260,2|0,0:0|0:0,0:0:0
144,136,5365,1,0,0:0:0
256,72,5810,6,0,B|328:72|392:96,1,130,2|0,0:0|0:0,0:0:0
456,200,6699,2,0,B|456:272|432:336,1,130,0|0,0:0|0:0,0:0:0
320,288,7588,6,0,B|256:272|256:272|192:288,1,130,4|8,0:0|0:0,0:0:0
64,304,8477,1,0,0:0:0
128,192,8921,1,8,0:0:0
192,80,9365,6,0,B|256:96|256:96|320:80,1,130,0|8,0:0|0:0,0:0:0
432,128,10254,1,0,0:0:0
432,128,10699,1,8,0:0:0
432,256,11143,6,0,B|368:240|304:256,1,130,0|8,0:0|0:0,0:0:0
200,344,12032,2,0,B|140:360|72:344,1,130,0|8,0:0|0:0,0:0:0
48,216,12921,6,0,B|32:152|48:84,1,130,0|8,0:0|0:0,0:0:0
168,44,13810,2,0,B|184:108|168:176,1,130,2|8,0:0|0:0,0:0:0
192,304,14699,6,0,B|256:280|320:304,1,130,4|8,0:0|0:0,0:0:0
448,296,15588,1,2,0:0:0
448,296,16032,1,8,0:0:0
376,200,16477,6,0,B|360:136|376:72,1,130,2|8,0:0|0:0,0:0:0
256,32,17365,1,0,0:0:0
256,32,17810,1,8,0:0:0
176,128,18254,6,0,B|176:192|192:256,1,130,2|8,0:0|0:0,0:0:0
320,256,19143,2,0,B|336:192|336:128,1,130,2|8,0:0|0:0,0:0:0
448,196,20032,5,0,0:0:0
388,312,20476,1,0,0:0:0
256,336,20921,1,0,0:0:0
256,336,21365,1,4,2:0:0
128,304,21810,6,0,B|64:280|40:192,2,130,4|2|0,1:0|0:0|0:0,0:0:0
256,272,23143,1,2,0:0:0
384,304,23588,2,0,B|456:304,2,65,2|0|2,0:0|0:0|0:0,0:0:0
320,192,24476,1,0,0:0:0
192,192,24921,1,2,0:0:0
256,80,25365,6,0,B|312:40|384:40,2,130,0|2|0,0:0|0:0|0:0,0:0:0
192,192,26699,1,2,0:0:0
280,288,27143,2,0,B|224:328|152:328,2,130,2|0|0,0:0|0:0|0:0,0:0:0
336,256,28254,2,8,B|400:272,1,65,8|8,0:0|0:0,2:0:0
416,144,28921,6,0,B|384:80|328:48,1,130,2|0,0:0|0:0,0:0:0
200,48,29810,2,0,B|136:80|104:136,1,130,2|0,0:0|0:0,0:0:0
68,260,30699,6,0,B|100:324|156:356,1,130,2|0,0:0|0:0,0:0:0
220,348,31365,2,0,B|284:332|348:348,1,130,2|0,0:0|0:0,0:0:0
404,316,32032,1,0,0:0:0
432,256,32254,2,0,B|416:192|432:128,1,130,2|0,0:0|0:0,0:0:0
404,68,32921,1,2,0:0:0
280,48,33365,2,0,B|212:48|152:64,1,130,2|0,0:0|0:0,0:0:0
52,148,34254,6,0,B|68:212|52:276,2,130
52,148,35588,1,8,0:0:0
144,64,36032,2,0,B|200:64|256:120|256:120|312:64|376:64,1,260,4|0,0:0|0:0,0:0:0
452,168,37365,1,8,0:0:0
444,296,37810,6,0,B|376:296|376:296|312:312,1,130,0|8,0:0|0:0,0:0:0
256,336,38476,1,0,0:0:0
196,312,38699,2,0,B|135:296|135:296|67:296,1,130,0|8,0:0|0:0,0:0:0
124,180,39588,6,0,B|92:112|124:48,1,130,0|8,0:0|0:0,0:0:0
244,92,40476,2,0,B|276:160|244:224,1,130,0|8,0:0|0:0,0:0:0
292,268,41143,2,0,B|400:264|472:352,2,195,0|8|8,0:0|0:0|0:0,0:0:0
228,280,42699,1,8,0:0:0
100,268,43143,6,0,B|48:224|36:148,2,130,4|8|2,0:0|0:0|0:0,0:0:0
228,280,44476,1,8,0:0:0
252,152,44921,2,0,B|288:88|352:72,1,130,2|8,0:0|0:0,0:0:0
416,80,45588,2,0,B|480:116|496:180,1,130,2|0,0:0|0:0,0:0:0
488,244,46254,1,8,0:0:0
384,324,46699,6,0,B|280:280|200:352,2,195,4|2|8,0:0|0:0|0:0,0:0:0
356,196,48476,2,0,B|328:64,1,130,4|8,0:0|0:0,0:0:0
204,40,49365,1,0,0:0:0
84,92,49810,1,8,0:0:0
44,216,50254,5,4,0:0:0
96,308,50699,2,0,B|164:324|224:288,2,130,8|0|8,0:0|0:0|0:0,0:0:0
44,216,52032,6,0,B|84:132|208:120|264:200,1,260,2|0,0:0|0:0,0:0:0
248,300,53365,1,8,0:0:0
160,244,53810,6,0,B|104:148|164:52|260:52,1,260,2|0,0:0|0:0,0:0:0
356,40,55143,1,8,0:0:0
444,96,55588,2,0,B|456:160|416:228,1,130,2|8,0:0|0:0,0:0:0
412,324,56476,2,0,B|440:352|480:356,2,65,0|0|8,0:0|0:0|0:0,0:0:0
308,324,57365,6,0,B|220:300|112:328,2,195,4|0|8,0:0|0:0|0:0,0:0:0
368,240,59143,2,0,B|436:224,2,65,2|0|8,0:0|0:0|0:0,0:0:0
400,140,60032,2,0,B|468:124,2,65,0|2|8,0:0|0:0|0:0,0:0:0
292,92,60921,6,0,B|220:92|164:36,1,130,4|8,0:0|0:0,0:0:0
68,92,61810,2,0,B|68:164|12:220,1,130,4|8,0:0|0:0,0:0:0
24,328,62699,2,0,P|192:308|160:360,1,390,0|2,0:0|0:0,0:0:0
288,304,64476,6,0,B|364:292|408:252,1,130,4|8,1:0|0:0,0:0:0
432,192,65143,2,0,B|420:116|380:72,1,130,2|0,0:0|0:0,0:0:0
324,44,65810,1,8,0:0:0
260,40,66032,6,0,B|204:76|132:68,1,130,2|0,0:0|0:0,0:0:0
80,100,66699,2,0,B|56:204|124:288,1,195,10|0,0:0|0:0,0:0:0
164,332,67588,1,8,0:0:0
284,316,68032,6,0,B|312:344|344:348,2,65,2|0|8,0:0|0:0|0:0,0:0:0
288,252,68699,2,0,B|308:188|264:120,2,130,0|2|0,0:0|0:0|0:0,0:0:0
232,284,69810,2,0,B|136:264|40:316,2,195,2|0|8,0:0|0:0|0:0,0:0:0
340,356,71588,6,0,B|380:296|356:228,1,130,4|8,0:0|0:0,0:0:0
308,188,72254,2,0,B|264:164|224:164|224:164|108:164,1,195,2|8,0:0|0:0,0:0:0
40,60,73365,2,0,B|84:84|124:84|124:84|176:84,1,130,0|8,0:0|0:0,0:0:0
284,32,74254,2,0,B|325:32|325:32|365:32|409:56,1,130,0|8,0:0|0:0,0:0:0
364,156,75143,6,0,B|364:224|420:272,1,130,2|8,0:0|0:0,0:0:0
332,368,76032,2,0,B|284:324|204:352,1,130,0|8,0:0|0:0,0:0:0
148,236,76921,2,0,B|216:208|228:140,2,130,0|8|0,0:0|0:0|0:0,0:0:0
100,116,78254,1,8,0:0:0
60,240,78699,6,0,B|56:276|40:304,2,65,0|0|4,0:0|0:0|0:0,0:0:0
100,116,79588,2,0,B|172:100|200:40|200:40|268:56|336:24,1,260,0|0,0:0|0:0,0:0:0
448,76,80921,1,8,0:0:0
404,200,81365,1,0,0:0:0
280,156,81810,1,8,0:0:0
296,284,82254,6,0,B|224:276|176:340,1,130,2|8,0:0|0:0,0:0:0
120,308,82921,2,0,B|128:236|64:188,1,130,2|0,0:0|0:0,0:0:0
92,132,83588,1,8,0:0:0
192,48,84032,6,0,B|256:60|256:60|320:48,1,130,0|8,0:0|0:0,0:0:0
420,132,84921,1,0,0:0:0
420,132,85365,1,8,0:0:0
420,132,85810,6,0,B|432:200|464:256,1,130,4|8,0:0|0:0,0:0:0
436,312,86476,2,0,B|372:320|312:356,1,130,2|0,0:0|0:0,0:0:0
252,328,87143,1,8,0:0:0
180,220,87588,6,0,B|244:192|256:120,1,130,2|0,0:0|0:0,0:0:0
308,84,88254,2,0,B|360:96|404:72|404:72|440:112|492:112,1,195,2|0,0:0|0:0,0:0:0
