osu file format v11

[General]
AudioFilename: 10 02(1)_clip.mp3
AudioLeadIn: 0
PreviewTime: -1
Countdown: 0
SampleSet: Normal
StackLeniency: 0.7
Mode: 0
LetterboxInBreaks: 1

[Editor]
DistanceSpacing: 1.1
BeatDivisor: 4
GridSize: 8

[Metadata]
Title:Kimi ga Yume wo Tsurete Kita (TV Size)
TitleUnicode:Kimi ga Yume wo Tsurete Kita (TV Size)
Artist:Pet na Kanojotachi
ArtistUnicode:Pet na Kanojotachi
Creator:niceplayer
Version:Normal
Source:Sakuraso no Pet na Kanojo
Tags:Sakuraso mashiro
BeatmapID:195604
BeatmapSetID:65342

[Difficulty]
HPDrainRate:3
CircleSize:3
OverallDifficulty:3
ApproachRate:5
SliderMultiplier:1.2
SliderTickRate:1

[Events]
//Background and Video events
0,0,"Bg.png"
Video,0,"movie_sakura.avi"
//Break Periods
//Storyboard Layer 0 (Background)
//Storyboard Layer 1 (Fail)
//Storyboard Layer 2 (Pass)
//Storyboard Layer 3 (Foreground)
//Storyboard Sound Samples
//Background Colour Transformations
3,100,163,162,255

[TimingPoints]
595,444.444444444444,4,1,1,70,1,0
50372,-133.333333333333,4,1,1,70,0,0
64150,-100,4,1,1,70,0,1
88594,-100,4,1,1,45,0,1
89039,-100,4,1,1,20,0,1

[Colours]
Combo1 : 255,128,64
Combo2 : 255,128,255
Combo3 : 128,0,255
Combo4 : 128,255,0
Combo5 : 128,128,255
Combo6 : 255,51,51

[HitObjects]
256,192,5928,12,0,7261,0:0:0
128,112,7706,5,0,0:0:0
256,112,8150,2,0,P|368:80|384:88|384:88|464:112|472:144,1,240
472,280,9483,5,0,0:0:0
344,280,9927,2,0,P|232:312|216:304|216:304|136:280|128:248,1,240
232,160,11261,2,0,P|352:160,1,120
352,32,12150,2,0,P|232:32,1,120
104,48,13039,2,0,P|48:80|8:136,2,120
184,176,14372,5,0,0:0:0
296,264,14817,2,0,P|184:288|64:256,1,240
184,176,16150,5,0,0:0:0
72,96,16595,2,0,P|184:72|304:104,1,240,0|0,0:0|0:0,0:0:0
184,176,17928,5,0,0:0:0
312,184,18372,2,0,P|264:312,1,120
400,296,19261,2,0,P|442:183,1,120
256,192,20150,12,0,21483,0:0:0
216,64,21928,6,0,P|112:128|72:240,1,240
200,256,23261,1,0,0:0:0
328,264,23706,2,0,P|384:248|448:200,1,120
392,88,24594,2,0,P|328:104|272:152,1,120
312,264,25483,6,0,P|152:224|120:144,1,240
384,112,27261,2,0,P|440:88|496:112,2,120
384,176,28372,2,8,P|464:176,1,60
416,304,29039,6,0,P|344:336|280:336,2,120
320,216,30372,1,0,0:0:0
224,120,30817,6,0,P|208:192|176:224,1,120
112,248,31483,1,0,0:0:0
64,200,31706,1,0,0:0:0
48,136,31928,2,0,P|48:56,1,60
176,64,32594,6,0,P|256:48|312:72,1,120
424,64,33483,6,0,P|440:144|416:200,1,120
304,136,34372,6,0,P|232:152|200:184,1,120
176,248,35038,1,0,0:0:0
224,296,35261,1,0,0:0:0
288,312,35483,2,0,P|368:312,1,60
432,208,36150,6,0,P|304:184|304:184|248:200|192:168,1,240
64,32,37706,1,0,0:0:0
64,96,37928,2,0,P|64:232,1,120
144,320,38817,1,0,0:0:0
272,288,39706,2,0,P|352:216|352:192,2,120
159,171,41261,2,0,P|160:168|240:96,2,120
56,256,42594,1,0,0:0:0
56,256,42817,1,0,0:0:0
176,312,43261,6,0,P|248:280|248:280|296:304|336:280|336:280|408:320,1,240
392,184,44594,1,0,0:0:0
392,48,45039,2,0,P|331:14|331:14|291:38|243:14|243:14|171:46,1,240
104,160,46372,6,0,P|176:152|208:72|280:-24|296:88|352:160|424:160|416:160,1,360
264,192,48150,1,0,0:0:0
256,192,48594,12,0,49928,0:0:0
176,104,50817,6,0,P|136:152|128:192,1,90.0000034332277
128,280,51706,1,0,0:0:0
336,104,52594,6,0,P|376:152|384:192,1,90.0000034332277
384,280,53483,1,0,0:0:0
256,352,54150,6,0,P|176:376|104:376,1,135.000005149841
72,376,55039,1,0,0:0:0
40,280,55483,2,0,P|40:224,1,45.0000017166138
104,160,56150,1,0,0:0:0
232,80,56817,1,0,0:0:0
280,80,57039,1,0,0:0:0
328,80,57261,1,0,0:0:0
376,80,57483,2,0,P|464:136,1,90.0000034332277
400,320,58817,6,0,P|336:336|296:336,1,90.0000034332277
216,336,59706,1,0,0:0:0
120,336,60150,1,0,0:0:0
64,256,60594,1,0,0:0:0
104,160,61039,5,0,0:0:0
200,160,61483,1,0,0:0:0
296,160,61928,1,0,0:0:0
392,160,62372,1,0,0:0:0
256,192,62817,12,0,63706,0:0:0
352,128,64150,6,0,P|304:72|240:64,2,120
352,192,65261,1,0,0:0:0
352,192,65706,1,0,0:0:0
352,272,66150,6,0,P|400:328|464:336,2,120
288,192,67261,2,0,P|208:192,1,60
128,280,67928,2,0,P|80:208|144:184|112:96,1,180
120,40,68817,2,0,P|256:40,1,120
304,40,69483,1,0,0:0:0
312,168,69928,6,0,P|384:184|440:168,1,120
488,144,70594,1,0,0:0:0
488,280,71039,6,0,P|368:312,1,120
320,272,71706,2,0,P|184:312,1,120
152,272,72372,2,0,P|32:304,1,120
40,168,73261,6,0,P|112:96|200:80,1,180
248,72,74150,1,0,0:0:0
376,80,74594,6,0,P|432:88|456:104,2,60
360,144,75261,2,0,P|360:272,1,120
360,328,75928,1,0,0:0:0
232,264,76372,2,0,P|168:264,1,60
128,136,77039,6,0,P|168:104|224:136,2,120
128,200,78150,6,0,P|200:200,2,60,0|0|0,0:0|0:0|0:0,0:0:0
128,264,78817,2,0,P|200:344|216:360,1,120
272,336,79483,2,0,P|376:276,1,120
496,224,80372,2,0,P|440:168|392:184|392:184|344:120,1,180
288,136,81261,1,0,0:0:0
88,96,81706,5,0,0:0:0
160,96,81928,1,0,0:0:0
232,96,82150,1,0,0:0:0
304,96,82372,2,0,P|400:104|432:128,1,120
448,176,83039,2,0,P|488:240|488:304,1,120
424,288,83706,1,0,0:0:0
296,288,84150,6,0,P|176:288,1,120,0|0,0:0|0:0,0:0:0
112,288,84817,1,0,0:0:0
128,160,85261,6,0,P|192:88|208:104|208:104|280:56,1,180
352,224,86372,2,0,P|432:176|448:144,1,120
256,192,87706,12,4,89039,0:0:0
