osu file format v11

[General]
AudioFilename: 10 02(1)_clip.mp3
AudioLeadIn: 3000
PreviewTime: -1
Countdown: 0
SampleSet: Soft
StackLeniency: 0.7
Mode: 0
LetterboxInBreaks: 1

[Editor]
DistanceSpacing: 1.1
BeatDivisor: 4
GridSize: 8

[Metadata]
Title:Kimi ga Yume wo Tsurete Kita (TV Size)
TitleUnicode:Kimi ga Yume wo Tsurete Kita (TV Size)
Artist:Pet na Kanojotachi
ArtistUnicode:Pet na Kanojotachi
Creator:niceplayer
Version:Hard
Source:Sakuraso no Pet na Kanojo
Tags:Sakuraso mashiro
BeatmapID:195600
BeatmapSetID:65342

[Difficulty]
HPDrainRate:7
CircleSize:4
OverallDifficulty:5
ApproachRate:7
SliderMultiplier:1.8
SliderTickRate:2

[Events]
//Background and Video events
0,0,"Bg.png"
Video,0,"movie_sakura.avi"
//Break Periods
2,7457,13917
//Storyboard Layer 0 (Background)
//Storyboard Layer 1 (Fail)
//Storyboard Layer 2 (Pass)
//Storyboard Layer 3 (Foreground)
//Storyboard Sound Samples
//Background Colour Transformations
3,100,163,162,255

[TimingPoints]
595,444.444444444444,4,2,0,75,1,0
21915,-133.333333333333,4,2,0,75,0,0
50594,-166.666666666667,4,2,0,75,0,0
61039,-133.333333333333,4,2,0,75,0,0
63915,-100,4,1,0,75,0,1
86817,-133.333333333333,4,2,0,75,0,0
88594,-133.333333333333,4,2,0,45,0,0
89039,-133.333333333333,4,2,0,20,0,1

[Colours]
Combo1 : 255,128,64
Combo2 : 255,128,255
Combo3 : 128,0,255
Combo4 : 128,255,0
Combo5 : 128,128,255
Combo6 : 255,51,51

[HitObjects]
96,128,595,2,0,P|128:80|192:72,1,90,0|0,0:0|0:0,0:0:0
248,72,1039,2,0,P|296:104|312:144,1,90,0|0,0:0|0:0,0:0:0
312,232,1484,2,2,P|280:288|224:304,1,90,0|0,0:0|0:0,0:0:0
160,296,1928,2,2,P|112:264|104:200,1,90,0|0,0:0|0:0,0:0:0
152,128,2369,6,0,P|184:80|248:72,1,90
304,72,2813,2,0,P|352:104|368:144,1,90
368,232,3258,2,0,P|336:288|280:304,1,90
216,296,3702,2,0,P|168:264|160:200,1,90
200,128,4147,6,2,P|232:80|296:72,1,90,2|2,0:0|0:0,0:0:0
352,72,4591,2,2,P|400:104|416:144,1,90,2|2,0:0|0:0,0:0:0
416,232,5036,2,2,P|384:288|328:304,1,90,2|2,0:0|0:0,0:0:0
264,296,5480,2,2,P|216:264|208:200,1,90,2|2,0:0|0:0,0:0:0
256,192,5924,12,0,7257,0:0:0
128,72,14817,5,2,0:0:0
384,72,15262,1,2,0:0:0
128,312,15706,1,2,0:0:0
392,312,16151,1,2,0:0:0
88,184,16595,5,2,0:0:0
448,184,17039,1,2,0:0:0
256,48,17484,1,2,0:0:0
256,320,17928,1,2,0:0:0
104,192,18372,2,2,P|296:192,1,180
480,192,19261,2,0,P|368:192,1,90,2|0,0:0|0:0,0:0:0
288,192,19706,1,2,0:0:0
256,192,20150,12,8,21483,0:0:0
216,96,21928,6,0,P|144:88|80:136,2,135.000005149842
368,96,23261,1,0,0:0:0
464,208,23706,2,0,P|448:240|464:280,3,67.5000025749208
304,248,24817,2,8,P|304:184,1,52.5000020027161
168,96,25483,6,0,P|280:32|280:32|408:104,1,270.000010299683
424,256,26816,1,0,0:0:0
280,304,27261,2,0,P|208:336|144:320,1,135.000005149842
112,184,28150,1,8,0:0:0
112,112,28372,2,8,P|112:32,1,67.5000025749208
184,56,28817,1,2,0:0:0
256,56,29039,2,2,P|320:88|320:88|376:56,1,135.000005149842
448,56,29706,1,2,0:0:0
448,128,29928,2,2,P|480:184|480:184|448:248,1,135.000005149842
328,336,30817,6,0,P|248:336,1,67.5000025749208,0|2,0:0|0:0,0:0:0
136,264,31261,2,0,P|224:264,1,67.5000025749208,0|2,0:0|0:0,0:0:0
328,176,31706,2,0,P|248:176,1,67.5000025749208,0|2,0:0|0:0,0:0:0
168,56,32372,1,0,0:0:0
240,56,32594,2,0,P|304:40|368:64,1,135.000005149842
432,104,33261,1,0,0:0:0
456,176,33483,2,0,P|480:240|456:304,1,135.000005149842
384,304,34150,1,0,0:0:0
312,304,34372,2,0,P|232:304,3,67.5000025749208
104,136,35706,5,8,0:0:0
440,120,36372,1,2,0:0:0
376,88,36594,2,2,P|296:48|240:40,1,135.000005149842
176,40,37261,1,2,0:0:0
40,120,37706,2,0,P|48:160|40:192,1,67.5000025749208
192,184,38372,2,0,P|184:144|192:112,1,67.5000025749208
312,200,39039,6,0,P|400:200,1,67.5000025749208,0|0,0:0|0:0,0:0:0
456,200,39483,1,2,0:0:0
448,272,39706,2,2,P|408:312|328:336,2,135.000005149842
496,216,40817,2,2,P|496:144,1,67.5000025749208
464,80,41261,6,0,P|376:56|312:56,1,135.000005149842
256,56,41928,1,2,0:0:0
184,72,42150,1,2,0:0:0
160,144,42372,1,2,0:0:0
256,152,42594,1,8,0:0:0
256,152,42817,1,8,0:0:0
400,168,43261,2,0,P|376:256|328:296,1,135.000005149842
264,288,43928,1,0,0:0:0
184,288,44150,6,0,P|88:288,1,72
80,224,44594,1,0,0:0:0
80,152,44817,1,0,0:0:0
80,80,45039,2,2,P|104:40|128:40,3,67.5000025749208
152,256,46372,2,8,P|152:176,1,67.5000025749208
240,152,46816,2,2,P|376:160|240:160,1,405.000015449525
104,128,48594,5,2,0:0:0
104,264,48816,1,2,0:0:0
248,264,49038,1,2,0:0:0
248,128,49261,1,2,0:0:0
256,192,49483,12,0,50150,0:0:0
120,272,50594,5,8,0:0:0
176,272,50817,2,2,P|232:264|280:224,1,107.999996704102
320,192,51483,1,10,0:0:0
320,192,51706,1,10,0:0:0
120,112,52372,1,8,0:0:0
176,112,52594,2,2,P|232:120|280:160,1,107.999996704102
320,192,53261,1,8,0:0:0
320,192,53483,1,8,0:0:0
448,320,54150,5,8,0:0:0
472,264,54372,2,0,P|480:200|464:152,1,107.999996704102
448,104,55039,2,0,P|400:56|352:48,1,107.999996704102
304,48,55706,1,4,0:0:0
144,88,56150,2,0,P|144:24,2,53.9999983520508,8|8|8,0:0|0:0|0:0,0:0:0
104,168,56817,1,0,0:0:0
104,168,57039,1,0,0:0:0
104,168,57261,1,0,0:0:0
104,168,57483,2,0,P|160:160|216:176,1,107.999996704102
208,232,58150,1,0,0:0:0
208,288,58372,2,0,P|264:296|320:288,1,107.999996704102
320,232,59039,1,0,0:0:0
320,176,59261,2,0,P|384:168|432:176,1,107.999996704102
432,232,59928,5,0,0:0:0
432,288,60150,2,0,P|368:296|320:288,1,107.999996704102
256,40,61039,1,4,0:0:0
256,296,61483,1,4,0:0:0
80,168,61928,1,4,0:0:0
440,168,62372,1,4,0:0:0
296,192,62817,2,0,P|256:96|240:192,1,270.000010299683
40,184,64150,6,2,P|72:232|64:272,1,90
168,288,64594,2,2,P|360:288,1,161.999995056153
400,88,65261,2,2,P|320:88,1,80.9999975280763
296,192,65706,2,2,P|208:192,1,80.9999975280763
112,224,66150,1,0,0:0:0
96,320,66372,2,0,P|160:288|264:328,1,180
360,320,67039,1,8,0:0:0
360,320,67261,2,8,P|464:320,2,90
400,232,67928,1,0,0:0:0
448,144,68150,6,0,P|464:88|448:64,2,90
352,128,68817,2,0,P|336:184|304:192,1,90
201,192,69261,2,0,P|176:184|160:128,1,90
256,96,69706,5,8,0:0:0
256,96,69928,2,8,P|256:304,1,180
256,276,70594,1,8,0:0:0
456,264,71039,2,0,P|496:184|504:80,1,180
408,72,71706,2,0,P|368:152|360:256,1,180
264,280,72372,2,0,P|208:312|168:288,2,90
224,192,73039,1,0,0:0:0
264,104,73261,2,0,P|208:72|168:96,2,90
360,104,73928,2,4,P|472:104,1,90
280,208,74594,5,8,0:0:0
328,304,74817,1,8,0:0:0
232,304,75039,1,8,0:0:0
136,304,75261,2,2,P|120:264|120:208,1,90
112,120,75706,6,2,P|113:73|129:33,1,90
240,192,76372,1,2,0:0:0
240,192,76594,2,2,P|360:192,1,90
408,48,77039,2,0,P|456:40|496:56,2,90
408,48,77706,1,8,0:0:0
408,264,78150,2,2,P|498:264,2,90
312,288,78817,2,4,P|200:328|128:328,1,180
64,272,79483,2,2,P|32:240|24:192,1,90
16,96,79928,1,2,0:0:0
160,232,80372,2,0,P|152:184|128:144,4,90
344,152,81706,5,10,0:0:0
400,56,81929,1,10,0:0:0
296,56,82151,1,8,0:0:0
168,56,82372,2,2,P|152:96|152:152,1,90
144,240,82817,6,2,P|145:287|161:327,1,90
304,192,83483,1,2,0:0:0
304,192,83705,2,2,P|424:192,1,90
304,264,84150,6,0,P|184:264,1,80.9999975280763
176,136,84594,1,8,0:0:0
120,264,84817,1,8,0:0:0
312,216,85261,5,10,0:0:0
264,320,85484,1,10,0:0:0
368,320,85706,1,8,0:0:0
472,320,85927,2,2,P|488:280|488:224,1,90
448,144,86372,1,0,0:0:0
360,96,86594,2,0,P|288:56|192:40,1,180
128,80,87261,1,8,0:0:0
256,192,87706,12,0,89039,0:0:0
