osu file format v12

[General]
AudioFilename: 10 Green Eyes.mp3
AudioLeadIn: 500
PreviewTime: 76152
Countdown: 0
SampleSet: Normal
StackLeniency: 0.7
Mode: 0
LetterboxInBreaks: 1

[Editor]
DistanceSpacing: 0.5
BeatDivisor: 4
GridSize: 4

[Metadata]
Title:Green Eyes
TitleUnicode:Green Eyes
Artist:Persona
ArtistUnicode:Persona
Creator:Otoha
Version:Lv.10
Source:Cytus
Tags:tatsh RAYARK rhythm ipod ipad
BeatmapID:160497
BeatmapSetID:51936

[Difficulty]
HPDrainRate:7
CircleSize:4
OverallDifficulty:7
ApproachRate:9
SliderMultiplier:2.4
SliderTickRate:1

[Events]
//Background and Video events
0,0,"green_eyes.jpg",0,0
//Break Periods
//Storyboard Layer 0 (Background)
//Storyboard Layer 1 (Fail)
//Storyboard Layer 2 (Pass)
//Storyboard Layer 3 (Foreground)
//Storyboard Sound Samples
//Background Colour Transformations
3,100,163,162,255

[TimingPoints]
690,370.37037037037,4,1,1,70,1,0
62912,-100,4,2,1,60,0,0
64393,-133.333333333333,4,2,1,70,0,0
76245,-100,4,1,1,80,0,1
99949,-133.333333333333,4,1,1,60,0,0
109578,-133.333333333333,4,1,1,80,0,0

[Colours]
Combo1 : 143,58,248
Combo2 : 15,227,84
Combo3 : 7,119,241
Combo4 : 230,19,19
SliderBorder : 255,255,255

[HitObjects]
220,96,2171,6,0,B|220:220,1,120,4|0,0:0|0:0,0:0:0:0:
288,268,2541,2,0,B|288:144,1,120,8|0,0:0|0:0,0:0:0:0:
152,44,2912,2,0,B|152:168,1,120
356,328,3282,2,0,B|356:204,1,120,8|0,0:0|0:0,0:0:0:0:
84,336,3652,6,0,B|208:336,1,120
428,48,4023,2,0,B|304:48,1,120,8|0,0:0|0:0,0:0:0:0:
168,240,4393,2,0,B|300:240,1,120
360,152,4764,1,8,0:0:0:0:
324,152,4856,1,8,0:0:0:0:
288,152,4949,1,8,0:0:0:0:
252,152,5041,1,8,0:0:0:0:
216,152,5134,6,0,B|156:120|144:52,1,120
256,16,5504,2,0,B|316:16,3,60,8|0|8|0,0:0|0:0|0:0|0:0,0:0:0:0:
352,16,5875,6,0,B|412:40|452:104,1,120
452,212,6245,1,8,0:0:0:0:
292,340,6430,1,0,0:0:0:0:
256,340,6523,1,0,0:0:0:0:
220,340,6615,1,0,0:0:0:0:
100,340,6801,5,0,0:0:0:0:
264,264,6986,1,8,0:0:0:0:
184,104,7171,1,8,0:0:0:0:
20,176,7356,5,0,0:0:0:0:
44,204,7449,1,0,0:0:0:0:
76,220,7541,1,0,0:0:0:0:
112,220,7634,1,0,0:0:0:0:
144,204,7727,1,8,0:0:0:0:
180,192,7819,1,8,0:0:0:0:
216,188,7912,1,0,0:0:0:0:
252,188,8004,1,8,0:0:0:0:
288,196,8097,5,4,0:0:0:0:
476,344,8467,1,8,0:0:0:0:
476,32,8838,2,0,B|448:92|400:124,1,120
256,52,9208,1,8,0:0:0:0:
224,72,9301,1,8,0:0:0:0:
192,92,9393,1,0,0:0:0:0:
88,152,9578,6,0,B|28:108,4,60,0|0|0|0|8,0:0|0:0|0:0|0:0|0:0,0:0:0:0:
128,264,10134,1,0,0:0:0:0:
376,344,10319,1,0,0:0:0:0:
356,316,10412,1,0,0:0:0:0:
336,284,10504,1,0,0:0:0:0:
476,176,10689,1,8,0:0:0:0:
440,180,10782,1,0,0:0:0:0:
404,184,10875,1,0,0:0:0:0:
356,48,11060,6,0,B|396:0,4,60,0|0|0|0|8,0:0|0:0|0:0|0:0|0:0,0:0:0:0:
284,144,11615,1,8,0:0:0:0:
160,72,11801,1,0,0:0:0:0:
156,108,11893,1,0,0:0:0:0:
152,144,11986,1,0,0:0:0:0:
97,293,12171,1,8,0:0:0:0:
120,320,12264,1,0,0:0:0:0:
144,347,12356,1,0,0:0:0:0:
320,328,12541,5,0,0:0:0:0:
356,324,12634,1,0,0:0:0:0:
392,320,12727,1,0,0:0:0:0:
428,316,12819,1,0,0:0:0:0:
464,312,12912,1,8,0:0:0:0:
460,144,13097,1,0,0:0:0:0:
376,84,13282,2,0,B|311:39|225:83|238:148|252:216|174:257|100:212,1,360
44,92,14023,6,0,B|116:104|164:160,1,120,4|0,0:0|0:0,0:0:0:0:
296,232,14393,2,0,B|344:280|424:284,1,120,8|0,0:0|0:0,0:0:0:0:
468,168,14764,5,0,0:0:0:0:
456,128,14856,1,0,0:0:0:0:
444,88,14949,1,0,0:0:0:0:
304,96,15134,1,8,0:0:0:0:
264,80,15227,1,0,0:0:0:0:
224,64,15319,1,0,0:0:0:0:
152,188,15504,6,0,B|100:220|100:220,4,60,0|0|0|0|8,0:0|0:0|0:0|0:0|0:0,0:0:0:0:
264,248,16060,1,8,0:0:0:0:
416,244,16245,2,0,B|400:320|336:348,1,120
322,351,16523,1,0,0:0:0:0:
292,356,16615,2,0,B|208:360|168:328,1,120,8|0,0:0|0:0,0:0:0:0:
24,208,16986,6,0,P|100:124|224:108,1,240,0|8,0:0|0:0,0:0:0:0:
336,132,17541,1,0,0:0:0:0:
428,56,17727,2,0,B|480:8,2,60,8|0|0,0:0|0:0|0:0,0:0:0:0:
444,176,18097,2,0,B|508:220,2,60,8|0|0,0:0|0:0|0:0,0:0:0:0:
344,256,18467,5,0,0:0:0:0:
308,280,18560,1,0,0:0:0:0:
268,292,18652,1,0,0:0:0:0:
228,292,18745,1,0,0:0:0:0:
188,276,18838,1,0,0:0:0:0:
156,248,18930,1,0,0:0:0:0:
136,212,19023,1,0,0:0:0:0:
128,172,19115,1,0,0:0:0:0:
132,132,19208,5,0,0:0:0:0:
152,96,19301,1,0,0:0:0:0:
184,68,19393,1,0,0:0:0:0:
224,52,19486,1,0,0:0:0:0:
264,52,19578,1,0,0:0:0:0:
300,72,19671,1,0,0:0:0:0:
320,108,19764,1,0,0:0:0:0:
312,148,19856,1,0,0:0:0:0:
280,176,19949,1,0,0:0:0:0:
396,148,20134,6,0,B|385:212|334:248,1,120,0|8,0:0|0:0,0:0:0:0:
276,352,20504,1,0,0:0:0:0:
240,352,20597,1,0,0:0:0:0:
204,348,20689,2,0,B|140:328|116:268,1,120
68,160,21060,2,0,B|8:160,2,60,8|8|0,0:0|0:0|0:0,0:0:0:0:
184,28,21430,5,0,0:0:0:0:
220,28,21523,1,0,0:0:0:0:
256,28,21615,1,0,0:0:0:0:
292,28,21708,1,0,0:0:0:0:
328,28,21801,1,8,0:0:0:0:
296,192,21986,1,8,0:0:0:0:
328,356,22171,1,0,0:0:0:0:
292,356,22264,1,0,0:0:0:0:
256,356,22356,1,0,0:0:0:0:
220,356,22449,1,0,0:0:0:0:
184,356,22541,1,8,0:0:0:0:
216,192,22727,1,0,0:0:0:0:
388,92,22912,6,0,B|416:152|388:216,1,120,4|0,0:0|0:0,0:0:0:0:
376,228,23189,1,0,0:0:0:0:
356,240,23282,2,0,B|301:277|233:261,1,120,8|0,0:0|0:0,0:0:0:0:
270,121,23652,6,0,B|211:107|156:144,1,120
136,156,23930,1,0,0:0:0:0:
120,175,24023,2,0,B|96:232|124:292,1,120,8|8,0:0|0:0,0:0:0:0:
256,316,24393,5,0,0:0:0:0:
280,312,24486,1,0,0:0:0:0:
304,308,24578,1,0,0:0:0:0:
328,304,24671,1,0,0:0:0:0:
376,268,24764,5,8,0:0:0:0:
384,245,24856,1,0,0:0:0:0:
393,222,24949,1,0,0:0:0:0:
401,199,25041,1,0,0:0:0:0:
392,140,25134,5,0,0:0:0:0:
377,121,25227,1,0,0:0:0:0:
362,101,25319,1,0,0:0:0:0:
346,83,25412,1,0,0:0:0:0:
296,52,25504,5,8,0:0:0:0:
272,56,25597,1,0,0:0:0:0:
248,60,25689,1,0,0:0:0:0:
224,64,25782,1,0,0:0:0:0:
164,76,25875,6,0,B|44:100,1,120,4|0,0:0|0:0,0:0:0:0:
32,240,26245,2,0,B|152:216,1,120,8|0,0:0|0:0,0:0:0:0:
268,196,26615,1,0,0:0:0:0:
296,192,26708,1,0,0:0:0:0:
324,188,26801,1,0,0:0:0:0:
444,168,26986,1,8,0:0:0:0:
400,316,27171,1,0,0:0:0:0:
372,320,27264,1,0,0:0:0:0:
344,324,27356,6,0,B|216:344,1,120
144,232,27727,2,0,B|112:168,3,60,8|8|0|8,0:0|0:0|0:0|0:0,0:0:0:0:
100,140,28097,2,0,B|100:12,1,120
264,96,28467,2,0,B|264:224,1,120,8|0,0:0|0:0,0:0:0:0:
184,176,28838,6,0,B|184:48,1,120
348,132,29208,2,0,B|348:260,1,120,8|0,0:0|0:0,0:0:0:0:
177,358,29578,2,0,B|197:286|256:276,1,120
348,352,29949,1,8,0:0:0:0:
376,332,30041,1,8,0:0:0:0:
404,312,30134,1,0,0:0:0:0:
468,208,30319,6,0,B|500:152|472:92,1,120
388,8,30689,1,8,0:0:0:0:
358,28,30782,1,8,0:0:0:0:
329,49,30875,1,0,0:0:0:0:
299,69,30967,1,8,0:0:0:0:
270,90,31060,1,0,0:0:0:0:
240,111,31152,1,0,0:0:0:0:
211,131,31245,1,8,0:0:0:0:
181,152,31338,1,0,0:0:0:0:
152,173,31430,1,8,0:0:0:0:
122,193,31523,1,0,0:0:0:0:
92,212,31615,1,0,0:0:0:0:
60,232,31708,1,0,0:0:0:0:
28,252,31801,5,4,0:0:0:0:
488,228,32912,1,0,0:0:0:0:
488,192,33004,1,0,0:0:0:0:
488,156,33097,1,0,0:0:0:0:
392,84,33282,6,0,B|355:134|348:203|365:278|400:315,1,240,4|8,0:0|0:0,0:0:0:0:
120,300,34023,2,0,B|156:249|163:180|146:105|111:68,1,240,4|8,0:0|0:0,0:0:0:0:
364,328,34764,2,0,B|313:291|244:284|169:301|132:336,1,240,4|8,0:0|0:0,0:0:0:0:
148,56,35504,2,0,B|198:92|267:99|342:82|379:47,1,240,0|8,0:0|0:0,0:0:0:0:
256,356,36245,6,0,B|256:220,1,120
92,192,36615,2,0,B|228:192,1,120,8|0,0:0|0:0,0:0:0:0:
256,28,36986,2,0,B|256:164,1,120
420,192,37356,2,0,B|284:192,1,120,8|0,0:0|0:0,0:0:0:0:
176,32,37727,6,0,B|112:56|92:116,1,120,4|0,0:0|0:0,0:0:0:0:
93,270,38097,2,0,B|112:328|176:352,1,120,8|0,0:0|0:0,0:0:0:0:
336,352,38467,2,0,B|400:328|420:268,1,120
418,113,38838,2,0,B|400:56|336:32,1,120,8|0,0:0|0:0,0:0:0:0:
219,155,39208,6,0,B|131:67,1,120,4|0,0:0|0:0,0:0:0:0:
219,228,39578,2,0,B|131:316,1,120,8|0,0:0|0:0,0:0:0:0:
292,228,39949,2,0,B|380:316,1,120
292,155,40319,2,0,B|380:67,1,120,8|0,0:0|0:0,0:0:0:0:
112,192,40689,6,0,B|244:192,1,120,4|0,0:0|0:0,0:0:0:0:
400,192,41060,2,0,B|268:192,1,120,8|0,0:0|0:0,0:0:0:0:
132,104,41430,2,0,B|12:104,1,120,4|0,0:0|0:0,0:0:0:0:
380,280,41801,2,0,B|500:280,1,120,8|0,0:0|0:0,0:0:0:0:
260,280,42171,5,0,0:0:0:0:
224,264,42264,1,0,0:0:0:0:
192,236,42356,1,0,0:0:0:0:
172,200,42449,1,0,0:0:0:0:
164,160,42541,1,8,0:0:0:0:
168,120,42634,1,0,0:0:0:0:
184,80,42727,1,8,0:0:0:0:
220,60,42819,1,0,0:0:0:0:
260,44,42912,5,0,0:0:0:0:
304,44,43004,1,0,0:0:0:0:
344,44,43097,1,0,0:0:0:0:
448,192,43282,1,8,0:0:0:0:
404,192,43375,1,0,0:0:0:0:
364,192,43467,1,0,0:0:0:0:
432,324,43652,6,0,B|304:352|184:320,1,240,4|8,0:0|0:0,0:0:0:0:
68,120,44393,2,0,B|132:106|192:122,1,120
256,220,44764,1,8,0:0:0:0:
280,236,44856,1,0,0:0:0:0:
308,248,44949,1,0,0:0:0:0:
336,256,45041,1,8,0:0:0:0:
364,260,45134,5,4,0:0:0:0:
420,80,45504,1,8,0:0:0:0:
464,192,45689,1,0,0:0:0:0:
348,176,45875,2,0,B|396:232|404:292,1,120
328,376,46245,1,8,0:0:0:0:
312,352,46338,1,0,0:0:0:0:
284,336,46430,1,0,0:0:0:0:
256,328,46523,1,8,0:0:0:0:
224,332,46615,6,0,B|104:284,1,120,4|0,0:0|0:0,0:0:0:0:
56,144,46986,2,0,B|-28:180,2,60,8|0|0,0:0|0:0|0:0,0:0:0:0:
172,20,47356,2,0,B|292:68,1,120
400,96,47727,1,8,0:0:0:0:
420,124,47819,1,0,0:0:0:0:
432,156,47912,1,0,0:0:0:0:
440,192,48004,1,8,0:0:0:0:
444,228,48097,6,0,B|312:256,1,120
160,284,48467,2,0,B|160:364,2,60,8|0|0,0:0|0:0|0:0,0:0:0:0:
80,88,48838,2,0,B|212:60,1,120
312,92,49208,2,0,B|344:160,3,60,8|8|0|0,0:0|0:0|0:0|0:0,0:0:0:0:
344,188,49578,6,0,B|344:332,1,120,4|0,0:0|0:0,0:0:0:0:
200,200,49949,2,0,B|200:268,3,60,8|0|0|0,0:0|0:0|0:0|0:0,0:0:0:0:
176,292,50319,6,0,B|40:292,1,120
32,176,50689,1,8,0:0:0:0:
32,132,50782,1,8,0:0:0:0:
32,92,50875,1,0,0:0:0:0:
120,12,51060,6,0,B|272:12,1,120
360,28,51430,1,8,0:0:0:0:
460,92,51615,1,0,0:0:0:0:
504,204,51801,2,0,B|504:328,1,120
388,360,52171,1,8,0:0:0:0:
372,320,52264,1,8,0:0:0:0:
344,292,52356,1,0,0:0:0:0:
308,268,52449,1,8,0:0:0:0:
268,260,52541,6,0,B|140:260,1,120,4|0,0:0|0:0,0:0:0:0:
56,112,52912,2,0,B|184:112,1,120,8|0,0:0|0:0,0:0:0:0:
256,16,53282,2,0,B|376:16,1,120
436,120,53652,1,8,0:0:0:0:
412,156,53745,1,8,0:0:0:0:
376,180,53838,1,0,0:0:0:0:
336,188,53930,1,0,0:0:0:0:
292,192,54023,1,4,0:0:0:0:
256,192,54208,12,4,55504,0:0:0:0:
228,192,55875,6,0,B|88:192,1,120,8|0,0:0|0:0,0:0:0:0:
172,340,56245,1,0,0:0:0:0:
216,340,56338,1,0,0:0:0:0:
256,340,56430,1,0,0:0:0:0:
380,264,56615,2,0,B|472:160,1,120,8|0,0:0|0:0,0:0:0:0:
428,60,56986,5,0,0:0:0:0:
396,32,57078,1,0,0:0:0:0:
356,28,57171,1,0,0:0:0:0:
316,36,57264,1,0,0:0:0:0:
284,60,57356,1,8,0:0:0:0:
264,96,57449,1,8,0:0:0:0:
252,136,57541,1,0,0:0:0:0:
252,180,57634,1,0,0:0:0:0:
236,220,57727,1,0,0:0:0:0:
204,248,57819,1,0,0:0:0:0:
164,260,57912,1,0,0:0:0:0:
124,256,58004,1,0,0:0:0:0:
88,232,58097,1,8,0:0:0:0:
68,196,58189,1,0,0:0:0:0:
72,156,58282,1,0,0:0:0:0:
348,140,58467,5,4,0:0:0:0:
164,140,58652,1,0,0:0:0:0:
164,140,58745,1,0,0:0:0:0:
164,140,58838,1,8,0:0:0:0:
256,296,59023,1,0,0:0:0:0:
256,296,59115,1,0,0:0:0:0:
256,296,59208,1,8,0:0:0:0:
256,80,59393,5,0,0:0:0:0:
368,40,59578,2,0,B|432:44|464:76|476:120|479:159|472:196|424:232,1,240,8|4,0:0|0:0,0:0:0:0:
256,192,60134,12,4,62912,0:0:0:0:
180,124,64393,6,0,B|260:68,1,90.0000034332277,4|0,0:0|0:0,0:0:0:0:
328,124,64764,2,0,B|408:68,1,90.0000034332277,8|0,0:0|0:0,0:0:0:0:
332,260,65134,2,0,B|252:316,1,90.0000034332277
184,260,65504,2,0,B|104:316,1,90.0000034332277,8|2,0:0|0:0,0:0:0:0:
64,236,65875,5,0,0:0:0:0:
72,148,66060,1,0,0:0:0:0:
124,72,66245,1,8,0:0:0:0:
204,32,66430,1,0,0:0:0:0:
256,108,66615,5,0,0:0:0:0:
296,232,66801,1,0,0:0:0:0:
348,108,66986,1,8,0:0:0:0:
392,232,67171,1,2,0:0:0:0:
436,152,67356,6,0,B|480:48,1,90.0000034332277
480,248,67727,2,0,B|432:360,1,90.0000034332277,8|0,0:0|0:0,0:0:0:0:
356,308,68097,2,0,B|248:308,1,90.0000034332277
208,240,68467,2,0,B|152:160,1,90.0000034332277,8|2,0:0|0:0,0:0:0:0:
100,96,68838,5,0,0:0:0:0:
60,176,69023,1,0,0:0:0:0:
64,264,69208,1,8,0:0:0:0:
112,340,69393,1,0,0:0:0:0:
204,344,69578,6,0,B|280:292,1,90.0000034332277
312,208,69949,2,0,B|312:100,1,90.0000034332277,8|2,0:0|0:0,0:0:0:0:
364,44,70319,5,0,0:0:0:0:
440,96,70504,1,0,0:0:0:0:
456,184,70689,1,8,0:0:0:0:
424,268,70875,1,0,0:0:0:0:
340,300,71060,6,0,B|244:280,1,90.0000034332277
188,220,71430,2,0,B|152:116,1,90.0000034332277,8|2,0:0|0:0,0:0:0:0:
208,64,71801,6,0,B|300:100,1,90.0000034332277
376,188,72171,2,0,B|284:224,1,90.0000034332277,8|0,0:0|0:0,0:0:0:0:
104,188,72541,2,0,B|196:224,1,90.0000034332277
272,308,72912,2,0,B|180:344,1,90.0000034332277,8|2,0:0|0:0,0:0:0:0:
112,292,73282,5,0,0:0:0:0:
40,240,73467,1,0,0:0:0:0:
16,152,73652,1,8,0:0:0:0:
32,64,73838,1,0,0:0:0:0:
120,44,74023,6,0,B|184:120,1,90.0000034332277
260,76,74393,2,0,B|352:108,1,90.0000034332277,8|2,0:0|0:0,0:0:0:0:
432,128,74764,1,0,0:0:0:0:
432,128,74856,1,0,0:0:0:0:
432,128,74949,1,2,0:0:0:0:
456,216,75134,2,0,B|456:328,1,90.0000034332277,8|0,0:0|0:0,0:0:0:0:
368,296,75504,5,8,0:0:0:0:
296,348,75689,1,0,0:0:0:0:
208,356,75875,1,2,0:0:0:0:
120,332,76060,1,0,0:0:0:0:
52,132,76245,6,0,B|136:40,1,120,4|0,0:0|0:0,0:0:0:0:
308,152,76615,2,0,B|224:244,1,120,8|0,0:0|0:0,0:0:0:0:
160,212,76893,2,0,B|256:104,1,120
292,72,77171,2,0,B|424:72,1,120,0|8,0:0|0:0,0:0:0:0:
506,227,77541,1,0,0:0:0:0:
396,331,77727,6,0,B|328:223,1,120
116,331,78097,2,0,B|184:223,1,120,8|0,0:0|0:0,0:0:0:0:
97,230,78375,2,0,B|165:122,1,120,8|0,0:0|0:0,0:0:0:0:
124,68,78652,1,0,0:0:0:0:
256,120,78838,1,8,0:0:0:0:
388,68,79023,1,0,0:0:0:0:
388,264,79208,6,0,B|460:144,1,120
256,192,79578,2,0,B|256:56,1,120,8|0,0:0|0:0,0:0:0:0:
124,264,79949,2,0,B|52:144,1,120
156,52,80319,1,8,0:0:0:0:
356,52,80504,1,0,0:0:0:0:
400,248,80689,6,0,B|444:124,1,120,0|0,0:0|0:0,0:0:0:0:
256,264,81060,2,0,B|376:316,1,120,8|0,0:0|0:0,0:0:0:0:
256,264,81338,2,0,B|136:316,1,120,8|0,0:0|0:0,0:0:0:0:
112,248,81615,2,0,B|68:124,1,120,0|8,0:0|0:0,0:0:0:0:
256,36,81986,1,0,0:0:0:0:
124,68,82171,6,0,B|164:181,1,120,4|0,0:0|0:0,0:0:0:0:
256,264,82541,2,0,L|256:140,1,120,8|0,0:0|0:0,0:0:0:0:
388,68,82819,2,0,B|347:181,1,120
409,216,83097,1,0,0:0:0:0:
256,264,83282,1,8,0:0:0:0:
103,216,83467,1,0,0:0:0:0:
82,352,83652,6,0,B|186:292,1,120
430,352,84023,2,0,B|326:292,1,120,8|0,0:0|0:0,0:0:0:0:
256,264,84301,2,0,B|256:72,1,180,8|0,0:0|0:0,0:0:0:0:
376,192,84764,1,8,0:0:0:0:
136,192,84949,1,0,0:0:0:0:
208,64,85134,6,0,B|84:24,1,120
304,64,85504,2,0,B|428:24,1,120,8|0,0:0|0:0,0:0:0:0:
428,100,85782,2,0,B|228:164,1,180
256,300,86245,1,8,0:0:0:0:
292,288,86338,1,0,0:0:0:0:
328,276,86430,1,8,0:0:0:0:
364,264,86523,1,8,0:0:0:0:
400,252,86615,6,0,B|368:172|368:56|416:8,1,240,4|8,0:0|0:0,0:0:0:0:
256,196,87171,1,0,0:0:0:0:
112,132,87356,2,0,B|144:212|144:328|96:376,1,240,0|8,0:0|0:0,0:0:0:0:
256,196,87912,1,0,0:0:0:0:
356,92,88097,5,4,0:0:0:0:
320,72,88190,1,0,0:0:0:0:
284,52,88282,1,8,0:0:0:0:
156,292,88467,1,0,0:0:0:0:
192,312,88560,1,0,0:0:0:0:
228,332,88652,1,8,0:0:0:0:
156,92,88838,5,0,0:0:0:0:
136,128,88930,1,0,0:0:0:0:
116,164,89023,1,8,0:0:0:0:
356,292,89208,1,0,0:0:0:0:
376,256,89301,1,0,0:0:0:0:
396,220,89393,1,8,0:0:0:0:
64,252,89578,5,0,0:0:0:0:
64,296,89671,1,0,0:0:0:0:
64,340,89764,1,8,0:0:0:0:
448,132,89949,1,0,0:0:0:0:
448,88,90041,1,0,0:0:0:0:
448,44,90134,1,8,0:0:0:0:
256,192,90319,5,0,0:0:0:0:
256,236,90412,1,0,0:0:0:0:
256,276,90504,1,8,0:0:0:0:
256,360,90690,5,4,0:0:0:0:
256,24,90875,1,4,0:0:0:0:
112,64,91060,5,4,0:0:0:0:
112,104,91152,1,0,0:0:0:0:
112,148,91245,1,8,0:0:0:0:
408,192,91430,1,0,0:0:0:0:
408,148,91523,1,0,0:0:0:0:
408,108,91615,1,8,0:0:0:0:
112,196,91801,5,0,0:0:0:0:
112,236,91893,1,0,0:0:0:0:
112,280,91986,1,8,0:0:0:0:
408,324,92171,1,0,0:0:0:0:
408,280,92264,1,0,0:0:0:0:
408,240,92356,1,8,0:0:0:0:
140,320,92541,5,0,0:0:0:0:
184,320,92634,1,0,0:0:0:0:
224,320,92727,1,8,0:0:0:0:
372,64,92912,1,0,0:0:0:0:
328,64,93004,1,0,0:0:0:0:
288,64,93097,1,8,0:0:0:0:
244,64,93190,1,8,0:0:0:0:
204,76,93282,5,0,0:0:0:0:
172,104,93375,1,0,0:0:0:0:
156,144,93467,1,8,0:0:0:0:
160,184,93560,1,8,0:0:0:0:
180,220,93652,1,0,0:0:0:0:
212,248,93745,1,0,0:0:0:0:
252,256,93838,1,0,0:0:0:0:
296,256,93930,1,8,0:0:0:0:
336,256,94023,5,4,0:0:0:0:
416,164,94208,2,0,B|448:224,1,60
464,252,94393,1,8,0:0:0:0:
468,296,94486,1,0,0:0:0:0:
444,332,94578,1,8,0:0:0:0:
408,352,94671,1,8,0:0:0:0:
364,356,94764,5,8,0:0:0:0:
324,356,94856,1,0,0:0:0:0:
280,356,94949,1,8,0:0:0:0:
236,356,95041,1,8,0:0:0:0:
196,356,95134,1,0,0:0:0:0:
156,344,95227,1,0,0:0:0:0:
124,316,95319,1,8,0:0:0:0:
100,280,95412,1,0,0:0:0:0:
92,240,95504,5,0,0:0:0:0:
92,196,95597,1,0,0:0:0:0:
92,152,95690,1,8,0:0:0:0:
92,112,95782,1,8,0:0:0:0:
112,76,95875,1,0,0:0:0:0:
140,48,95967,1,0,0:0:0:0:
180,40,96060,1,8,0:0:0:0:
220,40,96152,1,8,0:0:0:0:
264,40,96245,5,0,0:0:0:0:
308,40,96338,1,0,0:0:0:0:
348,40,96430,1,8,0:0:0:0:
392,40,96523,1,8,0:0:0:0:
432,52,96615,1,0,0:0:0:0:
464,80,96708,1,0,0:0:0:0:
484,116,96801,1,8,0:0:0:0:
488,156,96893,1,0,0:0:0:0:
488,200,96986,5,8,0:0:0:0:
488,240,97078,1,0,0:0:0:0:
472,280,97171,1,8,0:0:0:0:
436,304,97264,1,0,0:0:0:0:
396,308,97356,1,0,0:0:0:0:
352,308,97449,1,0,0:0:0:0:
312,308,97541,1,8,0:0:0:0:
268,308,97634,1,8,0:0:0:0:
228,308,97727,5,0,0:0:0:0:
184,304,97819,1,0,0:0:0:0:
148,288,97912,1,8,0:0:0:0:
132,248,98004,1,0,0:0:0:0:
132,204,98097,1,8,0:0:0:0:
132,164,98190,1,0,0:0:0:0:
148,124,98282,1,8,0:0:0:0:
184,104,98375,1,0,0:0:0:0:
224,100,98467,5,0,0:0:0:0:
268,100,98560,1,0,0:0:0:0:
308,100,98652,1,8,0:0:0:0:
352,104,98745,1,0,0:0:0:0:
384,124,98838,1,0,0:0:0:0:
404,160,98930,1,0,0:0:0:0:
408,200,99023,1,8,0:0:0:0:
392,240,99115,1,8,0:0:0:0:
352,260,99208,5,0,0:0:0:0:
312,260,99301,1,0,0:0:0:0:
268,260,99393,1,8,0:0:0:0:
228,256,99486,1,8,0:0:0:0:
196,232,99578,1,8,0:0:0:0:
204,192,99671,1,0,0:0:0:0:
244,176,99764,1,8,0:0:0:0:
288,176,99856,1,0,0:0:0:0:
328,176,99949,5,4,0:0:0:0:
92,176,100319,1,8,0:0:0:0:
212,52,100690,6,0,B|256:32|336:60,2,90.0000034332277,0|0|8,0:0|0:0|0:0,0:0:0:0:
136,100,101245,1,8,0:0:0:0:
92,176,101430,2,0,B|64:224|96:276,1,90.0000034332277
136,336,101801,2,0,B|224:336|256:336,1,90.0000034332277,8|0,0:0|0:0,0:0:0:0:
316,332,102171,5,0,0:0:0:0:
336,316,102264,1,0,0:0:0:0:
352,300,102356,1,8,0:0:0:0:
368,284,102449,1,0,0:0:0:0:
384,264,102541,1,8,0:0:0:0:
436,192,102727,1,0,0:0:0:0:
432,104,102912,6,0,B|400:52|344:36,1,90.0000034332277
308,112,103282,2,0,B|292:160|244:176,1,90.0000034332277,8|0,0:0|0:0,0:0:0:0:
228,88,103652,2,0,B|200:52|152:40,1,90.0000034332277
152,132,104023,2,0,B|97:148|76:197,1,90.0000034332277,8|0,0:0|0:0,0:0:0:0:
140,256,104393,6,0,B|236:284,1,90.0000034332277
268,360,104764,2,0,B|320:320|316:260,1,90.0000034332277,8|0,0:0|0:0,0:0:0:0:
348,204,105134,1,0,0:0:0:0:
349,186,105227,1,0,0:0:0:0:
344,169,105319,1,0,0:0:0:0:
336,151,105412,1,0,0:0:0:0:
326,136,105504,1,8,0:0:0:0:
172,40,105875,6,0,B|84:120,1,90.0000034332277
60,180,106245,2,0,B|64:280,1,90.0000034332277,8|0,0:0|0:0,0:0:0:0:
132,328,106615,5,0,0:0:0:0:
216,360,106801,1,0,0:0:0:0:
304,352,106986,1,8,0:0:0:0:
376,300,107171,1,8,0:0:0:0:
428,228,107356,6,0,B|312:180,1,90.0000034332277
264,156,107727,2,0,B|264:56,1,90.0000034332277,8|0,0:0|0:0,0:0:0:0:
340,16,108097,1,0,0:0:0:0:
356,24,108190,1,0,0:0:0:0:
372,32,108282,1,0,0:0:0:0:
388,44,108375,1,0,0:0:0:0:
404,56,108467,1,8,0:0:0:0:
468,120,108652,1,0,0:0:0:0:
384,152,108838,6,0,B|328:240,1,90.0000034332277
252,264,109208,2,0,B|156:284,1,90.0000034332277,8|0,0:0|0:0,0:0:0:0:
92,228,109578,5,0,0:0:0:0:
60,196,109671,1,0,0:0:0:0:
44,156,109764,1,0,0:0:0:0:
48,112,109856,1,0,0:0:0:0:
68,72,109949,1,8,0:0:0:0:
104,48,110041,1,0,0:0:0:0:
148,40,110134,1,0,0:0:0:0:
192,48,110227,1,0,0:0:0:0:
228,76,110319,5,0,0:0:0:0:
248,116,110412,1,0,0:0:0:0:
256,160,110504,1,0,0:0:0:0:
264,204,110597,1,0,0:0:0:0:
288,244,110690,1,8,0:0:0:0:
320,276,110782,1,0,0:0:0:0:
364,284,110875,1,0,0:0:0:0:
408,284,110967,1,0,0:0:0:0:
444,256,111060,5,0,0:0:0:0:
472,220,111152,1,0,0:0:0:0:
484,176,111245,1,0,0:0:0:0:
476,132,111338,1,0,0:0:0:0:
448,96,111430,1,8,0:0:0:0:
404,84,111523,1,8,0:0:0:0:
360,96,111615,1,12,0:0:0:0:
340,136,111708,1,8,0:0:0:0:
352,180,111801,5,4,0:0:0:0:
