osu file format v14

[General]
AudioFilename: Ijiwaru Na Hello Mashup.mp3
AudioLeadIn: 0
PreviewTime: 162598
Countdown: 0
SampleSet: None
StackLeniency: 0.7
Mode: 0
LetterboxInBreaks: 0
WidescreenStoryboard: 0

[Editor]
Bookmarks: 26340,113049
DistanceSpacing: 0.5
BeatDivisor: 4
GridSize: 4
TimelineZoom: 2.3

[Metadata]
Title:Ijiwaru Na Hello (Mental Health Care Mashup)
TitleUnicode:いじわるなハロー (Mental Health Care Mashup)
Artist:Perfume Vs Zekk
ArtistUnicode:Perfume Vs Zekk
Creator:Alonevpk
Version:Hallo
Source:
Tags:soundcloud free future bass trap chill
BeatmapID:1248595
BeatmapSetID:589906

[Difficulty]
HPDrainRate:5.5
CircleSize:4.2
OverallDifficulty:8
ApproachRate:9
SliderMultiplier:1.8
SliderTickRate:1

[Events]
//Background and Video events
0,0,"1436655158284.jpg",0,0
//Break Periods
2,100862,109178
//Storyboard Layer 0 (Background)
//Storyboard Layer 1 (Fail)
//Storyboard Layer 2 (Pass)
//Storyboard Layer 3 (Foreground)
//Storyboard Sound Samples

[TimingPoints]
1566,387.096774193548,4,2,0,70,1,0
1566,-142.857142857143,4,2,0,70,0,0
26340,-111.111111111111,4,2,0,70,0,0
50340,-90.9090909090909,4,2,0,70,0,0
51114,-55.5555555555556,4,2,0,70,0,0
51888,-111.111111111111,4,2,0,70,0,0
52469,-55.5555555555556,4,2,0,70,0,0
52856,-90.9090909090909,4,2,0,70,0,0
54598,-66.6666666666667,4,2,0,70,0,0
54985,-90.9090909090909,4,2,0,70,0,0
55372,-50,4,2,0,70,0,0
55565,-83.3333333333333,4,2,0,70,0,0
55953,-50,4,2,0,70,0,0
56146,-90.9090909090909,4,2,0,70,0,0
57307,-55.5555555555556,4,2,0,70,0,0
58082,-90.9090909090909,4,2,0,70,0,0
58662,-54.6448087431694,4,2,0,70,0,0
59049,-90.9090909090909,4,2,0,70,0,0
60404,-55.5555555555556,4,2,0,70,0,0
61178,-90.9090909090909,4,2,0,70,0,0
64662,-66.6666666666667,4,2,0,70,0,0
65243,-90.9090909090909,4,2,0,70,0,0
66598,-66.6666666666667,4,2,0,70,0,0
66985,-55.5555555555556,4,2,0,70,0,0
67953,-66.6666666666667,4,2,0,70,0,0
70082,-90.9090909090909,4,2,0,70,0,0
71049,-66.6666666666667,4,2,0,70,0,0
73953,-80,4,2,0,70,0,0
74146,-90.9090909090909,4,2,0,70,0,0
74727,-100,4,2,0,70,0,0
75888,-66.6666666666667,4,2,0,70,0,0
76275,-76.9230769230769,4,2,0,70,0,0
77243,-90.9090909090909,4,2,0,70,0,0
78985,-66.6666666666667,4,2,0,70,0,0
79759,-76.9230769230769,4,2,0,70,0,0
80146,-55.5555555555556,4,2,0,70,0,0
80340,-62.5,4,2,0,70,0,0
82082,-55.5555555555556,4,2,0,70,0,0
82469,-71.4285714285714,4,2,0,70,0,0
83243,-55.5555555555556,4,2,0,70,0,0
84211,-66.6666666666667,4,2,0,70,0,0
85178,-55.5555555555556,4,2,0,70,0,0
85953,-66.6666666666667,4,2,0,70,0,0
88856,-55.5555555555556,4,2,0,70,0,0
89049,-66.6666666666667,4,2,0,70,0,0
89436,-50,4,2,0,70,0,0
89630,-66.6666666666667,4,2,0,70,0,0
91372,-52.6315789473684,4,2,0,70,0,0
91759,-66.6666666666667,4,2,0,70,0,0
94469,-55.5555555555556,4,2,0,70,0,0
95824,-66.6666666666667,4,2,0,70,0,0
97565,-58.8235294117647,4,2,0,70,0,0
97953,-66.6666666666667,4,2,0,70,0,0
98920,-71.4285714285714,4,2,0,70,0,0
99114,-100,4,2,0,70,0,0
113049,-125,4,2,0,70,0,0
137824,-100,4,2,0,70,0,0
161824,-90.9090909090909,4,2,0,70,0,0
162598,-55.5555555555556,4,2,0,70,0,0
163372,-83.3333333333333,4,2,0,70,0,0
163759,-58.8235294117647,4,2,0,70,0,0
163953,-71.4285714285714,4,2,0,70,0,0
165695,-50,4,2,0,70,0,0
166082,-66.6666666666667,4,2,0,70,0,0
166856,-55.5555555555556,4,2,0,70,0,0
167049,-66.6666666666667,4,2,0,70,0,0
167436,-55.5555555555556,4,2,0,70,0,0
167630,-66.6666666666667,4,2,0,70,0,0
168791,-52.6315789473684,4,2,0,70,0,0
169178,-58.8235294117647,4,2,0,70,0,0
169565,-71.4285714285714,4,2,0,70,0,0
169953,-55.5555555555556,4,2,0,70,0,0
170146,-66.6666666666667,4,2,0,70,0,0
171888,-55.5555555555556,4,2,0,70,0,0
173049,-71.4285714285714,4,2,0,70,0,0
176146,-55.5555555555556,4,2,0,70,0,0
176340,-58.8235294117647,4,2,0,70,0,0
177307,-66.6666666666667,4,2,0,70,0,0
178082,-55.5555555555556,4,2,0,70,0,0
178469,-58.8235294117647,4,2,0,70,0,0
178856,-66.6666666666667,4,2,0,70,0,0
179243,-52.6315789473684,4,2,0,70,0,0
179436,-62.5,4,2,0,70,0,0
181178,-55.5555555555556,4,2,0,70,0,0
182533,-62.5,4,2,0,70,0,0
184275,-52.6315789473684,4,2,0,70,0,0
185630,-71.4285714285714,4,2,0,70,0,0
186598,-76.9230769230769,4,2,0,70,0,0
187372,-66.6666666666667,4,2,0,70,0,0
187759,-52.6315789473684,4,2,0,70,0,0
188146,-66.6666666666667,4,2,0,70,0,0
188533,-55.5555555555556,4,2,0,70,0,0
188727,-66.6666666666667,4,2,0,70,0,0
190469,-55.5555555555556,4,2,0,70,0,0
191436,-66.6666666666667,4,2,0,70,0,0
193565,-55.5555555555556,4,2,0,70,0,0
195888,-90.9090909090909,4,2,0,70,0,0
196662,-55.5555555555556,4,2,0,70,0,0
199759,-66.6666666666667,4,2,0,70,0,0
200340,-55.5555555555556,4,2,0,70,0,0
209436,-66.6666666666667,4,2,0,70,0,0
210211,-83.3333333333333,4,2,0,70,0,0
210598,-90.9090909090909,4,2,0,70,0,0

[HitObjects]
40,272,1566,6,0,B|76:220|176:204|204:264|184:296|168:300,1,188.999994232178
124,340,2340,1,0,0:0:0:0:
92,208,2630,1,0,0:0:0:0:
88,184,2727,2,0,P|144:160|236:244,1,188.999994232178
240,260,3501,2,0,P|272:224|360:224,1,125.999996154785
420,256,4275,6,0,L|428:328,1,62.9999980773926
332,224,4662,2,0,P|324:180|384:96,1,125.999996154785
440,96,5243,1,0,0:0:0:0:
416,176,5436,1,0,0:0:0:0:
316,36,5727,1,0,0:0:0:0:
316,36,5824,1,0,0:0:0:0:
232,76,6017,2,0,P|184:76|132:8,1,125.999996154785
26,66,6598,2,0,P|56:75|80:96,2,62.9999980773926
164,200,7372,6,0,L|256:192,1,62.9999980773926
96,256,7759,2,0,P|140:224|140:100,1,188.999994232178
72,148,8533,1,0,0:0:0:0:
200,200,8824,1,0,0:0:0:0:
200,200,8920,1,0,0:0:0:0:
148,280,9114,1,0,0:0:0:0:
148,280,9211,2,0,P|144:304|192:372,1,94.4999971160889
248,304,9695,2,0,P|276:280|380:292,1,125.999996154785
361,279,10469,6,0,P|340:256|328:208,1,62.9999980773926
420,192,10856,2,0,P|432:164|376:20,1,188.999994232178
304,56,11630,1,0,0:0:0:0:
180,100,11920,2,0,L|128:84,1,31.4999990386963
44,104,12211,1,0,0:0:0:0:
44,104,12307,2,0,P|88:112|120:208,1,157.499995193482
108,232,13178,5,0,0:0:0:0:
136,208,13275,1,0,0:0:0:0:
168,200,13372,1,0,0:0:0:0:
204,204,13469,1,0,0:0:0:0:
232,220,13565,2,0,L|216:272,3,31.4999990386963
316,168,13953,6,0,P|300:136|300:84,1,62.9999980773926
400,72,14340,2,0,P|416:40|416:-12,1,62.9999980773926
248,80,14727,2,0,L|256:164,1,62.9999980773926
312,216,15017,1,0,0:0:0:0:
308,240,15114,2,0,L|300:324,1,62.9999980773926
196,364,15501,5,0,0:0:0:0:
168,268,15695,1,0,0:0:0:0:
232,192,15888,1,0,0:0:0:0:
204,96,16082,1,0,0:0:0:0:
140,172,16275,1,0,0:0:0:0:
268,132,16469,1,0,0:0:0:0:
268,132,16565,1,0,0:0:0:0:
268,132,16662,1,0,0:0:0:0:
160,56,16856,1,0,0:0:0:0:
200,188,17049,6,0,P|236:188|268:172,1,62.9999980773926
328,99,17436,2,0,P|342:67|341:31,1,62.9999980773926
168,40,17824,2,0,P|170:71|184:99,1,62.9999980773926
251,177,18211,2,0,P|280:188|312:188,1,62.9999980773926
444,128,18598,6,0,L|364:116,1,62.9999980773926
312,212,18985,2,0,L|320:292,1,62.9999980773926
200,192,19372,2,0,P|176:164|172:112,1,62.9999980773926
256,64,19759,2,0,P|292:57|339:79,1,62.9999980773926
396,136,20146,5,0,0:0:0:0:
368,236,20340,1,0,0:0:0:0:
468,260,20533,1,0,0:0:0:0:
496,160,20727,1,0,0:0:0:0:
348,248,20920,1,0,0:0:0:0:
280,172,21114,1,0,0:0:0:0:
184,208,21307,1,0,0:0:0:0:
160,308,21501,1,0,0:0:0:0:
40,228,21695,5,0,0:0:0:0:
120,164,21888,1,0,0:0:0:0:
120,64,22082,1,0,0:0:0:0:
36,8,22275,1,0,0:0:0:0:
92,168,22469,1,0,0:0:0:0:
176,112,22662,1,0,0:0:0:0:
268,156,22856,1,0,0:0:0:0:
276,256,23049,1,0,0:0:0:0:
164,332,23243,6,0,P|152:296|172:248,1,62.9999980773926
276,220,23630,2,0,P|288:184|268:136,1,62.9999980773926
164,52,24017,5,0,0:0:0:0:
140,164,24211,1,0,0:0:0:0:
312,152,24404,1,0,0:0:0:0:
336,264,24598,1,0,0:0:0:0:
184,304,24791,6,0,L|112:292,2,41.9999987182618
296,328,25178,2,0,L|337:334,2,41.9999987182618
168,216,25565,2,0,P|140:212|104:220,2,41.9999987182618
308,184,25953,1,0,0:0:0:0:
356,188,26082,1,0,0:0:0:0:
392,152,26211,1,0,0:0:0:0:
392,312,26340,6,0,P|436:316|496:244,1,121.499996292114
448,200,26727,1,0,0:0:0:0:
308,304,26920,2,0,L|316:343,1,40.4999987640381
236,252,27114,2,0,P|192:248|144:268,1,80.9999975280763
60,176,27501,1,0,0:0:0:0:
60,176,27695,2,0,P|116:180|168:80,1,161.999995056153
132,20,28275,1,0,0:0:0:0:
64,148,28469,1,0,0:0:0:0:
248,120,28662,2,0,L|148:108,1,80.9999975280763
256,228,28953,1,0,0:0:0:0:
292,220,29049,2,0,L|392:208,1,80.9999975280763
184,64,29436,6,0,P|227:127|304:117,1,161.999995056153
313,17,30017,2,0,P|296:27|284:44,1,40.4999987640381
376,156,30211,2,0,L|480:136,1,80.9999975280763
392,48,30598,1,0,0:0:0:0:
292,176,30791,2,0,B|284:236|284:236|312:288,1,80.9999975280763
393,126,31178,2,0,B|401:66|401:66|373:14,1,80.9999975280763
264,188,31565,2,0,L|256:248,1,40.4999987640381
224,104,31759,2,0,P|259:84|286:25,1,80.9999975280763
124,88,32146,2,0,P|123:128|160:181,1,80.9999975280763
272,220,32533,6,0,B|186:209|216:272|118:257,1,161.999995056153
256,308,33114,2,0,L|268:356,1,40.4999987640381
120,258,33307,2,0,P|152:234|224:234,1,80.9999975280763
120,348,33695,1,0,0:0:0:0:
268,208,33888,2,0,P|208:228|128:140,1,161.999995056153
280,124,34469,1,0,0:0:0:0:
256,304,34662,2,0,L|208:312,1,40.4999987640381
172,320,34856,1,0,0:0:0:0:
72,184,35049,1,0,0:0:0:0:
188,232,35243,1,0,0:0:0:0:
68,340,35436,1,0,0:0:0:0:
20,168,35630,6,0,B|108:120|188:176|188:176|100:200,1,242.999992584229
92,92,36307,1,0,0:0:0:0:
92,92,36404,2,0,P|120:84|188:112,1,80.9999975280763
256,192,36791,1,0,0:0:0:0:
88,188,36985,2,0,P|72:112|-4:52,1,161.999995056153
104,132,37565,2,0,P|148:140|192:116,1,80.9999975280763
296,72,37953,2,0,P|267:106|265:156,1,80.9999975280763
251,268,38340,2,0,P|235:225|193:199,1,80.9999975280763
46,218,38727,6,0,P|16:208|-16:160,1,80.9999975280763
68,80,39114,1,0,0:0:0:0:
132,164,39307,2,0,L|128:220,2,40.4999987640381
296,56,39888,6,0,L|204:52,1,80.9999975280763
344,140,40275,2,0,L|436:144,1,80.9999975280763
388,12,40662,1,0,0:0:0:0:
344,140,40856,1,0,0:0:0:0:
472,60,41049,5,0,0:0:0:0:
396,52,41243,1,0,0:0:0:0:
316,44,41436,1,0,0:0:0:0:
236,36,41630,1,0,0:0:0:0:
104,152,41824,6,0,B|156:192|156:192|248:136,1,161.999995056153
160,84,42404,2,0,L|108:44,2,40.4999987640381
240,288,42985,6,0,L|232:376,1,80.9999975280763
148,256,43372,2,0,L|140:344,1,80.9999975280763
56,228,43759,1,0,0:0:0:0:
36,348,43953,2,0,L|48:280,1,40.4999987640381
72,148,44146,5,0,0:0:0:0:
108,76,44340,1,0,0:0:0:0:
180,40,44533,1,0,0:0:0:0:
260,52,44727,1,0,0:0:0:0:
316,108,44920,6,0,P|352:76|416:76,1,80.9999975280763
272,216,45307,2,0,P|240:180|240:116,1,80.9999975280763
392,200,45695,2,0,L|380:304,1,80.9999975280763
288,348,46082,1,0,0:0:0:0:
284,240,46275,1,0,0:0:0:0:
144,352,46469,6,0,P|104:352|56:312,1,80.9999975280763
56,224,46856,2,0,P|43:185|66:127,1,80.9999975280763
150,100,47243,2,0,P|182:76|244:80,2,80.9999975280763
164,248,47824,1,0,0:0:0:0:
316,312,48017,6,0,L|368:308,15,40.4999987640381
340,224,49565,6,0,L|392:220,3,40.4999987640381
368,136,49953,6,0,L|420:132,1,40.4999987640381
236,144,50146,6,0,L|288:140,1,40.4999987640381
436,128,50340,6,0,B|465:136|465:136|486:89|452:68|452:68|410:94|410:94|419:77|419:77|385:98|385:98|393:81|393:81|347:128|279:106,1,346.500010574341
232,56,51114,6,0,B|296:16|296:16|272:192,1,242.999992584229
146,249,51501,2,0,B|124:84|124:84|188:124,1,242.999992584229
112,184,51888,2,0,P|72:192|20:168,1,80.9999975280763
24,56,52275,1,0,0:0:0:0:
237,203,52469,6,0,P|197:235|205:127,1,242.999992584229
272,44,52856,2,0,B|245:26|311:-8|360:61|320:136|162:145|228:35|78:88,1,297.000009063721
44,192,53630,1,0,0:0:0:0:
187,123,53824,1,0,0:0:0:0:
24,48,54017,1,0,0:0:0:0:
188,216,54211,6,0,L|204:20,1,148.50000453186
28,91,54598,2,0,B|124:131|124:131|200:67,1,202.500007724762
112,31,54985,2,0,L|128:175,1,99.0000030212403
172,204,55372,2,0,B|200:196|200:196|224:228|196:300,1,90
128,324,55565,6,0,P|88:316|48:200,1,161.999995056153
267,178,55953,2,0,L|172:204,1,90
73,136,56146,2,0,L|266:178,1,198.000006042481
404,208,56727,1,0,0:0:0:0:
404,208,56824,1,0,0:0:0:0:
404,208,56920,1,0,0:0:0:0:
352,104,57114,1,0,0:0:0:0:
488,232,57307,6,0,B|496:288|460:308|460:308|420:292|420:292|384:352|304:344,1,247.500007553101
233,239,57695,2,0,P|341:238|321:344,1,247.500007553101
232,364,58082,2,0,L|128:344,1,99.0000030212403
44,324,58469,1,0,0:0:0:0:
288,284,58662,6,0,B|360:252|368:132|276:92|208:196|272:224,1,247.049995570622
440,272,59049,2,0,B|275:220|314:338|150:288,1,297.000009063721
80,184,59824,1,0,0:0:0:0:
80,184,59920,1,0,0:0:0:0:
80,184,60017,1,0,0:0:0:0:
216,136,60211,1,0,0:0:0:0:
24,76,60404,6,0,B|40:24|40:24|112:96|44:216,1,242.999992584229
4,280,60791,2,0,B|56:232|124:244|124:244|160:304|252:300,1,242.999992584229
74,342,61178,2,0,P|29:321|3:279,1,99.0000030212403
212,196,61565,1,0,0:0:0:0:
236,193,61661,1,0,0:0:0:0:
261,191,61758,1,0,0:0:0:0:
285,189,61855,1,0,0:0:0:0:
310,186,61952,1,0,0:0:0:0:
335,184,62048,1,0,0:0:0:0:
359,182,62146,1,0,0:0:0:0:
384,224,62242,1,0,0:0:0:0:
386,273,62339,1,0,0:0:0:0:
366,317,62436,1,0,0:0:0:0:
327,347,62533,1,0,0:0:0:0:
278,355,62629,1,0,0:0:0:0:
232,340,62727,2,0,P|212:308|208:276,1,49.5000015106202
136,220,62920,2,0,P|127:243|112:262,5,49.5000015106202
48,335,63501,5,0,0:0:0:0:
46,317,63597,1,0,0:0:0:0:
44,298,63694,1,0,0:0:0:0:
42,280,63791,1,0,0:0:0:0:
40,261,63888,1,0,0:0:0:0:
38,243,63984,1,0,0:0:0:0:
36,224,64081,1,0,0:0:0:0:
34,206,64178,1,0,0:0:0:0:
32,188,64275,1,0,0:0:0:0:
24,152,64662,6,0,L|16:72,1,67.5000025749208
60,20,64856,6,0,P|140:16|180:128,1,202.500007724762
88,172,65243,2,0,P|27:126|176:52,1,297.000009063721
224,164,66017,1,0,0:0:0:0:
224,164,66114,1,0,0:0:0:0:
224,164,66211,2,0,L|256:160,2,24.7500007553101
104,92,66404,2,0,L|72:88,2,24.7500007553101
332,47,66598,6,0,B|268:104|192:68|192:68|240:32,1,202.500007724762
250,51,66985,2,0,P|218:156|115:121,1,242.999992584229
87,39,67372,2,0,P|126:33|164:48,1,80.9999975280763
48,208,67565,1,0,0:0:0:0:
48,208,67662,1,0,0:0:0:0:
48,208,67759,2,0,L|32:120,1,80.9999975280763
161,275,67953,6,0,P|68:292|27:208,1,202.500007724762
228,244,68340,2,0,P|224:277|211:308,1,67.5000025749208
104,224,68533,2,0,B|168:204|168:204|224:220|224:220|260:192|308:200,1,202.500007724762
284,284,68920,1,0,0:0:0:0:
368,148,69114,1,0,0:0:0:0:
368,148,69211,1,0,0:0:0:0:
368,148,69307,2,0,L|408:140,2,33.7500012874604
208,120,69501,2,0,L|168:112,2,33.7500012874604
288,283,69695,6,0,P|320:281|364:144,1,202.500007724762
403,22,70082,2,0,P|355:76|367:147,1,148.50000453186
496,111,70469,2,0,P|472:104|448:104,1,49.5000015106202
292,196,70662,1,0,0:0:0:0:
292,196,70759,1,0,0:0:0:0:
292,196,70856,2,0,P|305:217|322:233,1,49.5000015106202
447,104,71049,6,0,B|408:72|408:72|380:104|380:104|324:56|236:88,1,202.500007724762
146,168,71436,2,0,P|266:171|256:52,1,270.000010299683
164,32,71920,1,0,0:0:0:0:
121,62,72017,2,0,L|273:50,1,135.000005149842
304,52,72307,1,0,0:0:0:0:
337,48,72404,2,0,L|304:52,2,33.7500012874604
72,68,72598,1,0,0:0:0:0:
376,120,72791,6,0,B|404:104|416:76|416:76|392:216,1,202.500007724762
448,288,73178,2,0,P|396:252|300:336,1,202.500007724762
380,332,73565,2,0,L|400:192,1,135.000005149842
404,160,73856,1,0,0:0:0:0:
404,160,73953,2,0,L|416:88,1,56.25
464,24,74146,6,0,P|472:96|304:116,1,247.500007553101
168,24,74727,2,0,B|220:12|220:12|256:48|256:108,1,135
64,180,75114,2,0,B|62:143|98:107|98:107|150:119,1,135
236,200,75501,5,0,0:0:0:0:
232,280,75630,1,0,0:0:0:0:
228,360,75759,1,0,0:0:0:0:
90,324,75888,6,0,L|185:316,1,67.5000025749208
312,308,76082,2,0,L|373:302,2,33.7500012874604
212,136,76275,2,0,P|172:177|170:234,1,116.999994644165
324,192,76565,1,0,0:0:0:0:
348,164,76662,2,0,L|212:176,1,116.999994644165
96,152,77049,1,0,0:0:0:0:
352,72,77243,6,0,P|324:120|400:236,1,198.000006042481
448,56,77824,1,0,0:0:0:0:
244,92,78017,2,0,P|236:120|240:160,1,49.5000015106202
412,192,78211,2,0,L|288:212,1,99.0000030212403
232,224,78501,1,0,0:0:0:0:
232,224,78598,2,0,L|196:228,2,24.7500007553101
100,244,78791,1,0,0:0:0:0:
272,360,78985,6,0,B|336:352|384:280|384:280|396:336|452:364,1,202.500007724762
484,272,79372,2,0,P|472:240|508:124,1,135.000005149842
505,26,79662,1,0,0:0:0:0:
505,26,79759,2,0,P|448:37|407:77,1,116.999994644165
320,184,80146,2,0,L|300:96,1,80.9999975280763
296,76,80340,6,0,L|264:304,1,216
120,204,80727,2,0,L|232:224,1,72
408,268,80920,2,0,L|265:289,1,144
176,308,81211,1,0,0:0:0:0:
132,316,81307,1,0,0:0:0:0:
48,176,81501,1,0,0:0:0:0:
48,176,81598,1,0,0:0:0:0:
48,176,81695,2,0,L|32:244,2,36
160,112,81888,2,0,L|151:76,2,36
200,320,82082,6,0,B|250:285|304:296|304:296|336:360|414:356,1,242.999992584229
471,172,82469,2,0,P|415:197|396:256,1,125.999996154785
496,292,82759,1,0,0:0:0:0:
496,292,82856,2,0,P|470:236|412:216,1,125.999996154785
216,296,83243,2,0,L|304:308,1,80.9999975280763
376,288,83436,6,0,B|248:268|280:360|132:332,1,242.999992584229
108,224,83824,2,0,P|97:300|236:343,1,242.999992584229
332,252,84211,2,0,P|288:236|236:248,1,67.5000025749208
184,272,84404,1,0,0:0:0:0:
412,176,84598,1,0,0:0:0:0:
412,176,84695,1,0,0:0:0:0:
412,176,84791,2,0,L|420:232,2,33.7500012874604
312,96,84985,2,0,L|307:62,2,33.7500012874604
472,116,85178,6,0,P|436:136|320:16,1,242.999992584229
408,48,85565,2,0,P|429:123|382:186,1,161.999995056153
272,152,85856,1,0,0:0:0:0:
272,152,85953,2,0,P|240:88|240:0,1,135.000005149842
445,291,86340,6,0,B|440:341|415:351|415:351|405:266|364:216|212:216|244:340|310:341,1,337.500012874604
376,256,86920,2,0,B|436:104|280:168|332:8,1,270.000010299683
476,22,87501,2,0,P|451:45|420:55,1,67.5000025749208
220,56,87695,2,0,B|164:136|64:40|44:52|192:200|136:240|64:272,1,337.500012874604
32,184,88275,6,0,L|12:108,4,67.5000025749208
104,32,88856,6,0,P|144:28|184:56,1,80.9999975280763
228,220,89049,2,0,P|184:212|145:134,1,135.000005149842
362,70,89436,2,0,L|352:160,1,90
304,256,89630,6,0,P|320:184|440:180,1,202.500007724762
460,336,90017,2,0,B|400:368|400:368|356:308|392:216,1,202.500007724762
232,200,90404,2,0,P|276:208|296:224,1,67.5000025749208
208,356,90598,2,0,L|64:332,1,135.000005149842
20,256,90888,1,0,0:0:0:0:
20,256,90985,2,0,L|-32:248,2,33.7500012874604
88,192,91178,2,0,L|96:140,2,33.7500012874604
180,116,91372,6,0,B|209:126|269:175|203:190|232:252|299:279|362:216|344:161|303:139|276:153,1,256.499993150711
144,200,91759,2,0,P|88:224|32:300,1,135.000005149842
132,320,92049,1,0,0:0:0:0:
132,320,92146,2,0,L|104:156,1,135.000005149842
84,16,92533,2,0,P|64:48|64:100,1,67.5000025749208
192,148,92727,6,0,B|256:140|288:72|272:24|272:24|244:28|224:60,1,202.500007724762
276,168,93114,2,0,P|308:188|364:192,1,67.5000025749208
476,76,93307,2,0,L|320:104,1,135.000005149842
452,152,93598,1,0,0:0:0:0:
452,152,93695,2,0,L|424:-4,1,135.000005149842
376,188,93985,1,0,0:0:0:0:
383,212,94082,2,0,L|398:270,2,33.7500012874604
280,132,94275,2,0,L|271:99,2,33.7500012874604
180,292,94469,6,0,B|192:348|240:328|240:172|136:128,1,242.999992584229
30,201,94856,2,0,P|98:205|150:101,1,161.999995056153
120,60,95146,1,0,0:0:0:0:
64,120,95243,2,0,L|228:152,1,161.999995056153
452,304,95630,2,0,P|432:328|380:344,1,80.9999975280763
238,279,95824,6,0,P|352:275|381:371,1,202.500007724762
144,308,96211,2,0,B|129:236|189:189|189:189|160:144|108:128|73:137,1,270.000010299683
32,240,96695,1,0,0:0:0:0:
32,240,96791,2,0,L|47:374,1,135.000005149842
144,308,97082,1,0,0:0:0:0:
144,308,97178,2,0,L|140:260,2,33.7500012874604
128,180,97372,2,0,L|124:132,2,33.7500012874604
120,64,97565,6,0,B|125:117|125:117|108:160|108:160|140:192|140:192|124:228|140:285,1,229.500004377365
232,310,97953,2,0,L|224:244,1,67.5000025749208
25,164,98146,2,0,L|33:231,1,67.5000025749208
212,52,98340,1,0,0:0:0:0:
184,60,98727,6,0,P|172:84|172:124,1,67.5000025749208
84,148,98920,2,0,P|92:173|120:201,1,62.9999980773926
272,176,99114,6,0,B|376:151|379:49|379:49|413:145|502:164|502:164|351:155|315:277|364:359|472:343|477:265,1,720
256,192,109953,12,0,112275,0:0:0:0:
432,180,112662,5,0,0:0:0:0:
360,204,112791,1,0,0:0:0:0:
316,268,112920,1,0,0:0:0:0:
320,344,113049,1,0,0:0:0:0:
72,216,113824,6,0,L|232:200,1,144
136,136,114404,2,0,L|152:296,1,144
150,279,114888,1,0,0:0:0:0:
150,279,114985,1,0,0:0:0:0:
244,328,115178,1,0,0:0:0:0:
336,272,115372,2,0,P|392:272|444:352,1,144
443,336,116146,6,0,P|424:280|468:132,1,216
337,102,116920,2,0,P|407:94|465:134,1,144
316,24,117501,2,0,L|297:166,1,144
297,166,117985,1,0,0:0:0:0:
297,166,118082,1,0,0:0:0:0:
200,216,118275,1,0,0:0:0:0:
220,108,118469,1,0,0:0:0:0:
297,166,118662,1,0,0:0:0:0:
200,216,118856,2,0,L|104:208,1,72
72,300,119243,6,0,B|116:176|16:212|72:76,1,216
160,36,120017,2,0,L|320:52,1,144
312,160,120598,2,0,L|152:144,1,144
168,145,121082,1,0,0:0:0:0:
168,145,121178,1,0,0:0:0:0:
208,248,121372,1,0,0:0:0:0:
244,348,121565,2,0,P|308:324|400:352,1,144
380,338,122340,6,0,P|428:288|400:132,1,216
336,100,123114,2,0,P|320:136|332:196,1,72
364,252,123501,1,0,0:0:0:0:
272,248,123695,2,0,P|236:184|248:96,1,144
276,28,124275,2,0,L|204:18,1,72
120,60,124662,1,0,0:0:0:0:
108,84,124759,1,0,0:0:0:0:
100,108,124856,1,0,0:0:0:0:
100,132,124953,1,0,0:0:0:0:
104,156,125049,2,0,L|120:216,3,36
80,228,125436,5,0,0:0:0:0:
164,272,125630,1,0,0:0:0:0:
248,316,125824,1,0,0:0:0:0:
332,360,126017,1,0,0:0:0:0:
252,188,126211,5,0,0:0:0:0:
240,232,126404,1,0,0:0:0:0:
228,276,126598,1,0,0:0:0:0:
216,320,126791,1,0,0:0:0:0:
416,344,126985,5,0,0:0:0:0:
428,236,127178,1,0,0:0:0:0:
440,128,127372,1,0,0:0:0:0:
452,20,127565,1,0,0:0:0:0:
488,224,127759,5,0,0:0:0:0:
472,192,127953,1,0,0:0:0:0:
456,160,128146,1,0,0:0:0:0:
440,128,128339,1,0,0:0:0:0:
272,236,128533,5,0,0:0:0:0:
170,236,128727,1,0,0:0:0:0:
80,193,128920,1,0,0:0:0:0:
28,108,129114,1,0,0:0:0:0:
140,100,129307,5,0,0:0:0:0:
160,168,129501,1,0,0:0:0:0:
140,236,129695,1,0,0:0:0:0:
76,268,129888,1,0,0:0:0:0:
36,48,130082,5,0,0:0:0:0:
148,80,130275,1,0,0:0:0:0:
260,112,130469,1,0,0:0:0:0:
372,144,130662,1,0,0:0:0:0:
224,36,130856,5,0,0:0:0:0:
242,74,131049,1,0,0:0:0:0:
260,112,131243,1,0,0:0:0:0:
278,150,131436,1,0,0:0:0:0:
176,320,131630,5,0,0:0:0:0:
92,336,131824,1,0,0:0:0:0:
24,284,132017,1,0,0:0:0:0:
28,196,132211,1,0,0:0:0:0:
217,246,132404,5,0,0:0:0:0:
176,320,132598,1,0,0:0:0:0:
95,343,132791,1,0,0:0:0:0:
26,284,132985,1,0,0:0:0:0:
196,152,133178,5,0,0:0:0:0:
292,216,133372,1,0,0:0:0:0:
388,280,133565,1,0,0:0:0:0:
484,344,133759,1,0,0:0:0:0:
449,183,133952,5,0,0:0:0:0:
419,230,134146,1,0,0:0:0:0:
388,280,134339,1,0,0:0:0:0:
358,329,134533,1,0,0:0:0:0:
64,120,134727,5,0,0:0:0:0:
176,104,134920,1,0,0:0:0:0:
288,88,135114,1,0,0:0:0:0:
400,72,135307,1,0,0:0:0:0:
248,188,135501,5,0,0:0:0:0:
211,147,135695,1,0,0:0:0:0:
176,104,135888,1,0,0:0:0:0:
141,61,136082,1,0,0:0:0:0:
316,44,136275,6,0,L|400:60,2,48
372,132,136662,6,0,L|456:148,2,48
428,220,137049,6,0,L|512:236,2,48
364,296,137436,5,0,0:0:0:0:
336,220,137565,1,0,0:0:0:0:
308,144,137695,1,0,0:0:0:0:
280,68,137824,6,0,P|340:40|416:68,1,135
444,124,138211,1,0,0:0:0:0:
256,224,138404,2,0,P|234:217|216:203,1,45
272,136,138598,2,0,L|252:248,1,90
236,352,138985,1,0,0:0:0:0:
88,288,139178,2,0,L|128:92,1,180
192,248,139759,1,0,0:0:0:0:
16,184,139953,1,0,0:0:0:0:
220,96,140146,2,0,P|268:84|324:108,1,90
352,184,140436,1,0,0:0:0:0:
352,184,140533,2,0,P|304:196|248:172,1,90
424,72,140920,6,0,P|464:116|464:236,1,180
372,324,141501,2,0,L|452:348,1,45
466,231,141695,2,0,L|370:242,1,90
228,256,142082,1,0,0:0:0:0:
64,352,142275,2,0,P|84:320|76:252,1,90
24,136,142662,2,0,P|4:168|12:236,1,90
140,48,143049,2,0,P|132:57|117:99,1,45
196,136,143243,2,0,P|256:116|280:68,1,90
104,176,143630,2,0,P|91:237|120:282,1,90
364,252,144017,6,0,B|270:263|289:206|188:223,1,180
179,311,144598,2,0,P|201:311|224:308,1,45
340,168,144791,1,0,0:0:0:0:
192,124,144985,1,0,0:0:0:0:
224,307,145178,1,0,0:0:0:0:
360,184,145372,2,0,P|412:188|448:308,1,180
292,244,145953,1,0,0:0:0:0:
439,148,146146,2,0,P|439:170|432:192,1,45
380,264,146340,1,0,0:0:0:0:
296,92,146533,1,0,0:0:0:0:
384,80,146727,1,0,0:0:0:0:
472,68,146920,1,0,0:0:0:0:
248,192,147114,6,0,B|140:188|136:80|136:80|140:136|80:184,1,270
44,92,147791,1,0,0:0:0:0:
43,91,147888,2,0,P|53:48|79:12,1,90
240,92,148275,1,0,0:0:0:0:
120,256,148469,2,0,P|152:312|260:308,1,180
280,160,149049,1,0,0:0:0:0:
200,199,149243,2,0,P|199:221|204:244,1,45
348,344,149436,1,0,0:0:0:0:
404,272,149630,1,0,0:0:0:0:
456,200,149824,1,0,0:0:0:0:
468,360,150017,1,0,0:0:0:0:
496,132,150211,6,0,P|444:180|320:152,1,180
400,84,150791,2,0,L|408:24,2,45
268,44,151372,6,0,L|160:32,1,90
184,136,151759,2,0,L|76:124,1,90
100,228,152146,1,0,0:0:0:0:
0,212,152340,1,0,0:0:0:0:
152,336,152533,5,0,0:0:0:0:
260,284,152727,1,0,0:0:0:0:
208,176,152920,1,0,0:0:0:0:
100,228,153114,1,0,0:0:0:0:
260,284,153307,6,0,B|365:267|321:339|453:315,1,180
476,232,153888,2,0,P|448:224|424:224,2,45
288,368,154469,2,0,P|252:344|236:268,1,90
296,136,154856,2,0,P|332:160|348:236,1,90
160,248,155243,1,0,0:0:0:0:
244,72,155436,2,0,P|264:60|308:56,1,45
376,80,155630,5,0,0:0:0:0:
464,179,155824,1,0,0:0:0:0:
456,311,156017,1,0,0:0:0:0:
345,238,156211,1,0,0:0:0:0:
468,132,156404,6,0,P|488:168|472:244,1,90
376,96,156791,2,0,P|397:60|470:36,1,90
391,194,157178,2,0,P|349:193|292:141,1,90,0|0,3:0|3:0,3:0:0:0:
284,76,157565,1,0,0:0:0:0:
376,96,157759,1,0,0:0:0:0:
240,244,157953,6,0,P|193:244|141:205,1,90
144,128,158340,2,0,P|110:95|101:31,1,90
323,171,158727,2,0,P|360:194|382:233,2,90
232,152,159307,1,0,0:0:0:0:
308,316,159501,6,0,L|320:376,15,45
208,280,161049,6,0,L|220:340,3,45
108,244,161436,6,0,L|120:304,1,45
8,208,161630,6,0,L|20:268,1,45
181,105,161824,6,0,B|224:108|258:79|258:79|272:152|224:190|224:190|200:192|175:185|175:185|152:240|84:247,1,346.500010574341
16,252,162598,6,0,B|88:296|168:264|168:264|128:304|136:344,1,247.500007553101
236,340,162985,2,0,B|308:272|280:172|280:172|228:264,1,242.999992584229
336,332,163372,2,0,P|388:352|452:336,1,107.999996704102
400,100,163759,2,0,P|380:116|364:172,1,76.5000014591217
400,252,163953,6,0,P|392:196|264:164,1,188.999994232178
216,288,164340,2,0,B|276:228|276:228|236:44,1,251.999992309571
124,16,164920,1,0,0:0:0:0:
168,196,165114,2,0,L|123:235,2,31.4999990386963
340,80,165307,1,0,0:0:0:0:
80,120,165501,1,0,0:0:0:0:
236,284,165695,6,0,B|284:236|248:164|248:164|332:204|332:204|360:128,1,270
407,17,166082,2,0,P|326:69|350:162,1,202.500007724762
506,157,166469,2,0,P|469:104|404:100,1,135.000005149842
440,356,166856,2,0,L|448:264,1,80.9999975280763
480,56,167049,6,0,B|516:140|456:196|456:196|448:160|384:124,1,202.500007724762
288,80,167436,2,0,P|327:73|363:89,1,80.9999975280763
306,276,167630,2,0,B|236:284|200:228|200:228|180:256|180:256|136:268,1,202.500007724762
44,256,168017,1,0,0:0:0:0:
164,368,168211,1,0,0:0:0:0:
164,368,168307,1,0,0:0:0:0:
164,368,168404,2,0,L|226:353,2,33.7500012874604
108,176,168598,1,0,0:0:0:0:
312,188,168791,6,0,P|360:112|252:136,1,256.499993150711
452,128,169178,2,0,B|445:43|380:12|380:12|440:20|460:44,1,229.500004377365
432,220,169565,2,0,L|412:360,1,125.999996154785
308,132,169953,2,0,P|336:156|344:212,1,80.9999975280763
152,332,170146,6,0,B|152:232|240:229|240:229|228:256|196:276,1,202.500007724762
48,236,170533,2,0,B|40:192|80:124|145:146|145:146|10:169|10:169|32:110|10:63,1,405.000015449525
260,80,171307,2,0,L|320:92,2,33.7500012874604
168,60,171501,1,0,0:0:0:0:
308,200,171695,1,0,0:0:0:0:
132,172,171888,6,0,B|98:168|82:144|86:108|154:108|174:136|190:192|170:264|130:284,1,242.999992584229
48,364,172275,2,0,B|-20:318|-11:230|-11:230|48:213|98:249,1,242.999992584229
136,364,172662,1,0,0:0:0:0:
136,364,173049,5,0,0:0:0:0:
159,335,173145,1,0,0:0:0:0:
188,313,173242,1,0,0:0:0:0:
222,300,173339,1,0,0:0:0:0:
258,295,173436,1,0,0:0:0:0:
295,300,173532,1,0,0:0:0:0:
329,314,173629,1,0,0:0:0:0:
384,300,173727,1,0,0:0:0:0:
420,256,173824,1,0,0:0:0:0:
424,200,173920,1,0,0:0:0:0:
396,152,174017,1,0,0:0:0:0:
340,136,174114,1,0,0:0:0:0:
288,152,174211,2,0,P|268:172|252:224,1,62.9999980773926
152,348,174404,2,0,P|144:320|107:280,5,62.9999980773926
92,272,174985,5,0,0:0:0:0:
100,240,175082,1,0,0:0:0:0:
100,208,175178,1,0,0:0:0:0:
96,176,175275,1,0,0:0:0:0:
88,144,175372,1,0,0:0:0:0:
72,116,175469,1,0,0:0:0:0:
56,92,175565,1,0,0:0:0:0:
32,72,175662,1,0,0:0:0:0:
4,56,175759,1,0,0:0:0:0:
4,56,176146,6,0,P|28:68|81:68,1,80.9999975280763
276,128,176340,2,0,B|292:76|256:8|256:8|212:20|184:56|184:56|204:96,1,229.500004377365
308,204,176727,2,0,B|370:238|426:187|426:187|388:83|388:83|347:107|358:163,1,306.000005836487
400,292,177211,1,0,0:0:0:0:
400,292,177307,2,0,P|450:274|484:212,1,67.5000025749208
480,88,177501,2,0,L|484:44,2,33.7500012874604
308,204,177695,1,0,0:0:0:0:
500,176,177888,1,0,0:0:0:0:
320,360,178082,6,0,B|264:347|244:279|244:279|204:307|204:307|168:291|128:311,1,242.999992584229
44,368,178469,2,0,P|96:324|72:176,1,229.500004377365
4,136,178856,1,0,0:0:0:0:
268,104,179049,1,0,0:0:0:0:
268,104,179146,1,0,0:0:0:0:
268,104,179243,2,0,L|256:12,1,85.4999977169037
136,128,179436,6,0,P|133:221|224:199,1,216
396,192,179824,2,0,P|362:179|327:184,1,72
173,318,180017,2,0,B|194:363|194:363|226:180,1,216
240,112,180404,1,0,0:0:0:0:
80,260,180598,1,0,0:0:0:0:
80,260,180695,1,0,0:0:0:0:
80,260,180791,2,0,L|72:320,2,36
96,116,180985,2,0,L|104:56,2,36
204,272,181178,6,0,B|252:288|312:272|328:200|328:200|380:208|408:176,1,242.999992584229
403,56,181565,2,0,P|312:23|351:111,1,242.999992584229
472,120,181953,1,0,0:0:0:0:
219,101,182146,1,0,0:0:0:0:
244,102,182243,1,0,0:0:0:0:
268,104,182340,2,0,L|348:109,1,80.9999975280763
428,168,182533,6,0,B|388:132|388:132|204:120,1,216
60,272,182920,2,0,B|92:312|132:312|132:312|196:268|164:168,1,216
72,120,183307,1,0,0:0:0:0:
68,156,183404,1,0,0:0:0:0:
64,192,183501,1,0,0:0:0:0:
248,340,183695,2,0,L|316:332,2,36
104,288,183888,2,0,L|24:296,1,72
232,220,184082,1,0,0:0:0:0:
32,52,184275,6,0,B|76:24|144:36|176:104|148:160|148:160|124:208,1,256.499993150711
24,272,184662,2,0,B|4:248|12:200|56:184|100:192|148:196|104:264|228:248,1,256.499993150711
300,200,185049,1,0,0:0:0:0:
300,200,185436,2,0,P|312:168|296:112,1,85.4999977169037
159,55,185630,6,0,P|187:183|283:94,1,314.999990386963
153,28,186211,2,0,B|116:56|112:104|112:104|212:112,1,188.999994232178
44,36,186598,2,0,P|28:88|64:208,1,175.499991966248
148,192,186985,1,0,0:0:0:0:
211,111,187114,1,0,0:0:0:0:
111,97,187243,1,0,0:0:0:0:
184,288,187372,6,0,L|284:284,1,67.5000025749208
320,196,187565,2,0,L|317:141,2,33.7500012874604
398,297,187759,2,0,B|388:344|424:388|448:352|470:294|448:200|400:152,1,256.499993150711,0|0,2:0|2:0,2:0:0:0:
340,100,188146,2,0,P|304:100|244:188,1,135.000005149842
284,368,188533,2,0,P|304:328|304:280,1,80.9999975280763
96,220,188727,6,0,P|96:276|224:292,1,202.500007724762
356,212,189114,2,0,B|236:192|280:264|164:248,1,202.500007724762
96,220,189501,1,0,0:0:0:0:
92,188,189598,1,0,0:0:0:0:
88,156,189695,1,0,0:0:0:0:
224,80,189888,1,0,0:0:0:0:
52,60,190082,2,0,L|-4:52,2,33.7500012874604
224,160,190275,2,0,P|260:152|296:116,1,67.5000025749208
68,160,190469,6,0,B|25:245|89:290|89:290|111:268|111:268|144:301|206:290,1,242.999992584229
320,224,190856,2,0,P|215:255|248:360,1,242.999992584229
284,292,191243,1,0,0:0:0:0:
456,272,191436,2,0,P|464:228|452:188,1,67.5000025749208
336,80,191630,2,0,P|328:124|340:164,1,67.5000025749208
504,128,191824,6,0,B|497:71|449:37|397:32|397:32|420:14|459:18,1,202.500007724762
440,184,192211,2,0,P|436:208|400:252,1,67.5000025749208
288,328,192404,2,0,B|244:316|220:276|220:276|200:332|160:348|116:360,1,202.500007724762
64,320,192791,1,0,0:0:0:0:
148,216,192985,6,0,B|172:180|176:152|176:152|148:164|148:164|160:136|156:108|156:108|137:128|137:128|128:36|44:24,1,337.500012874604
0,164,193565,6,0,B|24:196|55:192|55:192|68:164|68:164|148:192|210:118,1,242.999992584229
264,56,193953,2,0,B|292:24|332:16|332:16|352:64|412:84,1,161.999995056153
468,96,194243,1,0,0:0:0:0:
468,96,194340,2,0,P|476:148|464:208,1,80.9999975280763
296,200,194533,2,0,P|348:192|408:204,1,80.9999975280763
440,264,194727,2,0,P|448:316|436:376,1,80.9999975280763
216,252,194920,6,0,P|308:236|345:370,1,242.999992584229
136,312,195307,2,0,B|76:248|108:144|108:144|172:216,1,242.999992584229
32,296,195695,1,0,0:0:0:0:
32,296,195791,1,0,0:0:0:0:
32,296,195888,1,0,0:0:0:0:
260,200,196082,6,0,B|228:144|152:136|152:136|108:200|30:176,1,247.500007553101
60,72,196662,6,0,B|124:28|124:28|96:216,1,242.999992584229
52,320,197049,2,0,P|48:272|208:248,1,242.999992584229
132,288,197436,1,0,0:0:0:0:
120,124,197630,2,0,P|160:124|208:144,1,80.9999975280763
288,260,197824,6,0,B|304:304|292:360|252:380|208:380|168:328|188:284|220:248|264:208|388:216,1,404.999987640381
480,224,198404,2,0,P|460:276|340:124,1,404.999987640381
392,68,198985,2,0,P|416:102|420:142,1,80.9999975280763
196,248,199178,2,0,B|182:177|223:116|223:116|176:170|113:182|113:182|107:273|6:301,1,404.999987640381
16,184,199759,6,0,L|24:112,4,67.5000025749208
88,60,200340,2,0,P|120:60|172:108,1,80.9999975280763
192,336,200533,2,0,L|204:120,1,161.999995056153
364,308,200920,2,0,L|272:300,1,80.9999975280763
79,279,201114,6,0,P|90:170|200:174,1,242.999992584229
283,300,201501,2,0,B|228:360|228:360|192:96,1,323.999990112305
188,40,201985,1,0,0:0:0:0:
188,40,202082,1,0,0:0:0:0:
320,120,202275,2,0,P|352:124|404:96,1,80.9999975280763
428,24,202469,2,0,L|500:16,2,40.4999987640381
368,208,202662,2,0,L|372:248,2,40.4999987640381
208,68,202856,6,0,P|164:64|132:232,1,242.999992584229
168,296,203243,2,0,B|220:300|220:300|268:280|268:280|324:292,1,161.999995056153
416,324,203533,1,0,0:0:0:0:
416,324,203630,2,0,L|408:232,1,80.9999975280763
328,172,203824,2,0,P|320:140|348:72,1,80.9999975280763
504,140,204017,2,0,P|472:148|404:120,1,80.9999975280763
216,52,204211,6,0,B|308:64|380:16|380:16|348:48|340:96,1,242.999992584229
216,140,204598,2,0,P|160:124|136:88,1,80.9999975280763
76,196,204791,2,0,P|96:152|28:48,1,161.999995056153
8,136,205082,1,0,0:0:0:0:
8,136,205178,1,0,0:0:0:0:
152,364,205372,6,0,B|168:335|203:328|203:328|202:290|202:290|221:267|221:267|218:233|218:233|238:205|238:205|198:156|125:165|79:239|140:302,1,404.999987640381
300,368,205953,6,0,B|392:340|392:248|392:248|412:288|464:296,1,242.999992584229
304,216,206340,2,0,L|496:204,1,161.999995056153
456,124,206630,1,0,0:0:0:0:
420,128,206727,2,0,L|339:133,1,80.9999975280763
196,224,206920,2,0,L|277:219,1,80.9999975280763
377,35,207114,2,0,L|296:40,1,80.9999975280763
396,308,207307,6,0,B|448:300|496:248|488:188|488:188|456:228|392:228,1,242.999992584229
307,193,207695,2,0,P|314:89|412:128,1,242.999992584229
232,236,208082,2,0,P|212:208|200:132,1,80.9999975280763
256,32,208275,1,0,0:0:0:0:
348,144,208469,1,0,0:0:0:0:
96,200,208662,2,0,L|32:216,2,40.4999987640381
272,120,208856,2,0,P|236:116|192:152,1,80.9999975280763
216,344,209049,6,0,B|236:320|264:312|264:312|292:344|292:344|328:324|376:320|348:360|456:352,1,242.999992584229
496,288,209436,2,0,P|472:260|416:244,1,67.5000025749208
300,168,209634,2,0,P|306:204|347:246,1,67.5000025749208
440,116,209824,1,0,0:0:0:0:
456,92,210211,6,0,P|429:76|384:76,1,53.9999983520508
312,96,210404,2,0,P|289:116|275:159,1,53.9999983520508
264,228,210598,6,0,B|278:328|386:371|386:371|451:306|424:186|424:186|472:144|540:184|540:280|515:316|343:351|336:183,1,792.000024169923
