osu file format v5

[General]
AudioFilename: 07 - Vitamin Drop2.mp3
AudioLeadIn: 0
PreviewTime: 128638
Countdown: 1
SampleSet: Normal
StackLeniency: 0.7
Mode: 0
LetterboxInBreaks: 0

[Editor]
Bookmarks: 17128,29902,34160,79063,102870,118354,128612,159386,165773,107944,126602
DistanceSpacing: 0.899999976158142
BeatDivisor: 4
GridSize: 8

[Metadata]
Title:Vitamin Drop
Artist:Perfume
Creator:Skyripper
Version:Normal
Source:
Tags:

[Difficulty]
HPDrainRate:3
CircleSize:3
OverallDifficulty:3
SliderMultiplier:1.5
SliderTickRate:2

[Events]
//Background and Video events
0,0,"vitaperfrume.jpg"
//Break Periods
2,66902,77649
2,100773,101456
//Storyboard Layer 0 (Background)
//Storyboard Layer 1 (Fail)
//Storyboard Layer 2 (Pass)
//Storyboard Layer 3 (Foreground)
//Storyboard Sound Samples
//Background Colour Transformations
3,100,163,162,255

[TimingPoints]
3219,387.096774193548,4,1,0,70,1,0
28741,-100,4,2,0,75,0,0
29322,-100,4,1,0,74,0,0
128418,-100,4,1,0,91,0,1
153386,-100,4,1,0,73,0,0
165773,-100,4,1,0,79,0,1

[Colours]
Combo1 : 242,148,6
Combo2 : 79,134,45
Combo3 : 252,53,18

[HitObjects]
392,72,17154,1,0
160,72,17735,1,0
392,312,18702,1,2
160,312,19283,1,2
56,160,20638,6,0,B|208:160,3,150,2|2|0|0
432,80,22767,2,0,B|432:176,2,75
360,80,23348,5,0
160,80,23928,1,0
160,344,24896,1,2
360,344,25477,1,2
256,192,26251,12,4,29154
392,64,29928,5,0
256,64,30315,1,0
256,200,30702,1,0
392,200,31089,1,0
392,336,31477,1,0
256,336,31864,1,0
256,336,32057,1,0
120,336,32444,2,0,B|120:280|200:280|200:216|120:216|48:216|48:136|120:136|200:136|200:208|280:208|280:136|280:48|176:48|120:48|48:48|-8:48|-8:112|-8:192|56:240,1,675
368,128,35154,6,2,B|440:104,2,75
200,240,36122,5,0
128,128,36509,1,0
72,248,36896,1,0
200,240,37283,1,0
256,120,37670,2,0,B|352:176,1,75
400,272,38251,1,0
424,136,38638,1,0
248,32,39218,5,2
232,176,39606,1,2
296,296,39993,1,0
160,296,40380,1,0
80,184,40767,1,0
136,64,41154,1,4
136,64,41541,1,4
136,64,41928,1,4
256,128,42315,6,0,B|256:280,1,150
392,296,43089,2,0,B|392:128,1,150
384,8,43864,2,0,B|224:8,1,150
168,8,44444,1,0
64,88,44831,2,0,B|24:192|64:336,1,225,0|2
184,344,45799,1,2
256,192,45993,12,0,48122
432,272,48509,6,0,B|352:304|280:288,1,150
272,152,49283,1,0
168,240,49670,1,0
80,136,50057,2,0,B|32:80|48:48,1,75
176,56,50638,2,0,B|264:32|344:56,1,150
256,192,51218,12,4,52767
360,312,53348,6,0,B|448:304,4,75
224,336,54509,2,0,B|120:320|72:272|48:184|88:80|160:48,1,375
272,56,55864,2,0,B|360:104|352:192,1,150,2|0
344,240,56444,1,2
432,344,56831,6,0,B|472:304|432:248,1,75
440,208,57218,2,0,B|488:160|496:112|472:56,1,150
272,56,58186,2,0,B|168:96|160:184,1,150
160,224,58767,1,0
288,256,59154,1,0
24,336,59928,6,0,B|24:232,1,75
24,192,60315,2,0,B|56:96|120:56|224:40|296:56,1,300,0|2
448,328,62057,5,2
368,216,62444,6,0,B|424:144,4,75
328,272,63412,2,0,B|256:320|176:280,1,150
136,240,63993,1,2
200,120,64380,1,2
256,192,64573,12,2,66702
432,56,79089,5,0
336,152,79477,1,0
240,56,79864,1,0
152,160,80251,1,0
240,256,80638,1,0
376,256,81025,1,0
304,144,81412,1,0
304,144,81606,1,0
208,48,81993,2,0,B|88:48|48:216|72:264|112:304|144:328|184:328,1,375
448,152,83928,6,0,B|448:40,4,75,0|0|0|0|2
376,152,84896,2,2,B|272:152,2,75,2|2|0
416,280,85670,5,0
288,312,86057,1,0
160,264,86444,1,0
88,152,86831,1,0
176,48,87218,1,0
176,48,87412,1,0
280,128,87799,1,0
256,192,88186,12,0,90315
136,56,90702,6,0,B|136:96,2,37.5
200,56,91089,1,0
336,56,91477,1,0
408,168,91864,5,0
320,272,92251,1,0
184,256,92638,1,0
208,120,93025,1,0
72,96,93412,1,0
32,224,93799,2,0,B|8:304,1,75
136,336,94380,2,0,B|248:344|208:136|392:304|424:264|432:144,1,375,0|2
336,64,95735,5,0
200,88,96122,1,0
128,88,96315,2,0,B|128:8,7,75,0|0|0|0|2|2|0|4
56,128,98057,5,0
104,248,98444,1,0
232,200,98831,1,0
360,160,99218,1,0
432,272,99606,1,0
368,296,99799,1,0
360,160,100186,1,0
248,80,100573,1,0
64,304,102896,6,0,B|64:216,2,75
128,304,103477,2,0,B|232:304,1,75
336,304,104057,2,0,B|408:256|440:160|408:96|344:32|280:32|200:40|112:144,1,525,0|2
256,280,105993,1,2
344,176,106380,6,0,B|336:80,1,75
280,72,106767,2,0,B|200:40|104:80,1,150
48,256,107735,1,0
176,304,108122,2,0,B|224:336|264:312,1,75
376,336,108702,1,0
440,72,109477,6,0,B|384:40|336:56,1,75
304,64,109864,2,0,B|344:128|352:232|296:240|216:240|160:200,1,300,0|2
472,360,111606,1,2
416,240,111993,6,0,B|416:144,2,75
344,240,112573,1,0
344,240,112767,1,0
272,240,112960,2,0,B|176:208|128:136,1,150
136,96,113541,1,2
256,40,113928,1,2
376,96,114315,5,0
432,216,114702,1,0
376,336,115089,1,0
344,272,115283,2,0,B|256:272,3,75
264,200,116057,1,0
264,200,116251,1,4
144,272,116638,6,0,B|72:256|48:232|40:152|40:88|80:56|136:24|192:24|272:24|312:32|368:64|392:96|432:144|448:200,1,675
384,320,118767,2,0,B|336:344|280:336,1,75
248,312,119154,1,0
120,256,119541,1,0
200,72,120122,2,0,B|136:24|56:96,1,150
80,152,120702,1,0
216,152,121089,1,0
448,296,121864,5,0
448,296,122057,1,0
424,232,122251,2,0,B|440:112|320:24,1,225
200,64,123218,1,0
288,168,123606,1,0
280,304,123993,1,2
144,288,124380,6,0,B|72:280|48:256,2,75
144,216,124960,1,0
144,144,125154,1,0
256,192,125348,12,2,128251
88,64,128638,5,8
224,64,129025,1,0
360,64,129412,1,8
360,200,129799,1,0
360,336,130186,1,8
360,336,130380,1,0
472,264,130767,1,0
136,312,131735,6,0,B|224:312,3,75,8|0|8|0
280,312,132509,1,0
280,176,132896,1,8
144,176,133283,1,0
144,176,133477,1,0
144,176,133670,1,8
144,176,133864,1,8
448,312,134831,5,8
448,176,135218,1,0
328,104,135606,1,8
280,232,135993,1,0
200,120,136380,2,0,B|120:56,1,75,8|0
72,56,136767,1,0
64,120,136960,1,0
64,256,137348,6,0,B|112:320,1,75
160,272,137735,1,0
208,320,137928,1,0
344,312,138315,2,2,B|440:304,1,75
408,240,138702,2,0,B|400:136,1,75
384,96,139089,2,2,B|288:88,1,75
248,200,139670,5,0
248,200,139864,1,0
128,264,140251,1,0
64,144,140638,1,0
64,144,140831,1,8
64,144,141025,5,2
184,72,141412,1,2
312,96,141799,1,0
432,40,142186,1,0
488,160,142573,1,0
488,160,142767,1,0
392,256,143154,1,2
24,200,144122,6,2,B|128:216,1,75
104,144,144509,2,0,B|184:160,1,75
240,176,144896,1,2
288,48,145283,1,0
352,72,145477,1,0
408,112,145670,2,0,B|472:32,3,75,0|0|2|2
224,304,147218,5,2
360,312,147606,1,2
368,176,147993,2,0,B|184:192,1,150
88,216,148767,2,0,B|48:288,1,75
112,304,149154,1,2
112,304,149348,1,0
240,272,149735,5,0
304,256,149928,1,0
368,280,150122,1,0
424,312,150315,1,2
440,176,150702,2,0,B|416:88,1,75
352,88,151089,2,0,B|248:56,1,75
264,128,151477,1,2
200,112,151670,2,0,B|152:64|112:64|48:72|32:128|80:304|64:320|48:344|40:368|72:384|120:384|160:384|208:328,1,525
240,216,153412,6,0,B|408:216,1,150,4|0
416,336,154186,1,0
416,336,154380,1,0
280,336,154767,1,0
144,336,155154,1,0
144,200,155541,1,0
144,200,155735,1,0
144,64,156122,1,0
256,192,156315,12,0,158831
256,192,159025,6,2,B|336:192,2,75
184,192,159606,6,0,B|16:192,1,150
104,80,160380,1,0
168,80,160573,1,0
304,80,160960,2,0,B|416:200,1,150
392,320,161735,2,0,B|288:320,1,75
184,328,162315,1,0
120,312,162509,2,0,B|56:296|-8:240|-8:168|24:112|32:64|80:0|168:-8|240:0|344:32|384:64|376:112|392:152|384:192|328:224|232:256|184:248|88:312|56:224|88:152|120:136,1,975
161,119,165218,2,2,B|200:96|264:128,2,75
96,160,165799,5,4
152,264,166186,1,0
280,224,166573,1,0
344,192,166767,1,0
408,72,167154,1,0
472,192,167541,1,0
408,312,167928,1,0
408,312,168122,1,0
344,192,168509,1,0
256,192,168702,12,0,170831
256,192,171412,5,2
256,192,171606,1,2
256,192,171799,1,2
240,128,171993,6,0,B|184:64|88:64,1,150
64,192,172767,1,0
64,192,172960,1,0
152,288,173348,1,0
288,304,173735,1,0
400,232,174122,1,0
400,232,174315,1,0
424,96,174702,1,0
256,192,174896,12,0,178186
