osu file format v5

[General]
AudioFilename: 07 - Vitamin Drop2.mp3
AudioLeadIn: 0
PreviewTime: 128638
Countdown: 1
SampleSet: Normal
StackLeniency: 0.7
Mode: 0
LetterboxInBreaks: 0

[Editor]
Bookmarks: 17128,29902,34160,79063,102870,118354,128612,159386,165773,107944,126602,95394
DistanceSpacing: 1.20000004768372
BeatDivisor: 4
GridSize: 8

[Metadata]
Title:Vitamin Drop
Artist:Perfume
Creator:Skyripper
Version:Easy
Source:
Tags:

[Difficulty]
HPDrainRate:1
CircleSize:3
OverallDifficulty:1
SliderMultiplier:0.7
SliderTickRate:0.5

[Events]
//Background and Video events
0,0,"vitaperfrume.jpg"
//Break Periods
2,66902,77797
2,116451,126958
//Storyboard Layer 0 (Background)
//Storyboard Layer 1 (Fail)
//Storyboard Layer 2 (Pass)
//Storyboard Layer 3 (Foreground)
//Storyboard Sound Samples
//Background Colour Transformations
3,100,163,162,255

[TimingPoints]
3219,387.096774193548,4,1,0,70,1,0
28741,-100,4,2,0,75,0,0
29322,-100,4,1,0,74,0,0
128418,-100,4,1,0,91,0,1
153386,-100,4,1,0,73,0,0
165773,-100,4,1,0,79,0,1

[Colours]
Combo1 : 242,148,6
Combo2 : 79,134,45
Combo3 : 252,53,18

[HitObjects]
48,80,29928,5,0
128,64,30315,1,0
208,80,30702,1,0
288,64,31089,1,0
368,80,31477,1,0
448,64,31864,1,0
448,192,32444,2,0,C|392:200|248:184|120:192,1,315
160,24,34960,6,0,C|224:16|312:24,1,140,0|4
384,24,36122,5,0
352,104,36509,1,0
384,184,36896,1,0
352,264,37283,2,0,C|272:264,3,70
256,192,38638,12,4,41928
72,304,42315,5,0
152,272,42702,1,0
232,296,43089,1,0
312,264,43477,1,0
384,304,43864,1,0
448,256,44251,1,0
448,128,44831,2,0,C|392:136|248:120|120:128,1,315
48,120,46960,1,0
80,40,47348,1,0
160,40,47735,2,0,B|200:32|240:32,1,70,0|4
272,104,48509,5,0
224,176,48896,1,0
264,248,49283,1,0
224,320,49670,1,0
144,336,50057,2,0,B|112:304,1,35
112,224,50638,1,0
128,144,51025,2,0,B|160:112|211:104|296:80,1,175
256,192,52186,12,0,54315
432,80,54896,5,2
264,208,55864,2,0,B|216:152,2,70,2|0|0
320,272,57025,5,0
400,240,57412,1,0
464,184,57799,1,2
424,104,58186,2,0,B|344:80,1,70,2|0
272,64,58960,1,0
192,80,59348,1,0
136,192,59928,5,0
136,192,60122,1,0
136,192,60315,2,0,B|168:256|288:280,1,175
384,144,62057,1,2
392,224,62444,6,0,B|416:264,5,35
256,192,63799,12,0,66702
256,192,79477,5,0
328,152,79864,1,0
256,104,80251,1,0
184,152,80638,1,0
184,232,81025,1,0
256,272,81412,2,0,B|256:320,1,35
336,304,81993,2,0,B|392:264|424:200|440:160,1,175
376,112,83348,5,0
304,64,83735,1,0
224,80,84122,1,0
144,112,84509,1,0
112,184,84896,1,4
120,264,85283,1,4
192,304,85670,5,0
200,216,86057,1,0
280,224,86444,1,0
344,280,86831,1,0
408,224,87218,1,0
360,152,87606,1,0
240,104,88186,2,0,B|184:96|160:120|112:120|104:112|64:112|40:128|-16:128,1,245
16,208,89928,5,0
88,256,90315,1,0
168,248,90702,1,0
248,272,91089,1,4
328,248,91477,1,4
376,176,91864,6,0,B|368:128|320:120,1,70
256,152,92638,2,0,B|248:104|200:96,1,70
136,136,93412,1,0
80,72,93799,2,0,B|48:80|40:96,1,35
256,192,94380,12,0,96122
256,192,96509,5,0
336,192,96896,1,0
416,192,97283,1,4
496,192,97670,1,4
464,272,98057,6,0,B|384:280,3,70
312,288,99606,2,0,B|264:296,1,35
192,304,100186,1,0
112,320,100573,2,0,B|56:312|48:240|88:184|136:160|216:144|240:104,1,315,0|4
352,160,102896,6,0,B|400:160,4,35
264,160,104057,2,0,B|80:160,1,175
80,240,105412,1,2
184,312,105993,1,2
264,288,106380,6,0,B|312:272,2,35
256,200,107154,1,0
304,80,107735,1,0
376,120,108122,1,0
400,200,108509,1,0
376,280,108896,2,0,B|344:320|272:328|240:328,1,140
192,264,110057,5,0
112,224,110444,1,0
160,152,110831,1,0
136,72,111218,1,0
216,48,111606,1,2
288,88,111993,6,0,B|336:88,5,35
256,192,113348,12,0,116251
216,152,128638,5,0
296,152,129025,1,0
296,232,129412,1,0
216,232,129799,1,0
216,152,130186,2,0,B|168:152,1,35
96,152,130767,1,0
216,320,131735,6,0,B|296:320,2,70
136,320,132896,1,0
56,320,133283,2,0,B|-16:320,2,70
216,232,134831,5,0
296,232,135218,1,0
296,152,135606,1,0
216,152,135993,1,0
216,232,136380,2,0,B|216:280,3,35
96,232,137541,6,0,B|96:144,1,70
104,80,138315,2,0,B|184:88,1,70
240,136,139089,2,0,B|272:168,1,35
432,72,141025,5,0
352,72,141412,1,0
352,152,141799,1,0
352,232,142186,1,0
272,232,142573,2,0,B|224:232,1,35,0|0
224,144,143154,1,0
296,320,144122,6,0,B|216:320,2,70
376,320,145283,1,0
456,320,145670,2,0,B|528:320,2,70
376,168,147218,5,0
288,168,147606,1,0
200,168,147993,1,0
112,168,148380,1,0
112,248,148767,2,0,B|112:296,3,35
192,288,149735,6,0,B|232:288,3,35
280,352,150702,2,0,B|328:352,5,35
256,192,153412,6,0,B|336:192,1,70
336,104,154186,2,0,B|296:104,1,35
216,104,154767,1,0
128,104,155154,1,0
128,184,155541,2,0,B|128:232,1,35
128,304,156122,2,0,B|168:304,1,35
256,192,156702,12,0,159218
256,192,159606,6,0,B|176:192,1,70
176,280,160380,2,0,B|216:280,1,35
296,280,160961,1,0
384,280,161348,1,0
384,200,161735,2,0,B|384:152,1,35
384,80,162316,2,0,B|344:80,1,35
256,192,162896,12,0,165025
336,192,165799,5,0
256,192,166186,2,0,B|256:104,2,70
256,272,167348,2,0,B|256:352,2,70
256,192,168509,1,0
176,192,168896,5,0
256,192,169283,1,0
336,192,169670,1,0
416,192,170057,1,0
416,112,170444,1,0
416,32,170831,1,0
336,32,171218,1,0
256,32,171606,2,0,B|184:32,1,70,0|4
136,96,172380,6,0,B|136:176,3,70
216,168,173928,1,0
296,168,174315,1,0
376,168,174702,1,0
256,192,174896,12,0,178186
