osu file format v10

[General]
AudioFilename: perfume - .mp3
AudioLeadIn: 2007
PreviewTime: 61306
Countdown: 0
SampleSet: Soft
StackLeniency: 0.7
Mode: 0
LetterboxInBreaks: 0
EpilepsyWarning: 1

[Editor]
DistanceSpacing: 1
BeatDivisor: 2
GridSize: 4

[Metadata]
Title:Unnatural Girl
TitleUnicode:
Artist:Perfume
ArtistUnicode:
Creator:Breeze
Version:Normal
Source:
Tags:Oomoto Ayano Nocchi Kashino Yuka Kashiyuka Nishiwaki Ayaka A-chan
BeatmapID:176433
BeatmapSetID:58119

[Difficulty]
HPDrainRate:4
CircleSize:3
OverallDifficulty:4
ApproachRate:4
SliderMultiplier:0.999999999999999
SliderTickRate:2

[Events]
//Background and Video events
0,0,"bg.jpg"
//Break Periods
2,18121,23986
2,91967,97832
2,182429,188293
//Storyboard Layer 0 (Background)
//Storyboard Layer 1 (Fail)
//Storyboard Layer 2 (Pass)
//Storyboard Layer 3 (Foreground)
//Storyboard Sound Samples
//Background Colour Transformations
3,100,0,0,0

[TimingPoints]
-540,461.538461538462,4,2,1,60,1,0
8806,-100,4,2,2,60,0,0
9036,-100,4,2,1,60,0,0
10652,-100,4,2,2,60,0,0
10883,-100,4,2,1,60,0,0
14113,-100,4,2,1,60,0,0
14344,-100,4,2,1,40,0,0
14575,-100,4,2,1,45,0,0
14806,-100,4,2,1,60,0,0
15498,-100,4,2,1,40,0,0
15960,-100,4,2,1,40,0,0
16190,-200,4,2,1,60,0,0
16536,-200,4,2,0,40,0,0
16767,-200,4,2,0,50,0,0
16998,-200,4,2,0,60,0,0
17229,-200,4,2,0,70,0,0
17460,-100,4,2,1,80,0,0
17921,-100,4,2,0,90,0,1
18036,-100,4,2,1,80,0,0
31421,-100,4,2,1,60,0,0
32113,-100,4,1,1,80,0,0
32344,-100,4,2,1,80,0,0
33267,-100,4,2,2,80,0,0
33498,-100,4,2,1,80,0,0
36960,-100,4,2,2,80,0,0
37190,-100,4,2,1,80,0,0
38806,-100,4,2,2,80,0,0
39036,-100,4,2,1,80,0,0
44344,-100,4,2,2,80,0,0
44575,-100,4,2,1,80,0,0
46190,-100,4,2,2,80,0,0
46421,-100,4,2,1,80,0,0
47575,-100,4,2,2,80,0,0
47806,-100,4,2,1,80,0,0
49421,-100,4,2,2,80,0,0
49652,-100,4,2,1,80,0,0
51267,-100,4,2,2,80,0,0
51498,-100,4,2,1,80,0,0
53113,-100,4,2,2,80,0,0
53344,-100,4,2,1,80,0,0
60152,-100,4,2,1,60,0,0
60613,-100,4,2,1,80,0,0
61652,-100,4,2,1,100,0,0
62229,-100,4,2,1,100,0,1
62344,-100,4,2,1,100,0,0
66498,-100,4,2,2,100,0,0
66729,-100,4,2,1,100,0,0
75729,-100,4,2,2,100,0,0
75960,-100,4,2,1,100,0,0
76998,-100,4,2,1,100,0,1
77113,-100,4,2,1,100,0,0
84960,-100,4,2,2,100,0,0
85190,-100,4,2,1,100,0,0
87844,-100,4,2,1,100,0,0
90383,-100,4,2,1,50,0,0
91767,-100,4,2,1,100,0,1
91998,-100,4,2,1,100,0,0
98690,-100,4,2,1,80,0,0
107113,-100,4,2,2,80,0,0
107344,-100,4,2,1,80,0,0
110806,-100,4,2,2,80,0,0
111036,-100,4,2,1,80,0,0
112652,-100,4,2,2,80,0,0
112883,-100,4,2,1,80,0,0
132960,-100,4,2,2,80,0,0
133190,-100,4,2,1,80,0,0
135960,-100,4,2,1,100,0,0
136190,-100,4,2,1,40,0,0
136421,-200,4,2,1,100,0,0
137921,-100,4,2,1,100,0,1
138036,-100,4,2,1,100,0,0
156960,-100,4,2,2,100,0,0
157190,-100,4,2,1,100,0,0
167690,-100,4,2,1,80,0,0
180267,-100,4,2,1,60,0,0
180498,-100,4,2,1,80,0,0
181306,-133.333333333333,4,2,1,80,0,0
182229,-100,4,2,1,60,0,0
189152,-100,4,1,0,40,0,0
189729,-100,4,2,1,40,0,0
190190,-100,4,2,1,50,0,0
190421,-100,4,1,0,40,0,0
190652,-100,4,2,1,40,0,0
191113,-100,4,2,1,50,0,0
191344,-100,4,1,0,40,0,0
191575,-100,4,2,2,40,0,0
191806,-100,4,2,1,40,0,0
192267,-100,4,1,0,40,0,0
192498,-100,4,2,2,50,0,0
192729,-100,4,2,1,40,0,0
193190,-100,4,1,0,40,0,0
193421,-100,4,2,2,50,0,0
193652,-100,4,2,1,40,0,0
194113,-100,4,1,0,40,0,0
194344,-100,4,2,2,50,0,0
194575,-100,4,2,1,40,0,0
195152,-100,4,1,0,55,0,0
195498,-100,4,1,0,70,0,0
196075,-100,4,2,1,85,0,0
196998,-100,4,2,1,100,0,1
197113,-100,4,2,1,100,0,0
201267,-100,4,2,2,100,0,0
201498,-100,4,2,1,100,0,0
206806,-100,4,2,2,100,0,0
207036,-100,4,2,1,100,0,0
207960,-100,4,1,0,100,0,0
208190,-100,4,2,1,100,0,0
208883,-100,4,1,0,100,0,0
209113,-100,4,2,1,100,0,0
209806,-100,4,1,0,100,0,0
210036,-100,4,2,1,100,0,0
210729,-100,4,1,0,100,0,0
210960,-100,4,2,1,100,0,0
211652,-100,4,1,0,100,0,0
211883,-100,4,1,0,80,0,0
212113,-100,4,2,1,100,0,0
212344,-100,4,1,0,100,0,0
212575,-100,4,1,0,80,0,0
212806,-100,4,1,0,80,0,0
213036,-100,4,1,0,100,0,0
213267,-100,4,1,0,80,0,0
213498,-100,4,2,1,100,0,0

[Colours]
Combo1 : 98,98,98
Combo2 : 255,0,0
Combo3 : 128,0,255
Combo4 : 0,0,255
Combo5 : 255,255,255

[HitObjects]
368,32,383,53,0,0:0:0
440,96,844,1,0,0:0:0
448,192,1306,6,0,B|448:288|352:336,1,150,4|0,0:0|0:0,0:0:0
131,319,3152,2,0,B|64:288|64:192,1,150
256,32,4998,54,0,B|256:208,1,150
464,336,6844,2,0,B|368:208,1,150
138,216,8690,6,0,B|48:336,1,150
256,192,10536,2,0,B|256:368,1,150
448,192,12383,53,0,0:0:0
352,16,13306,1,0,0:0:0
256,192,14229,5,8,0:0:0
224,288,14690,1,12,0:0:0
128,320,15152,1,8,0:0:0
48,272,15613,1,0,0:0:0
36,172,16075,54,0,B|8:56|156:0|224:124|224:124|264:80|232:24,1,400,4|4,0:0|0:0,0:0:0
176,64,25306,22,0,B|112:176,1,99.9999999999999,0|8,0:0|0:0,0:0:0
32,160,26229,2,0,B|48:224|112:240,1,99.9999999999999,0|8,0:0|0:0,0:0:0
192,272,27152,2,0,B|288:320|288:224|384:272,2,200
240,176,29460,5,8,0:0:0
272,80,29921,2,0,B|336:64,3,50,0|8|8|4,0:0|0:0|0:0|0:0,0:0:0
416,48,31075,1,8,0:0:0
416,48,31306,2,0,B|448:176,1,99.9999999999999,8|0,0:0|0:0,0:0:0
464,240,32229,1,0,0:0:0
400,320,32690,5,4,0:0:0
304,336,33152,2,0,B|200:376|120:288,1,200,8|8,0:0|0:0,0:0:0
40,232,34536,2,0,B|56:168|120:136,1,99.9999999999999,0|8,0:0|0:0,0:0:0
144,128,35229,2,0,B|200:120|216:68|216:68|304:68,1,150,2|8,0:0|0:0,0:0:0
368,64,36383,38,0,B|416:160|336:240|272:176|316:80|416:152|400:256,1,300,0|8,0:0|0:0,0:0:0
440,340,38229,2,0,B|360:364|312:288|312:288|256:368|184:324,1,300,0|8,0:0|0:0,0:0:0
96,272,40075,5,0,0:0:0
64,176,40536,1,8,0:0:0
112,80,40998,2,0,B|160:16,2,50,0|0|8,0:0|0:0|0:0,0:0:0
160,176,41921,5,0,0:0:0
240,240,42383,1,8,0:0:0
336,256,42844,2,0,B|432:256,2,74.9999999999999,2|2|2,0:0|0:0|0:0,0:0:0
288,160,43998,37,0,0:0:0
288,160,44229,2,0,B|256:48,1,99.9999999999999,8|0,0:0|0:0,0:0:0
356,96,45152,2,0,B|388:192,1,99.9999999999999,8|0,0:0|0:0,0:0:0
448,112,46075,2,0,B|416:16,2,99.9999999999999,8|0|8,0:0|0:0|0:0,0:0:0
464,208,47460,6,0,B|464:320|336:352,1,200,4|0,0:0|0:0,0:0:0
256,304,48844,1,8,0:0:0
165,349,49306,2,0,B|48:320|48:208,1,200
64,112,50690,1,8,0:0:0
128,32,51152,6,0,B|176:80|160:144,1,99.9999999999999,0|8,0:0|0:0,0:0:0
256,80,52075,2,0,B|272:144|224:192,1,99.9999999999999,0|8,0:0|0:0,0:0:0
336,192,52998,2,0,B|320:256|256:272,1,99.9999999999999,0|8,0:0|0:0,0:0:0
192,304,53921,2,0,B|128:304,2,50,0|0|8,0:0|0:0|0:0,0:0:0
288,336,54844,37,0,0:0:0
384,336,55306,1,8,0:0:0
352,240,55767,1,0,0:0:0
448,208,56229,1,8,0:0:0
368,144,56690,1,0,0:0:0
416,48,57152,1,8,0:0:0
368,48,57383,2,0,B|160:48,1,200,2|2,0:0|0:0,0:0:0
112,48,58536,5,0,0:0:0
48,240,59460,1,0,0:0:0
224,336,60383,1,4,0:0:0
320,308,60844,1,8,0:0:0
404,256,61306,2,0,B|456:236|468:168,2,99.9999999999999,2|8|4,0:0|0:0|0:0,0:0:0
256,240,62921,6,0,B|112:160,1,150,2|8,0:0|0:0,0:0:0
48,112,64075,1,0,0:0:0
192,80,64767,2,0,B|352:64,1,150,2|8,0:0|0:0,0:0:0
448,48,65921,38,0,B|464:112|400:144|400:144|448:192|432:256|368:288|336:240,1,300,0|8,0:0|0:0,0:0:0
272,192,67767,1,0,0:0:0
144,112,68460,2,0,B|64:144|64:240,1,150,2|8,0:0|0:0,0:0:0
96,320,69613,6,0,B|128:352|176:352,2,74.9999999999999,0|0|2,0:0|0:0|0:0,0:0:0
168,256,70767,2,0,B|192:192,1,50,0|8,0:0|0:0,0:0:0
256,144,71460,2,0,B|224:112|176:112,2,74.9999999999999,0|0|2,0:0|0:0|0:0,0:0:0
320,224,72613,2,0,B|368:304,1,50,0|8,0:0|0:0,0:0:0
416,336,73306,5,0,0:0:0
440,240,73767,2,0,B|464:160,1,50,8|2,0:0|0:0,0:0:0
480,96,74460,1,0,0:0:0
400,48,74921,1,2,0:0:0
400,48,75152,2,0,B|300:48|300:48|308:104|264:144,1,200
204,64,76536,1,8,0:0:0
104,80,76998,38,0,B|24:128|56:240,1,150,4|2,0:0|0:0,0:0:0
128,272,78152,2,0,B|96:320,2,50,0|8|0,0:0|0:0|0:0,0:0:0
160,224,78844,2,0,B|208:160|304:192,2,150,0|2|8,0:0|0:0|0:0,0:0:0
240,272,80690,6,0,B|336:304|384:224,1,150,0|2,0:0|0:0,0:0:0
384,144,81844,2,0,B|416:144|448:160,2,50,0|8|0,0:0|0:0|0:0,0:0:0
336,144,82536,2,0,B|256:144|208:48,2,150,0|2|8,0:0|0:0|0:0,0:0:0
320,48,84383,6,0,B|316:92|280:152|224:176|168:156|128:108|72:132,1,300,0|8,0:0|0:0,0:0:0
28,144,85998,1,0,0:0:0
16,192,86229,2,0,B|16:288|96:320,1,150,0|2,0:0|0:0,0:0:0
176,336,87383,1,0,0:0:0
272,320,87844,38,0,B|320:288,1,50
400,240,88536,1,8,0:0:0
368,144,88998,2,8,B|416:112,2,50,0|8|8,0:0|0:0|0:0,0:0:0
256,192,89921,12,4,91767,0:0:0
80,64,99152,6,0,B|32:80|32:176|80:192,1,150,0|2,0:0|0:0,0:0:0
160,128,100306,1,0,0:0:0
256,128,100767,1,0,0:0:0
304,128,100998,6,0,B|400:128|400:256,1,150,0|2,0:0|0:0,0:0:0
352,224,101921,2,0,B|320:320|224:320,1,150
240,272,102844,2,0,B|160:240|160:128,1,150,0|2,0:0|0:0,0:0:0
336,48,104460,37,8,0:0:0
416,96,104921,1,8,0:0:0
416,96,105152,2,0,B|448:160,1,50,8|8,0:0|0:0,0:0:0
432,240,105844,2,0,B|384:272,1,50,4|8,0:0|0:0,0:0:0
304,304,106536,6,0,B|256:336|208:304|208:304|176:256|208:208|208:208|272:208|272:144,1,300,4|8,0:0|0:0,0:0:0
272,48,108383,2,0,B|208:48|176:112,1,99.9999999999999,0|8,0:0|0:0,0:0:0
96,64,109306,2,0,B|48:112|80:192,1,99.9999999999999,0|8,0:0|0:0,0:0:0
64,256,110229,6,0,B|176:304|176:304|192:360|248:376|304:336|296:272|248:240,1,300,0|8,0:0|0:0,0:0:0
240,184,112075,2,0,B|208:136|224:72|280:24|336:24|384:64,1,250
416,80,113460,1,8,0:0:0
464,112,113690,2,0,B|496:160|480:240,2,99.9999999999999,0|0|2,0:0|0:0|0:0,0:0:0
384,176,115075,38,0,B|336:192,1,50,0|8,0:0|0:0,0:0:0
400,272,115767,2,0,B|240:320,1,150,0|2,0:0|0:0,0:0:0
224,288,116690,2,0,B|64:336,1,150
64,240,117844,6,0,B|16:256,2,50,0|8|2,0:0|0:0|0:0,0:0:0
112,224,118536,1,0,0:0:0
192,176,118998,1,8,0:0:0
240,80,119460,2,0,B|272:32|336:32|368:80,1,150,0|2,0:0|0:0,0:0:0
432,144,120613,2,0,B|480:112,2,50,0|8|0,0:0|0:0|0:0,0:0:0
384,176,121306,5,4,0:0:0
304,240,121767,1,8,0:0:0
368,320,122229,1,0,0:0:0
448,256,122690,1,8,0:0:0
384,176,123152,38,0,B|280:40,1,150,0|2,0:0|0:0,0:0:0
216,120,124306,2,0,B|184:48|96:48,1,150,0|0,0:0|0:0,0:0:0
32,128,125460,1,8,0:0:0
112,192,125921,1,0,0:0:0
32,256,126383,1,8,0:0:0
112,320,126844,6,0,B|176:304,1,50
256,320,127536,2,0,B|416:288,1,150,2|8,0:0|0:0,0:0:0
448,304,128460,2,0,B|496:240|464:160,1,150,0|8,0:0|0:0,0:0:0
400,80,129613,6,0,B|336:64,3,50,0|0|8|0,0:0|0:0|0:0|0:0,0:0:0
304,48,130536,2,0,B|208:16|176:112,1,150,0|2,0:0|0:0,0:0:0
272,144,131690,1,0,0:0:0
352,192,132152,38,0,B|352:240|320:240|320:240|288:240|288:272|288:272|288:304|256:304|256:304|256:344|224:356|192:344|192:304|192:304|160:304|160:272|160:272|160:240|128:240|128:240|96:240|96:192,1,450
96,96,134690,1,8,0:0:0
192,48,135152,2,0,B|240:16|288:16|336:64,1,150
368,96,136075,2,0,B|400:128|448:128,2,50,8|8|4,0:0|0:0|0:0,0:0:0
144,304,137921,6,0,B|64:336,2,74.9999999999999,4|0|2,0:0|0:0|0:0,0:0:0
240,272,139075,2,0,B|224:336,2,50,0|8|0,0:0|0:0|0:0,0:0:0
256,224,139767,2,0,B|272:176|240:144,2,74.9999999999999,0|0|2,0:0|0:0|0:0,0:0:0
160,192,140921,1,0,0:0:0
64,176,141383,6,0,B|96:112,1,50
128,48,142075,2,0,B|240:28|312:112,1,200,8|2,0:0|0:0,0:0:0
336,148,143229,1,0,0:0:0
360,192,143460,2,0,B|400:276|488:272,2,150,0|2|8,0:0|0:0|0:0,0:0:0
460,188,145306,38,0,B|320:324,1,150,0|2,0:0|0:0,0:0:0
256,320,146460,2,0,B|304:368,2,50,0|8|0,0:0|0:0|0:0,0:0:0
220,284,147152,2,0,B|156:236|172:140,1,150,0|2,0:0|0:0,0:0:0
192,52,148306,1,0,0:0:0
288,32,148767,6,0,B|336:48,1,50
432,80,149460,2,0,B|368:128,1,50,8|2,0:0|0:0,0:0:0
304,144,150152,2,0,B|336:208,1,50,0|8,0:0|0:0,0:0:0
416,224,150844,2,0,B|384:320|384:320|352:256|252:248|208:300,1,300,0|8,0:0|0:0,0:0:0
180,332,152460,1,8,0:0:0
136,356,152690,6,0,B|72:372|24:308,1,99.9999999999999,4|8,0:0|0:0,0:0:0
32,232,153613,2,0,B|80:200|144:232,1,99.9999999999999,0|8,0:0|0:0,0:0:0
228,224,154536,2,0,B|308:208|340:96,2,150,0|2|8,0:0|0:0|0:0,0:0:0
232,124,156383,38,0,B|224:60|280:4|384:4|440:60|424:132,1,300,0|8,0:0|0:0,0:0:0
424,164,157998,1,0,0:0:0
416,212,158229,2,0,B|400:284|304:308,1,150,0|2,0:0|0:0,0:0:0
160,292,159613,6,0,B|144:340,2,50,8|0|0,0:0|0:0|0:0,0:0:0
192,144,160767,2,0,B|224:64|320:64,1,150,2|8,0:0|0:0,0:0:0
404,96,161921,5,0,0:0:0
448,240,162613,2,0,B|432:320|336:352,1,150,2|8,0:0|0:0,0:0:0
304,352,163536,38,0,B|240:352,2,50
304,256,164460,2,0,B|384:232,2,50,0|8|8,0:0|0:0|0:0,0:0:0
208,272,165383,2,0,B|144:288,1,50,0|4,0:0|0:0,0:0:0
64,272,166075,1,4,0:0:0
48,176,166536,1,4,0:0:0
96,96,166998,2,0,B|80:32,2,50,8|8|4,0:0|0:0|0:0,0:0:0
144,176,167921,38,0,B|192:240|280:216|304:144,1,200,8|8,0:0|0:0,0:0:0
352,64,169306,1,0,0:0:0
432,128,169767,2,0,B|488:168|472:272|400:288,1,200,8|8,0:0|0:0,0:0:0
304,312,171152,1,0,0:0:0
208,328,171613,2,0,B|112:360|112:360|96:288|16:288,1,200,8|8,0:0|0:0,0:0:0
128,224,172998,6,0,B|192:176|176:80,1,150,0|2,0:0|0:0,0:0:0
128,64,173921,2,0,B|176:0|304:48,1,150
352,80,175075,1,0,0:0:0
416,160,175536,1,2,0:0:0
416,160,175767,2,0,B|480:208|432:320,1,150
416,336,176690,2,0,B|256:320,1,150,0|2,0:0|0:0,0:0:0
64,288,178306,54,0,B|32:336,2,50
96,240,178998,2,0,B|128:160|224:160,1,150,8|0,0:0|0:0,0:0:0
256,160,179921,2,0,B|336:160,2,50,8|0|4,0:0|0:0|0:0,0:0:0
224,256,180844,1,8,0:0:0
320,272,181306,6,0,B|416:288|432:176,1,150.000005722046,0|4,0:0|0:0,0:0:0
48,48,189613,54,0,B|48:144|128:176,1,150,0|2,0:0|0:0,0:0:0
112,224,190536,2,0,B|176:288|256:224,1,150,0|2,0:0|0:0,0:0:0
240,176,191460,2,0,B|288:112|384:128,1,150,0|0,0:0|0:0,0:0:0
400,80,192383,6,0,B|480:128|464:240,1,150
416,224,193306,2,0,B|432:304|336:352,1,150
320,304,194229,2,0,B|256:240|160:304,1,150
144,320,195152,2,0,B|112:360|48:352,2,99.9999999999999
64,256,196536,1,8,0:0:0
48,160,196998,6,0,B|80:112,1,50,4|0,0:0|0:0,0:0:0
144,48,197690,2,0,B|256:48|256:48|272:144|368:144,1,250,2|0,0:0|0:0,0:0:0
448,160,199306,1,8,0:0:0
448,160,199536,2,0,B|440:228|400:304|336:324|276:308,1,250,2|0,0:0|0:0,0:0:0
240,288,200921,5,0,0:0:0
200,260,201152,2,0,B|152:212|152:212|136:132|200:84,1,200,8|8,0:0|0:0,0:0:0
272,48,202536,2,0,B|336:16|432:64,2,150,0|2|8,0:0|0:0|0:0,0:0:0
240,80,204152,5,0,0:0:0
224,128,204383,2,0,B|192:208|256:288,1,150,0|2,0:0|0:0,0:0:0
336,304,205536,2,0,B|400:272,2,50,0|8|0,0:0|0:0|0:0,0:0:0
288,336,206229,2,0,B|224:368|224:368|160:368|112:320|112:240,1,250
48,176,207844,38,0,B|128:176,1,50
192,176,208536,1,8,0:0:0
208,272,208998,1,0,0:0:0
272,192,209460,1,8,0:0:0
336,272,209921,1,0,0:0:0
352,176,210383,1,8,0:0:0
448,176,210844,1,0,0:0:0
384,96,211306,1,8,0:0:0
288,48,211767,6,0,B|240:96,1,50
160,64,212460,2,0,B|176:128,1,50
80,160,213152,2,0,B|144:208,1,50
160,224,213613,5,4,0:0:0
240,288,214075,1,4,0:0:0
336,288,214536,1,4,0:0:0
416,240,214998,2,0,B|464:192,2,50,8|8|4,0:0|0:0|0:0,0:0:0
