osu file format v10

[General]
AudioFilename: perfume - .mp3
AudioLeadIn: 2007
PreviewTime: 61306
Countdown: 0
SampleSet: Soft
StackLeniency: 0.7
Mode: 0
LetterboxInBreaks: 0
EpilepsyWarning: 1

[Editor]
DistanceSpacing: 1.4
BeatDivisor: 4
GridSize: 4

[Metadata]
Title:Unnatural Girl
TitleUnicode:
Artist:Perfume
ArtistUnicode:
Creator:Breeze
Version:Insane
Source:
Tags:Oomoto Ayano Nocchi Kashino Yuka Kashiyuka Nishiwaki Ayaka A-chan
BeatmapID:175461
BeatmapSetID:58119

[Difficulty]
HPDrainRate:6
CircleSize:4
OverallDifficulty:7
ApproachRate:8
SliderMultiplier:1.7
SliderTickRate:2

[Events]
//Background and Video events
0,0,"bg.jpg"
//Break Periods
2,18120,24556
2,91967,98402
2,182428,188863
//Storyboard Layer 0 (Background)
//Storyboard Layer 1 (Fail)
//Storyboard Layer 2 (Pass)
//Storyboard Layer 3 (Foreground)
//Storyboard Sound Samples
//Background Colour Transformations
3,100,0,0,0

[TimingPoints]
-540,461.538461538462,4,2,1,60,1,0
13883,-100,4,2,1,100,0,0
14113,-100,4,2,1,60,0,0
14344,-100,4,2,1,40,0,0
14575,-100,4,2,1,45,0,0
14806,-100,4,2,1,60,0,0
15498,-100,4,2,1,40,0,0
15960,-200,4,2,1,40,0,0
16190,-200,4,2,1,60,0,0
16536,-200,4,2,0,40,0,0
16767,-200,4,2,0,50,0,0
16998,-200,4,2,0,60,0,0
17229,-200,4,2,0,70,0,0
17460,-100,4,2,1,80,0,0
17690,-100,4,2,1,50,0,0
17921,-100,4,2,0,90,0,1
18036,-100,4,2,1,80,0,0
31421,-100,4,2,1,60,0,0
31883,-100,4,2,1,80,0,0
32113,-100,4,1,1,80,0,0
32344,-100,4,2,1,80,0,0
35575,-100,4,2,1,20,0,0
35690,-100,4,2,1,80,0,0
36036,-100,4,2,1,20,0,0
36152,-100,4,2,1,80,0,0
36498,-100,4,2,1,20,0,0
36613,-100,4,2,1,80,0,0
60036,-100,4,2,1,60,0,0
60383,-100,4,2,1,50,0,0
60729,-100,4,2,1,80,0,0
61652,-100,4,2,1,100,0,0
62229,-100,4,2,1,100,0,1
62344,-100,4,2,1,100,0,0
65113,-100,4,2,1,60,0,0
65460,-100,4,2,1,100,0,0
72729,-100,4,2,1,60,0,0
72844,-100,4,2,1,100,0,0
72960,-100,4,2,1,60,0,0
73075,-100,4,2,1,100,0,0
76998,-100,4,2,1,100,0,1
77113,-100,4,2,1,100,0,0
79883,-100,4,2,1,60,0,0
80229,-100,4,2,1,100,0,0
81498,-100,4,2,1,50,0,0
81844,-100,4,2,1,100,0,0
87498,-100,4,2,1,60,0,0
87613,-100,4,2,1,100,0,0
87729,-100,4,2,1,60,0,0
87844,-100,4,2,1,100,0,0
89113,-100,4,2,1,70,0,0
89344,-100,4,2,1,100,0,0
91190,-100,4,2,1,100,0,0
91421,-100,4,2,1,80,0,0
91652,-100,4,2,1,100,0,0
91767,-100,4,2,1,100,0,1
91998,-100,4,2,1,100,0,0
98690,-100,4,2,1,80,0,0
102036,-100,4,2,1,20,0,0
102267,-100,4,2,1,80,0,0
102383,-100,4,2,1,80,0,0
102613,-100,4,2,1,80,0,0
105036,-100,4,2,1,60,0,0
105613,-100,4,2,1,80,0,0
105844,-100,4,2,1,60,0,0
105960,-100,4,2,1,80,0,0
135960,-100,4,2,1,80,0,0
136190,-100,4,2,1,40,0,0
136421,-200,4,2,1,100,0,0
136767,-200,4,2,1,35,0,0
136998,-200,4,2,1,30,0,0
137229,-200,4,2,1,65,0,0
137460,-100,4,2,1,80,0,0
137921,-100,4,2,1,100,0,1
138036,-100,4,2,1,100,0,0
140806,-100,4,2,1,60,0,0
141152,-100,4,2,1,100,0,0
164575,-100,4,2,1,80,0,0
166652,-100,4,2,1,60,0,0
167113,-100,4,2,1,80,0,0
167690,-100,4,2,1,80,0,0
177729,-100,4,2,1,20,0,0
177960,-100,4,2,1,80,0,0
178075,-100,4,2,1,20,0,0
178306,-100,4,2,1,80,0,0
180267,-100,4,2,1,60,0,0
180498,-100,4,2,1,80,0,0
181306,-133.333333333333,4,2,1,80,0,0
182229,-100,4,2,1,60,0,0
189152,-100,4,1,0,40,0,0
189729,-100,4,2,1,40,0,0
189960,-100,4,2,1,30,0,0
190190,-100,4,2,1,40,0,0
190421,-100,4,1,0,40,0,0
190652,-100,4,2,1,40,0,0
190883,-100,4,2,1,30,0,0
191113,-100,4,2,1,40,0,0
191344,-100,4,1,0,40,0,0
191575,-100,4,2,1,40,0,0
191806,-100,4,2,1,30,0,0
192036,-100,4,2,1,40,0,0
192267,-100,4,1,0,40,0,0
192498,-100,4,2,1,40,0,0
192729,-100,4,2,1,30,0,0
192960,-100,4,2,1,40,0,0
193190,-100,4,1,0,40,0,0
193421,-100,4,2,1,40,0,0
194113,-100,4,1,0,40,0,0
194344,-100,4,2,1,40,0,0
195152,-100,4,1,0,80,0,0
195383,-100,4,2,1,70,0,0
195498,-100,4,1,0,70,0,0
195729,-100,4,2,1,70,0,0
196075,-100,4,2,1,85,0,0
196998,-100,4,2,1,100,0,1
197113,-100,4,2,1,100,0,0
199883,-100,4,2,1,60,0,0
200229,-100,4,2,1,100,0,0
207960,-100,4,1,0,100,0,0
208190,-100,4,2,1,100,0,0
208883,-100,4,1,0,100,0,0
209113,-100,4,2,1,100,0,0
209806,-100,4,1,0,100,0,0
210036,-100,4,2,1,100,0,0
210729,-100,4,1,0,100,0,0
210960,-100,4,2,1,100,0,0
211652,-100,4,1,0,100,0,0
211883,-100,4,1,0,80,0,0
212113,-100,4,2,1,100,0,0
212344,-100,4,1,0,100,0,0
212575,-100,4,1,0,80,0,0
212806,-100,4,2,1,100,0,0
213036,-100,4,1,0,100,0,0
213267,-100,4,1,0,80,0,0
213498,-100,4,2,1,100,0,0
214190,-100,4,2,1,80,0,0
214536,-100,4,2,1,100,0,0
215113,-100,4,2,1,80,0,0
215460,-100,4,2,1,100,0,0

[Colours]
Combo1 : 98,98,98
Combo2 : 255,0,0
Combo3 : 128,0,255
Combo4 : 0,0,255
Combo5 : 255,255,255

[HitObjects]
256,192,383,53,0,0:0:0
332,88,729,1,0,0:0:0
332,88,844,2,0,B|396:76|444:164|400:224,1,170,0|4,0:0|0:0,0:0:0
168,340,1998,2,0,B|96:368|20:344|8:252|68:180,1,255
168,68,3152,6,0,B|268:52|268:52|208:128|268:192,1,255
316,128,4998,2,0,B|376:192|316:268|316:268|416:252,1,255
448,320,6844,2,0,B|308:344,1,127.5
204,244,7536,2,0,B|180:192|180:116|216:64|264:48,1,212.5
300,40,8229,2,0,B|344:28|384:60,2,85
324,132,8921,54,0,B|404:284,1,170,2|0,0:0|0:0,0:0:0
244,348,9844,2,0,B|164:197,1,170,2|0,0:0|0:0,0:0:0
172,28,10767,2,0,B|252:180,1,170,2|0,0:0|0:0,0:0:0
104,260,11690,2,0,B|24:109,1,170,2|2,0:0|0:0,0:0:0
76,40,12383,5,0,0:0:0
120,116,12613,1,0,0:0:0
160,188,12844,1,0,0:0:0
200,264,13075,2,0,B|200:316|140:340,2,85,2|0|0,0:0|0:0|0:0,0:0:0
244,192,13767,1,0,0:0:0
304,132,13998,1,0,0:0:0
380,92,14229,53,8,0:0:0
488,156,14460,1,8,0:0:0
412,256,14690,2,0,B|348:180,1,85,12|0,0:0|0:0,0:0:0
360,312,15152,2,0,B|300:236,1,85,8|0,0:0|0:0,0:0:0
300,364,15613,2,0,B|240:280,1,85
164,296,16075,6,0,B|113:319|50:269|52:189|103:165,1,212.5,4|0,0:0|0:0,0:0:0
224,188,17460,53,8,0:0:0
224,188,17575,1,8,0:0:0
224,188,17690,2,0,B|147:223,1,85,8|4,0:0|0:0,0:0:0
256,48,25306,22,0,B|404:88,1,127.5
420,92,25767,1,8,0:0:0
468,160,25998,2,0,B|360:192,1,85,2|0,0:0|0:0,0:0:0
304,204,26460,2,0,B|208:204,2,85,0|8|0,0:0|0:0|0:0,0:0:0
412,268,27152,5,0,0:0:0
376,344,27383,1,0,0:0:0
376,344,27498,2,0,B|228:344,1,127.5,0|2,0:0|0:0,0:0:0
164,344,28075,2,0,B|96:344|60:276,2,127.5
144,260,28998,6,0,B|200:204|144:128,1,127.5
136,104,29460,1,8,0:0:0
60,68,29690,2,0,B|72:16|156:-4|200:44,1,170,2|8,0:0|0:0,0:0:0
264,100,30383,1,8,0:0:0
308,172,30613,1,4,0:0:0
460,92,31075,37,8,0:0:0
412,164,31306,1,8,0:0:0
364,236,31536,1,8,0:0:0
364,236,31652,1,8,0:0:0
364,236,31767,2,0,B|304:320,1,85,8|8,0:0|0:0,0:0:0
240,344,32229,1,0,0:0:0
160,320,32460,1,0,0:0:0
220,260,32690,1,4,0:0:0
260,184,32921,6,0,B|280:136|240:100,2,85,0|8|2,0:0|0:0|0:0,0:0:0
180,160,33613,2,0,B|132:176|140:240,1,85
28,332,34075,2,0,B|72:304|64:252,1,85,8|0,0:0|0:0,0:0:0
60,176,34536,2,0,B|60:128|100:76|160:76,1,127.5
172,68,34998,1,8,0:0:0
256,48,35229,2,0,B|396:56,1,127.5,2|0,0:0|0:0,0:0:0
404,92,35690,2,0,B|276:124,1,127.5
252,156,36152,2,0,B|384:220,1,127.5
404,228,36613,5,0,0:0:0
464,288,36844,1,8,0:0:0
396,344,37075,1,2,0:0:0
312,328,37306,2,0,B|220:296,1,85
72,332,37767,2,0,B|164:300,1,85,8|0,0:0|0:0,0:0:0
200,232,38229,2,0,B|264:188|244:116,1,127.5
232,80,38690,1,8,0:0:0
160,36,38921,1,2,0:0:0
76,48,39152,37,0,0:0:0
72,64,39267,1,0,0:0:0
68,80,39383,1,0,0:0:0
64,96,39498,1,0,0:0:0
60,112,39613,1,8,0:0:0
56,128,39729,1,0,0:0:0
52,144,39844,2,0,B|32:212|32:212|88:204|120:268,1,170
160,328,40536,5,8,0:0:0
76,348,40767,1,2,0:0:0
160,328,40998,2,0,B|252:300,1,85
324,328,41460,2,0,B|416:300,1,85,8|0,0:0|0:0,0:0:0
464,240,41921,2,0,B|488:168|424:112,1,127.5
448,84,42383,2,0,B|332:68,1,85,8|2,0:0|0:0,0:0:0
280,52,42844,5,0,0:0:0
80,208,43190,1,0,0:0:0
312,312,43536,1,0,0:0:0
376,264,43767,38,0,B|392:180,1,85
328,112,44229,2,0,B|312:196,1,85,8|2,0:0|0:0,0:0:0
224,248,44690,2,0,B|240:164,1,85
180,72,45152,2,0,B|164:156,1,85,8|0,0:0|0:0,0:0:0
148,240,45613,6,0,B|130:298|28:304|4:240,1,170,0|8,0:0|0:0,0:0:0
76,200,46306,2,0,B|68:256|92:328|148:344,1,170,2|8,0:0|0:0,0:0:0
160,348,46883,1,0,0:0:0
176,352,46998,1,8,0:0:0
192,352,47113,1,0,0:0:0
208,348,47229,2,0,B|256:340|280:288,1,85,8|4,0:0|0:0,0:0:0
356,272,47690,5,0,0:0:0
424,224,47921,1,8,0:0:0
440,140,48152,1,2,0:0:0
372,92,48383,2,0,B|300:24,1,85
160,120,48844,2,0,B|248:200,1,85,8|0,0:0|0:0,0:0:0
317,150,49306,2,0,B|192:36,1,170,0|8,0:0|0:0,0:0:0
60,140,49998,2,0,B|204:276,1,170,2|0,0:0|0:0,0:0:0
252,308,50690,1,8,0:0:0
172,340,50921,1,0,0:0:0
252,308,51152,1,0,0:0:0
388,316,51383,37,0,0:0:0
468,348,51613,1,8,0:0:0
388,316,51844,1,2,0:0:0
340,248,52075,5,0,0:0:0
304,172,52306,1,0,0:0:0
136,140,52536,5,8,0:0:0
216,112,52767,1,0,0:0:0
388,104,52998,38,0,B|268:48,1,127.5
232,36,53460,1,8,0:0:0
148,40,53690,2,0,B|64:72,1,85,2|0,0:0|0:0,0:0:0
56,84,54036,1,0,0:0:0
44,96,54152,1,0,0:0:0
36,112,54267,1,0,0:0:0
28,128,54383,1,8,0:0:0
24,144,54498,1,0,0:0:0
24,160,54613,2,0,B|16:196|24:236|44:268|68:296|104:308,1,170
176,320,55306,5,8,0:0:0
260,308,55536,1,2,0:0:0
336,272,55767,2,0,B|376:240|372:172,1,85
456,204,56229,2,0,B|456:152|392:112,1,85,8|0,0:0|0:0,0:0:0
468,64,56690,2,0,B|436:32|376:40|344:84,1,127.5
324,104,57152,1,8,0:0:0
256,52,57383,2,0,B|208:68|192:116,1,85,2|0,0:0|0:0,0:0:0
124,60,57844,2,0,B|100:108|136:176,1,85,0|8,0:0|0:0,0:0:0
144,312,58306,6,0,B|200:304|224:236,1,85
376,304,58767,2,0,B|368:248|300:224,1,85,0|8,0:0|0:0,0:0:0
368,72,59229,2,0,B|312:80|288:148,1,85,2|0,0:0|0:0,0:0:0
136,80,59690,2,0,B|144:136|212:160,1,85,0|8,0:0|0:0,0:0:0
256,192,60152,37,8,0:0:0
256,192,60267,1,8,0:0:0
256,192,60383,2,0,B|360:192,1,85,8|8,0:0|0:0,0:0:0
412,148,60844,2,0,B|456:180|476:240|432:304,1,170,8|0,0:0|0:0,0:0:0
360,340,61536,1,2,0:0:0
276,348,61767,2,0,B|92:348,1,170,8|4,0:0|0:0,0:0:0
56,204,62575,6,0,B|76:152,1,42.5,0|8,0:0|0:0,0:0:0
40,68,62921,2,0,B|80:40|148:36|216:104,1,170,2|0,0:0|0:0,0:0:0
276,148,63613,1,8,0:0:0
368,100,63844,1,0,0:0:0
448,40,64075,2,0,B|484:72|496:128|468:192,1,127.5
460,204,64536,1,8,0:0:0
412,292,64767,1,2,0:0:0
316,328,64998,1,0,0:0:0
296,332,65113,1,0,0:0:0
276,336,65229,1,0,0:0:0
256,340,65344,1,0,0:0:0
236,344,65460,6,0,B|144:344,1,85,8|0,0:0|0:0,0:0:0
36,268,65921,2,0,B|132:268,1,85
256,248,66383,2,0,B|388:212,2,127.5,8|2|0,0:0|0:0|0:0,0:0:0
136,184,67306,2,0,B|36:160,1,85,8|0,0:0|0:0,0:0:0
180,112,67767,2,0,B|224:52|312:52,1,127.5
356,56,68229,1,8,0:0:0
472,124,68460,2,0,B|496:168|488:252|436:284,1,170,2|0,0:0|0:0,0:0:0
420,276,69036,37,0,0:0:0
416,296,69152,2,0,B|392:336|336:348,1,85,8|0,0:0|0:0,0:0:0
248,336,69613,1,0,0:0:0
148,316,69844,2,0,B|172:248,1,42.5
60,280,70190,1,0,0:0:0
60,280,70306,2,0,B|112:112,1,170,2|0,0:0|0:0,0:0:0
36,48,70998,5,8,0:0:0
36,48,71113,1,0,0:0:0
36,48,71229,2,0,B|160:36,1,85
172,36,71575,1,0,0:0:0
276,36,71806,1,0,0:0:0
328,36,71921,2,0,B|424:52,1,85,8|2,0:0|0:0,0:0:0
468,136,72383,1,0,0:0:0
452,236,72613,2,0,B|432:288,3,42.5,0|0|8|0,0:0|0:0|0:0|0:0,0:0:0
408,320,73075,6,0,B|324:304,1,85
104,320,73536,2,0,B|188:304,1,85,0|8,0:0|0:0,0:0:0
364,220,73998,2,0,B|292:160,1,85,2|0,0:0|0:0,0:0:0
148,220,74460,2,0,B|220:160,1,85,0|8,0:0|0:0,0:0:0
360,108,74921,1,0,0:0:0
360,108,75036,1,0,0:0:0
360,108,75152,2,0,B|304:20,1,85
256,120,75613,1,8,0:0:0
197,36,75844,37,10,0:0:0
197,36,75960,1,8,0:0:0
197,36,76075,2,0,B|132:64|120:136,1,127.5
72,112,76536,2,0,B|28:144|20:232|88:280,1,170,8|4,0:0|0:0,0:0:0
200,344,77344,2,0,B|256:336,1,42.5,0|8,0:0|0:0,0:0:0
344,336,77690,2,0,B|404:328|456:272|432:204,1,170,2|0,0:0|0:0,0:0:0
428,112,78383,1,8,0:0:0
360,40,78613,1,0,0:0:0
256,40,78844,5,0,0:0:0
128,260,79190,1,0,0:0:0
384,260,79536,1,2,0:0:0
328,152,79767,6,0,B|368:100,4,42.5,0|0|0|0|8,0:0|0:0|0:0|0:0|0:0,0:0:0
256,224,80460,1,0,0:0:0
184,152,80690,1,0,0:0:0
256,224,80921,1,0,0:0:0
260,328,81152,1,8,0:0:0
256,224,81383,1,2,0:0:0
256,224,81498,2,0,B|348:128,1,127.5
432,184,82075,2,0,B|408:96,1,85,8|0,0:0|0:0,0:0:0
488,36,82536,2,0,B|344:28,1,127.5
308,28,82998,1,8,0:0:0
208,32,83229,2,0,B|156:32|96:48|64:108,1,170,2|0,0:0|0:0,0:0:0
80,136,83806,37,0,0:0:0
56,160,83921,2,0,B|40:268,1,85,8|0,0:0|0:0,0:0:0
80,340,84383,1,0,0:0:0
232,324,84729,1,0,0:0:0
384,304,85075,2,0,B|416:116,1,170,2|0,0:0|0:0,0:0:0
440,36,85767,2,0,B|500:24,2,42.5,8|0|0,0:0|0:0|0:0,0:0:0
340,56,86229,1,0,0:0:0
188,80,86575,1,0,0:0:0
36,108,86921,2,0,B|24:276,1,170,2|0,0:0|0:0,0:0:0
52,320,87498,2,0,B|96:328,3,42.5,0|8|0|0,0:0|0:0|0:0|0:0,0:0:0
192,304,88075,5,0,0:0:0
284,348,88306,1,0,0:0:0
252,252,88536,1,8,0:0:0
136,228,88767,1,0,0:0:0
300,188,88998,1,8,0:0:0
436,200,89229,1,8,0:0:0
328,116,89460,1,8,0:0:0
180,76,89690,1,8,0:0:0
348,40,89921,2,0,B|448:32,2,85,4|0|8,0:0|0:0|0:0,0:0:0
256,100,90613,5,8,0:0:0
144,308,90844,1,8,0:0:0
360,212,91075,1,8,0:0:0
124,168,91306,1,2,0:0:0
284,340,91536,1,8,0:0:0
284,340,91652,1,8,0:0:0
284,340,91767,1,4,0:0:0
436,64,99152,38,0,B|432:136|332:184,1,127.5
328,180,99613,1,8,0:0:0
316,96,99844,2,0,B|256:104|220:176|264:240,1,170,2|0,0:0|0:0,0:0:0
372,356,100767,5,0,0:0:0
352,272,100998,2,0,B|308:272|304:308|300:340|248:340,1,127.5
212,336,101460,1,8,0:0:0
136,296,101690,1,2,0:0:0
76,236,101921,2,0,B|32:180|84:120,1,127.5
112,88,102383,1,8,0:0:0
188,48,102613,1,2,0:0:0
188,48,102729,1,2,0:0:0
188,48,102844,5,0,0:0:0
340,32,103190,1,0,0:0:0
464,124,103536,2,0,B|456:188|456:188|416:188|372:224|376:280,1,170,2|0,0:0|0:0,0:0:0
460,272,104229,1,8,0:0:0
392,328,104460,37,8,0:0:0
392,328,104575,1,8,0:0:0
392,328,104690,2,0,B|352:356|304:340,1,85,8|8,0:0|0:0,0:0:0
228,324,105152,1,8,0:0:0
212,320,105267,1,8,0:0:0
196,316,105383,1,8,0:0:0
180,312,105498,1,8,0:0:0
164,308,105613,1,2,0:0:0
148,304,105729,1,2,0:0:0
132,300,105844,2,0,B|44:276,1,85,4|8,0:0|0:0,0:0:0
44,192,106306,2,0,B|36:144,2,42.5,8|8|4,0:0|0:0|0:0,0:0:0
176,164,106767,5,2,0:0:0
256,140,106998,1,8,0:0:0
336,116,107229,1,0,0:0:0
420,96,107460,2,0,B|400:200,1,85
488,180,107921,2,0,B|424:276,1,85,8|0,0:0|0:0,0:0:0
488,320,108383,2,0,B|336:328,1,127.5
320,328,108844,2,0,B|204:332,1,85,8|2,0:0|0:0,0:0:0
88,328,109306,2,0,B|188:280,1,85
304,248,109767,2,0,B|208:228,1,85,8|0,0:0|0:0,0:0:0
76,232,110229,6,0,B|140:136,1,85
64,100,110690,2,0,B|180:72,1,85,8|2,0:0|0:0,0:0:0
220,40,111152,37,0,0:0:0
304,56,111383,1,0,0:0:0
436,116,111613,5,8,0:0:0
352,140,111844,1,0,0:0:0
216,192,112075,6,0,B|168:256|228:332,1,127.5
244,340,112536,1,8,0:0:0
328,340,112767,2,0,B|416:340,1,85,2|0,0:0|0:0,0:0:0
428,332,113113,1,0,0:0:0
440,320,113229,1,0,0:0:0
448,304,113344,1,0,0:0:0
452,288,113460,1,8,0:0:0
456,272,113575,1,0,0:0:0
456,256,113690,2,0,B|456:200|408:140|352:140,1,170
356,224,114383,38,0,B|304:224|272:168,1,85,8|2,0:0|0:0,0:0:0
344,44,114844,2,0,B|292:56|276:108,1,85
136,44,115306,2,0,B|148:96|200:112,1,85,8|0,0:0|0:0,0:0:0
140,252,115767,2,0,B|208:248|228:168,2,127.5,0|0|2,0:0|0:0|0:0,0:0:0
144,168,116690,2,0,B|88:124|24:152,2,127.5
76,220,117613,1,0,0:0:0
72,304,117844,6,0,B|64:352|8:376,2,85,0|8|2,0:0|0:0|0:0,0:0:0
148,344,118536,2,0,B|252:300,1,85
308,340,118998,2,0,B|412:296,1,85,8|0,0:0|0:0,0:0:0
464,344,119460,2,0,B|504:292|444:204|376:216,1,170,0|8,0:0|0:0,0:0:0
316,224,120152,2,0,B|264:232|192:184|208:120,1,170,2|0,0:0|0:0,0:0:0
208,108,120729,1,0,0:0:0
212,92,120844,1,8,0:0:0
224,80,120960,1,0,0:0:0
236,68,121075,2,0,B|276:32|324:64,1,85,0|4,0:0|0:0,0:0:0
384,108,121536,5,0,0:0:0
416,188,121767,1,8,0:0:0
388,268,121998,1,2,0:0:0
304,352,122229,2,0,B|264:324|268:260,1,85
160,328,122690,2,0,B|148:264|208:224,1,85,8|0,0:0|0:0,0:0:0
64,220,123152,2,0,B|96:144|172:144,1,127.5
216,144,123613,1,8,0:0:0
332,164,123844,2,0,B|380:192|432:184|464:136|456:80|420:48|364:44,1,255,2|8,0:0|0:0,0:0:0
284,40,124767,1,0,0:0:0
200,56,124998,1,0,0:0:0
116,80,125229,37,0,0:0:0
64,148,125460,1,8,0:0:0
56,232,125690,1,2,0:0:0
144,336,125921,5,0,0:0:0
156,252,126152,1,0,0:0:0
236,140,126383,5,8,0:0:0
256,224,126613,1,0,0:0:0
304,352,126844,37,0,0:0:0
440,200,127190,1,0,0:0:0
316,40,127536,1,2,0:0:0
232,52,127767,2,0,B|184:60,5,42.5,0|0|0|0|8|0,0:0|0:0|0:0|0:0|0:0|0:0,0:0:0
156,36,128460,2,0,B|96:44|60:96|64:152,1,127.5
64,160,128921,5,0,0:0:0
72,244,129152,1,8,0:0:0
116,316,129383,2,0,B|220:332,1,85,2|0,0:0|0:0,0:0:0
284,320,129844,1,0,0:0:0
228,248,130075,1,8,0:0:0
200,328,130306,1,0,0:0:0
284,320,130536,2,0,B|444:296,1,127.5
452,292,130998,1,8,0:0:0
468,208,131229,2,0,B|472:140|416:96|360:108,1,170,2|0,0:0|0:0,0:0:0
280,136,131921,1,8,0:0:0
196,132,132152,6,0,B|236:40,1,85
316,252,132613,2,0,B|276:344,1,85,0|8,0:0|0:0,0:0:0
316,68,133075,2,0,B|408:108,1,85,2|0,0:0|0:0,0:0:0
196,316,133536,2,0,B|104:276,1,85,0|8,0:0|0:0,0:0:0
256,192,133998,37,0,0:0:0
188,140,134229,2,0,B|208:84|304:84|324:140,1,170,0|8,0:0|0:0,0:0:0
256,192,134921,1,2,0:0:0
324,244,135152,2,0,B|304:300|208:300|188:244,1,170,0|0,0:0|0:0,0:0:0
120,192,135844,1,0,0:0:0
188,144,136075,5,8,0:0:0
300,40,136306,1,8,0:0:0
368,176,136536,6,0,B|408:200|408:264,2,85,4|8|0,0:0|0:0|0:0,0:0:0
212,44,137921,37,4,0:0:0
36,188,138267,1,0,0:0:0
244,284,138613,2,0,B|408:352,1,170,2|0,0:0|0:0,0:0:0
488,296,139306,1,8,0:0:0
436,208,139536,1,0,0:0:0
384,120,139767,5,0,0:0:0
244,284,140113,1,0,0:0:0
124,104,140460,1,2,0:0:0
68,180,140690,5,0,0:0:0
76,204,140806,1,0,0:0:0
84,228,140921,1,0,0:0:0
92,252,141036,1,0,0:0:0
100,276,141152,2,0,B|132:368,1,85,8|0,0:0|0:0,0:0:0
188,236,141613,2,0,B|161:155,1,85
284,216,142075,2,0,B|328:336,2,127.5,8|2|0,0:0|0:0|0:0,0:0:0
332,88,142998,2,0,B|364:180,1,85,8|0,0:0|0:0,0:0:0
420,292,143460,38,0,B|456:152,1,127.5
464,100,143921,1,8,0:0:0
332,88,144152,2,0,B|264:112|264:112|224:76|148:96,1,170,2|0,0:0|0:0,0:0:0
152,72,144729,1,0,0:0:0
136,92,144844,2,0,B|96:104|56:148,1,85,8|0,0:0|0:0,0:0:0
44,240,145306,2,0,B|52:312|148:340,1,127.5
172,340,145767,1,8,0:0:0
272,328,145998,2,0,B|320:320|352:288|352:288|436:304,1,170,2|0,0:0|0:0,0:0:0
452,204,146690,6,0,B|500:212,2,42.5,8|0|0,0:0|0:0|0:0,0:0:0
432,104,147152,2,0,B|388:128,1,42.5
340,212,147498,2,0,B|296:164,1,42.5,0|8,0:0|0:0,0:0:0
308,80,147844,2,0,B|252:76|192:132|212:208,1,170,2|0,0:0|0:0,0:0:0
216,244,148421,2,0,B|176:300,3,42.5,0|8|0|0,0:0|0:0|0:0|0:0,0:0:0
108,340,148998,5,0,0:0:0
136,232,149229,1,0,0:0:0
16,232,149460,1,8,0:0:0
120,160,149690,1,2,0:0:0
32,56,149921,1,0,0:0:0
168,104,150152,1,0,0:0:0
308,40,150383,1,8,0:0:0
460,96,150613,1,0,0:0:0
456,268,150844,2,0,B|400:348|400:348|368:312|316:316,1,170,0|8,0:0|0:0,0:0:0
172,336,151536,37,8,0:0:0
172,336,151652,1,8,0:0:0
172,336,151767,2,0,B|276:284,1,85,8|0,0:0|0:0,0:0:0
376,208,152229,1,8,0:0:0
296,76,152460,1,8,0:0:0
148,48,152690,6,0,B|64:52|56:136,1,127.5,4|0,0:0|0:0,0:0:0
48,172,153152,1,8,0:0:0
40,272,153383,2,0,B|88:316|172:296|196:216,1,170,2|0,0:0|0:0,0:0:0
244,160,154075,1,8,0:0:0
344,140,154306,1,0,0:0:0
416,68,154536,2,0,B|460:104|464:180|404:220,1,170,0|8,0:0|0:0,0:0:0
344,140,155229,2,0,B|400:140|440:224|380:284,1,170,2|0,0:0|0:0,0:0:0
300,224,155921,1,8,0:0:0
328,320,156152,6,0,B|268:320|228:276,1,85
148,308,156613,2,0,B|140:252|192:204,1,85,0|8,0:0|0:0,0:0:0
240,156,157075,2,0,B|284:120,1,42.5,2|0,0:0|0:0,0:0:0
416,72,157536,1,0,0:0:0
316,64,157767,1,8,0:0:0
216,56,157998,1,0,0:0:0
112,44,158229,2,0,B|76:196,1,127.5
68,216,158690,1,8,0:0:0
44,316,158921,2,0,B|88:332|128:296|128:296|204:328,1,170,2|0,0:0|0:0,0:0:0
236,316,159498,37,0,0:0:0
252,344,159613,2,0,B|288:356|288:356|340:344,1,85,8|0,0:0|0:0,0:0:0
436,324,160075,1,0,0:0:0
460,172,160421,1,0,0:0:0
480,20,160767,2,0,B|304:48,1,170,2|0,0:0|0:0,0:0:0
280,144,161460,5,8,0:0:0
280,144,161575,1,0,0:0:0
280,144,161690,2,0,B|208:80,1,85
176,56,162036,1,0,0:0:0
76,36,162267,1,0,0:0:0
76,36,162383,2,0,B|56:140,1,85,8|2,0:0|0:0,0:0:0
92,216,162844,2,0,B|172:144,2,85,0|0|8,0:0|0:0|0:0,0:0:0
128,312,163536,5,0,0:0:0
224,344,163767,1,0,0:0:0
320,272,163998,37,0,0:0:0
200,264,164229,1,8,0:0:0
128,148,164460,5,2,0:0:0
252,200,164690,1,8,0:0:0
372,104,164921,5,8,0:0:0
220,124,165152,1,8,0:0:0
84,20,165383,37,8,0:0:0
252,52,165613,1,4,0:0:0
280,64,166075,5,4,0:0:0
308,80,166536,5,4,0:0:0
400,124,166767,1,4,0:0:0
452,212,166998,1,4,0:0:0
420,300,167229,2,0,B|376:304,3,28.3333333333333,8|8|8|4,0:0|0:0|0:0|0:0,0:0:0
308,360,167690,6,0,B|256:336|268:276|268:276|200:292,1,170
132,216,168383,2,0,B|116:304,1,85
220,208,168844,2,0,B|236:112,1,85,8|0,0:0|0:0,0:0:0
104,124,169306,2,0,B|116:44|216:44,1,127.5
256,36,169767,2,0,B|372:108,1,127.5,8|0,0:0|0:0,0:0:0
428,80,170229,2,0,B|440:220,1,127.5
480,260,170690,2,0,B|336:328,1,127.5,8|0,0:0|0:0,0:0:0
300,340,171152,1,0,0:0:0
164,340,171383,6,0,B|64:328,2,85,0|8|0,0:0|0:0|0:0,0:0:0
232,264,172075,1,0,0:0:0
328,228,172306,1,0,0:0:0
240,176,172536,1,8,0:0:0
148,132,172767,1,0,0:0:0
216,56,172998,1,0,0:0:0
368,52,173344,1,0,0:0:0
464,172,173690,1,0,0:0:0
468,272,173921,54,0,B|440:328,1,42.5,0|0,0:0|0:0,0:0:0
348,308,174267,2,0,B|320:360,1,42.5,0|8,0:0|0:0,0:0:0
228,336,174613,2,0,B|180:336|152:304|152:304|124:336|64:336,1,170
88,236,175306,2,0,B|68:148,1,85,8|0,0:0|0:0,0:0:0
216,236,175767,2,0,B|236:148,1,85
404,152,176229,2,0,B|423:234,1,85,8|0,0:0|0:0,0:0:0
416,336,176690,6,0,B|344:328|312:248,1,127.5
316,212,177152,1,8,0:0:0
316,108,177383,1,0,0:0:0
240,40,177613,2,0,B|160:84,1,85
124,52,177960,2,0,B|100:152,1,85
56,148,178306,54,0,B|104:236,1,85
456,236,178767,2,0,B|408:148,1,85,0|8,0:0|0:0,0:0:0
140,344,179229,2,0,B|228:296,1,85
372,40,179690,2,0,B|284:88,1,85,0|8,0:0|0:0,0:0:0
256,192,180152,5,0,0:0:0
108,76,180383,2,0,B|184:228,1,170,4|8,0:0|0:0,0:0:0
404,308,181306,54,0,B|352:200,1,95.6250036478044
348,188,181767,2,0,B|292:68,1,127.500004863739,8|4,0:0|0:0,0:0:0
96,120,189613,69,0,0:0:0
88,152,189844,1,0,0:0:0
80,184,190075,1,8,0:0:0
72,216,190306,1,2,0:0:0
164,176,190536,5,0,0:0:0
172,228,190767,1,0,0:0:0
180,280,190998,1,8,0:0:0
188,332,191229,1,2,0:0:0
256,248,191460,53,0,0:0:0
272,184,191690,1,2,0:0:0
292,120,191921,1,8,0:0:0
308,56,192152,1,0,0:0:0
376,104,192383,5,0,0:0:0
404,184,192613,1,2,0:0:0
432,264,192844,1,8,0:0:0
464,344,193075,1,0,0:0:0
360,344,193306,54,0,B|260:344,1,85,0|2,0:0|0:0,0:0:0
188,264,193767,2,0,B|304:264,1,85,8|0,0:0|0:0,0:0:0
404,184,194229,2,0,B|296:184,1,85,0|2,0:0|0:0,0:0:0
204,112,194690,2,0,B|324:112,1,85,8|0,0:0|0:0,0:0:0
412,44,195152,5,0,0:0:0
412,44,195267,1,0,0:0:0
412,44,195383,2,0,B|304:44,1,85,0|0,0:0|0:0,0:0:0
192,40,195844,1,8,0:0:0
192,40,195960,1,8,0:0:0
192,40,196075,2,0,B|112:88,1,85,0|8,0:0|0:0,0:0:0
40,216,196536,1,8,0:0:0
40,216,196652,1,8,0:0:0
40,216,196767,2,0,B|72:296,1,85,0|4,0:0|0:0,0:0:0
296,344,197344,6,0,B|344:328,1,42.5,0|8,0:0|0:0,0:0:0
436,340,197690,2,0,B|464:144,1,170,2|0,0:0|0:0,0:0:0
440,72,198383,1,8,0:0:0
344,40,198613,1,0,0:0:0
240,40,198844,2,0,B|160:48|136:132,2,127.5,0|0|2,0:0|0:0|0:0,0:0:0
248,140,199767,2,0,B|276:180,3,42.5
324,188,200229,2,0,B|280:288,1,85,8|0,0:0|0:0,0:0:0
392,284,200690,6,0,B|288:304,1,85
380,372,201152,2,0,B|284:336,1,85,8|2,0:0|0:0,0:0:0
252,324,201498,1,0,0:0:0
156,288,201729,1,0,0:0:0
112,264,201844,2,0,B|24:216,1,85,0|8,0:0|0:0,0:0:0
136,192,202306,2,0,B|216:236,1,85
308,268,202767,2,0,B|284:220,1,42.5
216,96,203229,2,0,B|256:56|328:56|376:112,1,170,2|0,0:0|0:0,0:0:0
388,124,203806,5,0,0:0:0
404,144,203921,2,0,B|484:224,1,85,8|0,0:0|0:0,0:0:0
440,304,204383,1,0,0:0:0
256,352,204729,1,0,0:0:0
72,304,205075,2,0,B|88:192,1,85,2|0,0:0|0:0,0:0:0
136,112,205536,38,0,B|212:76,1,85,0|8,0:0|0:0,0:0:0
236,68,205883,1,0,0:0:0
260,68,205998,2,0,B|360:68,1,85
468,232,206575,1,0,0:0:0
280,312,206921,2,0,B|108:352,1,170,2|0,0:0|0:0,0:0:0
160,260,207613,5,8,0:0:0
144,160,207844,2,0,B|48:160,1,85
128,84,208306,2,0,B|40:52,1,85,0|8,0:0|0:0,0:0:0
372,56,208767,6,0,B|460:44,1,85
400,132,209229,2,0,B|472:176,1,85,0|8,0:0|0:0,0:0:0
204,264,209690,38,0,B|144:360,1,85
136,236,210152,2,0,B|48:276,1,85,0|8,0:0|0:0,0:0:0
300,264,210613,6,0,B|348:360,1,85
384,248,211075,2,0,B|472:296,1,85,0|8,0:0|0:0,0:0:0
320,184,211536,5,0,0:0:0
412,136,211767,1,0,0:0:0
296,160,211998,1,0,0:0:0
356,56,212229,1,0,0:0:0
256,148,212460,1,0,0:0:0
256,12,212690,1,0,0:0:0
216,160,212921,1,0,0:0:0
156,56,213152,1,0,0:0:0
192,184,213383,1,0,0:0:0
100,136,213614,1,4,0:0:0
256,360,214075,37,4,0:0:0
148,276,214306,1,8,0:0:0
148,276,214421,1,8,0:0:0
148,276,214536,1,4,0:0:0
256,192,214767,1,8,0:0:0
256,328,214998,1,8,0:0:0
380,276,215229,1,8,0:0:0
380,276,215344,1,8,0:0:0
380,276,215460,1,4,0:0:0
