osu file format v10

[General]
AudioFilename: perfume - .mp3
AudioLeadIn: 2007
PreviewTime: 61306
Countdown: 0
SampleSet: Soft
StackLeniency: 0.7
Mode: 0
LetterboxInBreaks: 0
EpilepsyWarning: 1

[Editor]
DistanceSpacing: 1.2
BeatDivisor: 2
GridSize: 4

[Metadata]
Title:Unnatural Girl
TitleUnicode:
Artist:Perfume
ArtistUnicode:
Creator:Breeze
Version:Hard
Source:
Tags:Oomoto Ayano Nocchi Kashino Yuka Kashiyuka Nishiwaki Ayaka A-chan
BeatmapID:174882
BeatmapSetID:58119

[Difficulty]
HPDrainRate:5
CircleSize:4
OverallDifficulty:5
ApproachRate:7
SliderMultiplier:1.4
SliderTickRate:2

[Events]
//Background and Video events
0,0,"bg.jpg"
//Break Periods
2,18121,24406
2,91966,98252
2,182429,188713
//Storyboard Layer 0 (Background)
//Storyboard Layer 1 (Fail)
//Storyboard Layer 2 (Pass)
//Storyboard Layer 3 (Foreground)
//Storyboard Sound Samples
//Background Colour Transformations
3,100,0,0,0

[TimingPoints]
-540,461.538461538462,4,2,1,60,1,0
14344,-100,4,2,1,40,0,0
14575,-100,4,2,1,40,0,0
14806,-100,4,2,1,60,0,0
15498,-100,4,2,1,40,0,0
15960,-100,4,2,1,60,0,0
16536,-200,4,2,0,40,0,0
16767,-200,4,2,0,50,0,0
16998,-200,4,2,0,60,0,0
17229,-200,4,2,0,70,0,0
17460,-100,4,2,1,80,0,0
17921,-100,4,2,0,90,0,1
18036,-100,4,2,1,80,0,0
31421,-100,4,2,1,60,0,0
31883,-100,4,2,1,80,0,0
32113,-100,4,1,1,80,0,0
32344,-100,4,2,1,80,0,0
49767,-100,4,2,1,40,0,0
49998,-100,4,2,1,80,0,0
60036,-100,4,2,1,60,0,0
60383,-100,4,2,1,80,0,0
61652,-100,4,2,1,100,0,0
62229,-100,4,2,1,100,0,1
62344,-100,4,2,1,100,0,0
76998,-100,4,2,1,100,0,1
77113,-100,4,2,1,100,0,0
91190,-100,4,2,1,100,0,0
91421,-100,4,2,1,100,0,0
91767,-100,4,2,1,100,0,1
91998,-100,4,2,1,100,0,0
98690,-100,4,2,1,80,0,0
135960,-100,4,2,1,80,0,0
136190,-100,4,2,1,40,0,0
136421,-200,4,2,1,80,0,0
136542,-200,4,2,1,10,0,0
136767,-200,4,2,1,35,0,0
136998,-200,4,2,1,50,0,0
137229,-200,4,2,1,65,0,0
137460,-100,4,2,1,80,0,0
137921,-100,4,2,1,100,0,1
138036,-100,4,2,1,100,0,0
164575,-100,4,2,1,70,0,0
165498,-100,4,2,1,80,0,0
166652,-100,4,2,1,60,0,0
167113,-100,4,2,1,80,0,0
167690,-100,4,2,1,80,0,0
180267,-100,4,2,1,60,0,0
180498,-100,4,2,1,80,0,0
181306,-133.333333333333,4,2,1,80,0,0
182229,-100,4,2,1,60,0,0
189152,-100,4,1,0,40,0,0
189729,-100,4,2,1,40,0,0
190190,-100,4,2,1,50,0,0
190421,-100,4,1,0,40,0,0
190652,-100,4,2,1,40,0,0
191113,-100,4,2,1,50,0,0
191344,-100,4,1,0,40,0,0
191575,-100,4,2,2,50,0,0
191806,-100,4,2,1,40,0,0
192267,-100,4,1,0,40,0,0
192498,-100,4,2,2,50,0,0
192729,-100,4,2,1,40,0,0
193190,-100,4,1,0,40,0,0
193421,-100,4,2,2,50,0,0
193652,-100,4,2,1,40,0,0
194113,-100,4,1,0,40,0,0
194344,-100,4,2,2,50,0,0
194575,-100,4,2,1,40,0,0
195152,-100,4,1,0,70,0,0
195267,-100,4,2,0,50,0,0
195383,-100,4,2,1,70,0,0
195498,-100,4,1,0,70,0,0
195729,-100,4,2,1,70,0,0
196075,-100,4,2,1,50,0,0
196306,-100,4,2,1,40,0,0
196536,-100,4,2,1,85,0,0
196998,-100,4,2,1,100,0,1
197113,-100,4,2,1,100,0,0
207960,-100,4,1,0,100,0,0
208190,-100,4,2,1,100,0,0
208883,-100,4,1,0,100,0,0
209113,-100,4,2,1,100,0,0
209806,-100,4,1,0,100,0,0
210036,-100,4,2,1,100,0,0
210729,-100,4,1,0,100,0,0
210960,-100,4,2,1,100,0,0
211652,-100,4,1,0,100,0,0
211883,-100,4,1,0,80,0,0
212113,-100,4,2,1,100,0,0
212344,-100,4,1,0,100,0,0
212575,-100,4,1,0,80,0,0
212806,-100,4,2,1,100,0,0
213036,-100,4,1,0,100,0,0
213267,-100,4,1,0,80,0,0
213498,-100,4,2,1,100,0,0
214190,-100,4,2,1,80,0,0
214536,-100,4,2,1,100,0,0
215113,-100,4,2,1,80,0,0
215460,-100,4,2,1,100,0,0

[Colours]
Combo1 : 98,98,98
Combo2 : 255,0,0
Combo3 : 128,0,255
Combo4 : 0,0,255
Combo5 : 255,255,255

[HitObjects]
80,192,383,53,0,0:0:0
80,192,844,1,0,0:0:0
80,192,1306,2,0,B|232:192,1,140,4|0,0:0|0:0,0:0:0
272,144,1998,2,0,B|352:92|440:192|352:292|272:240,1,280,0|0,0:0|0:0,0:0:0
232,296,3152,1,0,0:0:0
232,88,3844,1,0,0:0:0
464,352,4998,6,0,B|392:352|392:272|392:272|352:240|312:272,1,210,0|0,0:0|0:0,0:0:0
48,32,6844,2,0,B|120:32|120:112|120:112|160:144|200:112,1,210,0|0,0:0|0:0,0:0:0
464,344,8690,53,0,0:0:0
464,344,8921,2,0,B|312:344,1,140,2|0,0:0|0:0,0:0:0
184,312,9844,2,0,B|344:312,1,140,2|0,0:0|0:0,0:0:0
464,280,10767,2,0,B|324:280,1,140,2|0,0:0|0:0,0:0:0
184,248,11690,2,0,B|324:248,1,140,2|2,0:0|0:0,0:0:0
384,208,12383,6,0,B|440:160,1,70
376,120,12845,2,0,B|376:48,1,70,0|2,0:0|0:0,0:0:0
304,64,13306,2,0,B|248:16,1,70
216,80,13767,2,0,B|128:80,1,70,0|2,0:0|0:0,0:0:0
160,152,14229,2,0,B|80:232,2,70,8|8|12,0:0|0:0|0:0,0:0:0
256,256,15152,1,8,0:0:0
352,152,15613,2,0,B|432:232,2,70,0|0|4,0:0|0:0|0:0,0:0:0
312,288,16536,54,0,B|288:336|224:336|200:288,1,140,0|8,0:0|0:0,0:0:0
256,160,17921,21,4,0:0:0
440,88,25306,6,0,B|400:48|352:48|312:88,1,140,0|8,0:0|0:0,0:0:0
376,128,25998,2,0,B|339:164|291:164|251:124,1,140
192,88,26690,1,8,0:0:0
72,296,27152,6,0,B|112:336|160:336|200:296,1,140,0|8,0:0|0:0,0:0:0
136,256,27844,2,0,B|172:219|220:219|260:259,1,140
320,296,28536,1,8,0:0:0
464,296,28998,38,0,B|512:232|464:168,1,140,0|8,0:0|0:0,0:0:0
392,168,29690,2,0,B|368:128|392:88,1,70
400,32,30152,2,0,B|496:32,2,70,8|8|4,0:0|0:0|0:0,0:0:0
256,32,31075,1,8,0:0:0
256,32,31306,1,8,0:0:0
184,32,31536,2,8,B|136:32,2,35
220,92,31998,2,0,B|220:188,1,70,8|0,0:0|0:0,0:0:0
220,304,32690,1,4,0:0:0
292,304,32921,6,0,B|372:304,2,70,0|8|2,0:0|0:0|0:0,0:0:0
220,304,33613,2,0,B|140:304,1,70
40,232,34075,2,0,B|120:232,1,70,8|0,0:0|0:0,0:0:0
184,232,34536,1,0,0:0:0
256,160,34883,1,0,0:0:0
336,232,35229,2,0,B|488:232,1,140,2|0,0:0|0:0,0:0:0
476,232,35921,1,8,0:0:0
416,104,36383,6,0,B|432:48|376:0|328:16,1,140,0|8,0:0|0:0,0:0:0
344,88,37075,1,2,0:0:0
272,88,37306,2,0,B|192:88,3,70,0|0|8|0,0:0|0:0|0:0|0:0,0:0:0
144,48,38229,1,0,0:0:0
96,144,38575,1,0,0:0:0
48,240,38921,1,2,0:0:0
48,312,39152,2,0,B|48:352,6,35,0|0|0|0|8|0|0,0:0|0:0|0:0|0:0|0:0|0:0|0:0,0:0:0
112,272,40075,1,0,0:0:0
184,272,40306,38,0,B|184:360,2,70,0|8|2,0:0|0:0|0:0,0:0:0
184,200,40998,2,0,B|184:120,1,70
256,64,41460,2,0,B|256:160,1,70,8|0,0:0|0:0,0:0:0
256,208,41921,2,0,B|256:264|312:304,2,105,0|0|2,0:0|0:0|0:0,0:0:0
328,224,42844,2,0,B|368:280|432:240,2,105
388,184,43767,2,0,B|428:40,1,140,0|8,0:0|0:0,0:0:0
354,29,44460,1,2,0:0:0
284,60,44690,5,0,0:0:0
284,60,44921,1,0,0:0:0
296,136,45152,1,8,0:0:0
296,136,45383,1,0,0:0:0
308,212,45613,1,0,0:0:0
232,300,45960,1,0,0:0:0
120,280,46306,2,0,B|56:144,1,140,2|8,0:0|0:0,0:0:0
48,120,46883,2,0,B|36:88,3,35,0|8|0|8,0:0|0:0|0:0|0:0,0:0:0
104,72,47460,5,4,0:0:0
160,120,47690,2,0,B|296:120,1,105,0|0,0:0|0:0,0:0:0
304,120,48152,1,2,0:0:0
376,120,48383,2,0,B|376:208,1,70
376,336,48844,2,0,B|376:256,1,70,8|0,0:0|0:0,0:0:0
312,224,49306,37,0,0:0:0
240,224,49536,2,0,B|200:184,1,35
152,232,49883,1,0,0:0:0
128,208,49998,2,0,B|16:96,1,140,2|0,0:0|0:0,0:0:0
128,112,50690,2,0,B|29:210,1,140,8|0,0:0|0:0,0:0:0
24,280,51383,5,0,0:0:0
52,344,51613,1,8,0:0:0
116,372,51844,1,2,0:0:0
184,356,52075,2,0,B|224:356|248:312,1,70
236,184,52536,2,0,B|196:184|172:228,1,70,8|0,0:0|0:0,0:0:0
240,252,52998,2,0,B|280:252|316:208|300:168,2,105,0|0|2,0:0|0:0|0:0,0:0:0
180,284,53921,2,0,B|140:304,4,35,0|0|0|0|8,0:0|0:0|0:0|0:0|0:0,0:0:0
240,324,54613,2,0,B|280:340|360:308|368:248,1,140
360,112,55536,5,2,0:0:0
360,192,55767,2,0,B|284:192,1,70
220,192,56229,2,0,B|144:192,1,70,8|0,0:0|0:0,0:0:0
96,144,56690,2,0,B|56:192|96:240,2,105,0|0|2,0:0|0:0|0:0,0:0:0
140,88,57613,2,0,B|288:88,1,140,0|8,0:0|0:0,0:0:0
352,88,58306,38,0,B|424:88,1,70
464,160,58767,2,0,B|388:160,1,70,0|8,0:0|0:0,0:0:0
324,232,59229,2,0,B|408:232,1,70,2|0,0:0|0:0,0:0:0
480,304,59690,2,0,B|384:304,1,70,0|8,0:0|0:0,0:0:0
340,304,60152,2,0,B|340:348,2,35,8|8|8,0:0|0:0|0:0,0:0:0
268,304,60613,1,0,0:0:0
268,304,60844,2,0,B|116:304,1,140,8|0,0:0|0:0,0:0:0
28,192,61767,1,8,0:0:0
28,192,62229,6,0,B|144:192,1,105,4|0,0:0|0:0,0:0:0
176,192,62690,1,8,0:0:0
260,192,62921,2,0,B|400:192,1,140,2|0,0:0|0:0,0:0:0
472,236,63613,1,8,0:0:0
468,152,63844,1,0,0:0:0
464,68,64075,2,0,B|328:68,1,105
316,68,64536,1,8,0:0:0
252,12,64767,2,0,B|204:28|204:108|252:120,1,140,2|0,0:0|0:0,0:0:0
336,140,65460,6,0,B|384:152|384:232|336:248,1,140,8|0,0:0|0:0,0:0:0
252,252,66152,1,0,0:0:0
252,252,66383,2,0,B|140:252,2,105,8|2|0,0:0|0:0|0:0,0:0:0
292,328,67306,2,0,B|376:328,2,70,8|0|0,0:0|0:0|0:0,0:0:0
208,328,67998,2,0,B|160:328,1,35
88,328,68344,1,0,0:0:0
52,304,68460,2,0,B|4:236|52:176,1,140,2|0,0:0|0:0,0:0:0
104,108,69152,37,8,0:0:0
152,176,69383,1,0,0:0:0
204,108,69613,2,0,B|348:108,1,140,0|8,0:0|0:0,0:0:0
412,180,70306,2,0,B|272:180,1,140,2|0,0:0|0:0,0:0:0
208,236,70998,1,8,0:0:0
152,296,71229,1,0,0:0:0
208,360,71460,1,0,0:0:0
332,360,71806,1,0,0:0:0
456,360,72152,2,0,B|456:136,1,210,2|8,0:0|0:0,0:0:0
456,64,73075,5,0,0:0:0
456,64,73306,1,0,0:0:0
368,40,73536,1,0,0:0:0
368,40,73767,1,8,0:0:0
344,136,73998,1,2,0:0:0
344,136,74229,1,0,0:0:0
236,108,74460,1,0,0:0:0
236,108,74690,1,8,0:0:0
208,240,74921,1,0,0:0:0
208,240,75152,2,0,B|56:188,1,140,0|8,0:0|0:0,0:0:0
36,316,75844,5,8,0:0:0
36,316,75960,1,8,0:0:0
36,316,76075,2,0,B|168:361,1,140,8|8,0:0|0:0,0:0:0
416,308,76998,2,0,B|304:272,1,105,4|0,0:0|0:0,0:0:0
292,268,77460,1,8,0:0:0
208,240,77690,2,0,B|56:188,1,140,2|0,0:0|0:0,0:0:0
32,268,78383,37,8,0:0:0
88,328,78613,1,0,0:0:0
172,312,78844,1,0,0:0:0
292,268,79190,1,0,0:0:0
412,232,79536,2,0,B|412:68,1,140,2|0,0:0|0:0,0:0:0
344,40,80229,1,8,0:0:0
260,40,80460,5,0,0:0:0
176,40,80690,1,0,0:0:0
216,116,80921,1,0,0:0:0
132,116,81152,2,0,B|132:244,2,105,8|2|0,0:0|0:0|0:0,0:0:0
96,40,82075,2,0,B|48:40|48:100,1,70,8|0,0:0|0:0,0:0:0
52,168,82536,1,0,0:0:0
100,284,82883,1,0,0:0:0
212,340,83229,2,0,B|368:340,1,140,2|0,0:0|0:0,0:0:0
436,340,83921,5,0,0:0:0
436,340,84152,1,0,0:0:0
388,272,84383,1,0,0:0:0
316,168,84729,1,0,0:0:0
244,64,85075,2,0,B|80:64,1,140,2|0,0:0|0:0,0:0:0
52,128,85767,2,0,B|8:128,2,35,8|0|0,0:0|0:0|0:0,0:0:0
112,196,86229,2,0,B|220:196,2,105,0|0|2,0:0|0:0|0:0,0:0:0
52,256,87152,2,0,B|4:272|4:344|48:368,1,140,0|8,0:0|0:0,0:0:0
112,312,87844,38,0,B|156:252,1,70,0|0,0:0|0:0,0:0:0
236,256,88306,2,0,B|194:312,1,70,0|8,0:0|0:0,0:0:0
280,312,88767,2,0,B|324:252,2,70,2|8|8,0:0|0:0|0:0,0:0:0
364,312,89460,2,0,B|405:255,1,70,8|8,0:0|0:0,0:0:0
448,312,89921,2,0,B|472:276|472:276|504:224|456:168,1,140,4|8,0:0|0:0,0:0:0
408,128,90613,5,8,0:0:0
336,88,90844,1,8,0:0:0
256,64,91075,1,8,0:0:0
176,88,91306,1,2,0:0:0
104,128,91536,2,8,B|80:152,2,35,8|8|4,0:0|0:0|0:0,0:0:0
372,60,99152,6,0,B|372:204,1,140,0|8,0:0|0:0,0:0:0
436,244,99844,2,0,B|372:304|308:244,1,140,2|0,0:0|0:0,0:0:0
256,192,100536,1,8,0:0:0
140,60,100998,38,0,B|140:204,1,140,0|8,0:0|0:0,0:0:0
76,244,101690,2,0,B|140:304|204:244,1,140,2|0,0:0|0:0,0:0:0
256,192,102382,1,8,0:0:0
256,192,102844,6,0,B|256:64,2,105,0|0|2,0:0|0:0|0:0,0:0:0
196,240,103767,2,0,B|224:284|288:284|316:240,1,140,0|8,0:0|0:0,0:0:0
360,180,104460,2,8,B|360:144,2,35
408,240,104921,1,8,0:0:0
456,300,105152,2,8,B|416:332,3,35
392,336,105613,2,0,B|344:336,1,35,2|2,0:0|0:0,0:0:0
320,336,105844,1,4,0:0:0
244,336,106075,1,8,0:0:0
168,336,106306,2,0,B|128:336,2,35,8|8|4,0:0|0:0|0:0,0:0:0
200,264,106767,6,0,B|200:104,1,140,2|0,0:0|0:0,0:0:0
124,120,107460,2,0,B|124:72|172:52,1,70
232,52,107921,2,0,B|328:52,1,70,8|0,0:0|0:0,0:0:0
380,52,108383,1,0,0:0:0
472,124,108729,1,0,0:0:0
476,240,109075,2,0,B|508:280|472:352|408:336,1,140,2|0,0:0|0:0,0:0:0
404,264,109767,2,0,B|284:188,1,140,8|0,0:0|0:0,0:0:0
220,152,110460,38,0,B|220:72,2,70,0|8|2,0:0|0:0|0:0,0:0:0
144,152,111152,2,0,B|52:152,1,70
24,224,111613,2,0,B|112:224,1,70,8|0,0:0|0:0,0:0:0
172,228,112075,2,0,B|280:228,1,105
316,228,112536,1,8,0:0:0
396,228,112767,1,2,0:0:0
432,296,112998,2,0,B|432:348,5,35,0|0|0|0|8|0,0:0|0:0|0:0|0:0|0:0|0:0,0:0:0
400,356,113690,2,0,B|252:356,1,140,0|0,0:0|0:0,0:0:0
188,328,114383,5,8,0:0:0
128,280,114613,1,2,0:0:0
112,204,114844,2,0,B|156:192|200:240,1,70
244,260,115306,2,0,B|280:276|316:260,1,70,8|0,0:0|0:0,0:0:0
280,192,115767,2,0,B|300:156,1,35
364,200,116113,2,0,B|384:156,1,35,0|8,0:0|0:0,0:0:0
452,140,116460,2,0,B|460:72|396:-8|292:20|260:92,1,280,2|0,0:0|0:0,0:0:0
212,148,117613,1,0,0:0:0
148,104,117844,5,0,0:0:0
148,28,118075,1,8,0:0:0
148,104,118306,1,2,0:0:0
108,168,118536,2,0,B|48:236,1,70
72,324,118998,2,0,B|136:256,1,70,8|0,0:0|0:0,0:0:0
176,220,119460,1,0,0:0:0
276,292,119806,1,0,0:0:0
368,220,120152,2,0,B|456:220|456:124,1,140,2|0,0:0|0:0,0:0:0
456,96,120729,2,0,B|456:44,3,35,0|8|0|0,0:0|0:0|0:0|0:0,0:0:0
388,28,121306,1,4,0:0:0
312,28,121536,38,0,B|242:28,1,70,0|8,0:0|0:0,0:0:0
164,28,121998,1,2,0:0:0
88,104,122229,2,0,B|176:104,1,70
232,176,122690,2,0,B|132:176,1,70,8|0,0:0|0:0,0:0:0
108,232,123152,2,0,B|72:280|108:328,2,105,0|0|2,0:0|0:0|0:0,0:0:0
168,280,124075,2,0,B|184:324|260:324|284:280,2,140,0|8|0,0:0|0:0|0:0,0:0:0
224,228,125229,5,0,0:0:0
296,204,125460,1,8,0:0:0
356,252,125690,1,2,0:0:0
412,304,125921,2,0,B|436:276|432:240,1,70
432,160,126383,2,0,B|428:112|388:84,1,70,8|0,0:0|0:0,0:0:0
340,52,126844,2,0,B|284:8|224:56,2,105,0|0|2,0:0|0:0|0:0,0:0:0
284,104,127767,2,0,B|252:156,5,35,0|0|0|0|8|0,0:0|0:0|0:0|0:0|0:0|0:0,0:0:0
248,168,128460,2,0,B|84:168,1,140
36,304,129383,5,2,0:0:0
108,276,129613,1,0,0:0:0
176,244,129844,1,0,0:0:0
176,320,130075,1,8,0:0:0
248,352,130306,1,0,0:0:0
248,276,130536,2,0,B|364:276,1,105
392,276,130998,1,8,0:0:0
440,336,131229,2,0,B|484:316|484:236|440:216,1,140,2|0,0:0|0:0,0:0:0
380,176,131921,1,8,0:0:0
380,176,132152,1,0,0:0:0
392,100,132383,38,0,B|324:52,1,70
232,76,132844,2,0,B|289:116,1,70,8|2,0:0|0:0,0:0:0
312,220,133306,2,0,B|244:172,1,70
152,196,133767,2,0,B|209:236,1,70,8|0,0:0|0:0,0:0:0
272,280,134229,2,0,B|312:300|312:348|276:380|232:352,1,140,0|8,0:0|0:0,0:0:0
108,268,135152,5,0,0:0:0
52,216,135383,1,0,0:0:0
48,140,135613,1,8,0:0:0
88,76,135844,1,0,0:0:0
160,52,136075,1,8,0:0:0
232,80,136306,1,8,0:0:0
272,148,136536,6,0,B|308:176|308:244|264:276,1,140,4|0,0:0|0:0,0:0:0
128,336,137921,38,0,B|68:352|40:292,2,105,4|0|2,0:0|0:0|0:0,0:0:0
196,304,138844,1,0,0:0:0
256,256,139075,2,0,B|256:160,2,70,0|8|0,0:0|0:0|0:0,0:0:0
312,312,139767,2,0,B|352:360|440:328,2,105,0|0|2,0:0|0:0|0:0,0:0:0
372,264,140690,2,0,B|408:120,1,140,0|8,0:0|0:0,0:0:0
420,52,141383,6,0,B|328:28,1,70
308,100,141844,1,0,0:0:0
232,80,142075,2,0,B|108:44,2,105,8|2|0,0:0|0:0|0:0,0:0:0
256,152,142998,1,8,0:0:0
256,228,143229,1,0,0:0:0
212,292,143460,1,0,0:0:0
104,336,143806,1,0,0:0:0
32,244,144152,2,0,B|32:104,1,140,2|0,0:0|0:0,0:0:0
104,76,144844,6,0,B|104:32,2,35,8|0|0,0:0|0:0|0:0,0:0:0
104,152,145306,1,0,0:0:0
180,240,145652,1,0,0:0:0
292,272,145998,2,0,B|440:272,1,140,2|0,0:0|0:0,0:0:0
460,200,146690,2,0,B|390:200,1,70,8|0,0:0|0:0,0:0:0
380,124,147152,2,0,B|356:100,1,35
284,132,147498,2,0,B|252:100,1,35,0|8,0:0|0:0,0:0:0
200,56,147844,2,0,B|144:4|44:104|108:168,1,210,2|8,0:0|0:0,0:0:0
168,120,148767,37,0,0:0:0
172,196,148998,2,0,B|156:264,1,70
244,204,149460,2,0,B|260:136,1,70,8|2,0:0|0:0,0:0:0
316,224,149921,2,0,B|300:292,1,70
388,232,150383,2,0,B|404:164,1,70,8|0,0:0|0:0,0:0:0
456,256,150844,2,0,B|432:332|432:332|372:348,1,140,0|8,0:0|0:0,0:0:0
296,348,151536,5,8,0:0:0
296,348,151652,1,8,0:0:0
296,348,151767,2,0,B|204:348,1,70
148,348,152229,1,8,0:0:0
88,300,152460,1,8,0:0:0
56,228,152690,2,0,B|56:160|56:160|96:180|136:164,1,140,4|8,0:0|0:0,0:0:0
204,140,153383,2,0,B|236:124|272:140|272:140|300:72,1,140,2|0,0:0|0:0,0:0:0
372,48,154075,5,8,0:0:0
444,76,154306,1,0,0:0:0
472,148,154536,2,0,B|496:200|456:276,1,105
448,284,154998,1,8,0:0:0
392,336,155229,2,0,B|364:384|296:384|268:336,1,140,2|0,0:0|0:0,0:0:0
328,288,155921,1,8,0:0:0
256,264,156152,38,0,B|220:248|216:196,1,70,0|0,0:0|0:0,0:0:0
208,132,156613,1,0,0:0:0
192,56,156844,2,0,B|144:8|80:44,2,105,8|2|0,0:0|0:0|0:0,0:0:0
132,104,157767,2,0,B|84:112|76:168,1,70,8|0,0:0|0:0,0:0:0
148,184,158229,2,0,B|174:214|169:267|124:294,2,105,0|0|2,0:0|0:0|0:0,0:0:0
88,228,159152,2,0,B|56:192|8:216,1,70
44,284,159613,5,8,0:0:0
100,336,159844,1,0,0:0:0
176,348,160075,2,0,B|320:348,1,140,0|8,0:0|0:0,0:0:0
392,268,160767,2,0,B|244:268,1,140,2|0,0:0|0:0,0:0:0
192,212,161460,2,0,B|164:244,2,35,8|0|0,0:0|0:0|0:0,0:0:0
240,152,161921,2,0,B|308:56,1,105
324,36,162383,1,8,0:0:0
400,36,162613,2,0,B|472:36|472:36|408:100|472:176,1,210,2|8,0:0|0:0,0:0:0
492,232,163536,5,0,0:0:0
468,304,163767,1,0,0:0:0
420,244,163998,1,0,0:0:0
376,180,164229,1,8,0:0:0
344,248,164460,1,2,0:0:0
276,280,164690,1,8,0:0:0
284,204,164921,1,8,0:0:0
288,128,165152,1,8,0:0:0
220,164,165383,1,8,0:0:0
144,172,165613,37,4,0:0:0
32,68,166075,1,4,0:0:0
200,56,166536,1,4,0:0:0
276,48,166767,1,4,0:0:0
352,44,166998,1,8,0:0:0
428,36,167229,2,0,B|460:32,3,23.3333333333333,8|8|8|4,0:0|0:0|0:0|0:0,0:0:0
424,192,167921,38,0,B|432:280|332:320,1,140,8|0,0:0|0:0,0:0:0
88,192,168844,2,0,B|80:104|180:64,1,140,8|0,0:0|0:0,0:0:0
340,220,169767,2,0,B|292:288|208:260,1,140,8|0,0:0|0:0,0:0:0
172,164,170690,2,0,B|220:96|304:124,1,140,8|0,0:0|0:0,0:0:0
368,144,171383,6,0,B|412:140|432:104,2,70,0|8|0,0:0|0:0|0:0,0:0:0
340,220,172075,2,0,B|320:308,1,70
236,348,172536,2,0,B|251:279,1,70,8|0,0:0|0:0,0:0:0
268,204,172998,2,0,B|292:152|256:96|204:96,1,140,0|8,0:0|0:0,0:0:0
196,172,173690,1,0,0:0:0
132,216,173921,2,0,B|104:268|36:260,2,105,0|0|0,0:0|0:0|0:0,0:0:0
60,184,174844,54,0,B|28:44,1,140,0|8,0:0|0:0,0:0:0
452,200,175767,2,0,B|484:340,1,140,0|8,0:0|0:0,0:0:0
332,316,176690,2,0,B|192:348,1,140,0|8,0:0|0:0,0:0:0
180,68,177613,2,0,B|320:36,1,140,0|8,0:0|0:0,0:0:0
328,112,178306,6,0,B|248:132,1,70
192,164,178767,2,0,B|256:224,1,70,0|8,0:0|0:0,0:0:0
304,256,179229,2,0,B|340:172,2,70
264,324,179921,2,0,B|200:272,1,70,8|0,0:0|0:0,0:0:0
148,324,180383,2,0,B|120:272|148:232|148:232|108:200,1,140,4|8,0:0|0:0,0:0:0
256,149,181306,54,0,B|256:44,2,105.000004005432,0|8|4,0:0|0:0|0:0,0:0:0
400,104,189613,70,0,B|400:48|328:16|256:48|256:104,1,210,0|2,0:0|0:0,0:0:0
328,128,190536,2,0,B|328:184|256:216|184:184|184:128,1,210,0|2,0:0|0:0,0:0:0
256,104,191460,2,0,B|256:48|184:16|112:48|112:104,1,210
92,180,192383,6,0,B|48:215|68:291|139:327|182:291,1,210
184,216,193306,2,0,B|184:160|256:128|328:160|328:216,1,210
329,291,194229,2,0,B|372:327|443:291|463:215|420:180,1,210
408,104,195152,53,0,0:0:0
408,104,195267,1,0,0:0:0
408,104,195383,2,0,B|408:24,1,70,0|0,0:0|0:0,0:0:0
332,32,195844,1,0,0:0:0
256,32,196075,1,8,0:0:0
180,32,196306,1,8,0:0:0
104,32,196536,1,8,0:0:0
104,32,196652,1,8,0:0:0
104,32,196767,2,0,B|104:116,1,70,0|4,0:0|0:0,0:0:0
32,192,197344,21,0,0:0:0
100,284,197690,2,0,B|144:352|224:356,1,140,2|0,0:0|0:0,0:0:0
368,352,198383,2,0,B|280:352,1,70,8|0,0:0|0:0,0:0:0
256,288,198844,2,0,B|256:152,1,105
256,144,199306,1,8,0:0:0
184,116,199536,2,0,B|184:64|256:16|332:64|332:116,1,210,2|8,0:0|0:0,0:0:0
404,136,200460,6,0,B|392:180|340:188,1,70
396,252,200921,2,0,B|356:276|304:244,1,70,0|8,0:0|0:0,0:0:0
256,236,201383,2,0,B|256:280,2,35,2|0|0,0:0|0:0|0:0,0:0:0
183,256,201844,2,0,B|156:276|116:252,1,70,0|8,0:0|0:0,0:0:0
154,183,202305,2,0,B|120:180|108:136,1,70
240,76,202883,2,0,B|292:76,1,35,0|8,0:0|0:0,0:0:0
332,24,203229,2,0,B|388:24|388:120|332:120,1,140,2|0,0:0|0:0,0:0:0
280,176,203921,6,0,B|232:176,2,35,8|0|0,0:0|0:0|0:0,0:0:0
340,224,204383,2,0,B|448:336,1,140,0|8,0:0|0:0,0:0:0
440,224,205075,2,0,B|332:336,1,140,2|0,0:0|0:0,0:0:0
268,344,205767,1,8,0:0:0
192,328,205998,1,0,0:0:0
124,288,206229,2,0,B|72:252|88:184,1,105
96,160,206690,1,8,0:0:0
124,88,206921,2,0,B|168:52|220:88|220:88|332:52,1,210,2|8,0:0|0:0,0:0:0
396,44,207844,37,0,0:0:0
444,104,208075,1,0,0:0:0
368,124,208306,1,0,0:0:0
292,144,208536,1,8,0:0:0
328,220,208767,5,0,0:0:0
372,292,208998,1,0,0:0:0
288,300,209229,1,0,0:0:0
204,308,209460,1,8,0:0:0
148,236,209690,5,0,0:0:0
100,156,209921,1,0,0:0:0
176,104,210152,1,0,0:0:0
256,60,210383,1,8,0:0:0
352,84,210613,37,0,0:0:0
444,112,210844,1,0,0:0:0
376,180,211075,1,0,0:0:0
304,248,211306,1,8,0:0:0
232,312,211536,6,0,B|160:312,1,70
200,236,211998,2,0,B|120:208,1,70,0|8,0:0|0:0,0:0:0
200,160,212460,2,0,B|148:96,2,70,0|0|8,0:0|0:0|0:0,0:0:0
248,88,213152,2,0,B|336:124,1,70,0|0,0:0|0:0,0:0:0
372,56,213613,5,4,0:0:0
416,216,214075,1,4,0:0:0
336,236,214306,1,8,0:0:0
320,240,214421,1,8,0:0:0
304,244,214536,1,4,0:0:0
220,260,214767,1,8,0:0:0
136,280,214998,1,8,0:0:0
160,200,215229,1,8,0:0:0
164,184,215344,1,8,0:0:0
168,168,215460,1,4,0:0:0
