osu file format v13

[General]
AudioFilename: point.mp3
AudioLeadIn: 0
PreviewTime: 68542
Countdown: 0
SampleSet: None
StackLeniency: 0.7
Mode: 0
LetterboxInBreaks: 1
WidescreenStoryboard: 0

[Editor]
Bookmarks: 1342,2713,13684,24656,35627,46599,57570,68542,79513,90484,101456,112427,123399,134370,145342,156313,167284,178256,189227,200199,211170
DistanceSpacing: 1
BeatDivisor: 2
GridSize: 4
TimelineZoom: 1.3

[Metadata]
Title:Point
TitleUnicode:ポイント
Artist:Perfume
ArtistUnicode:Perfume
Creator:asaink
Version:Normal
Source:
Tags:
BeatmapID:454666
BeatmapSetID:172891

[Difficulty]
HPDrainRate:4
CircleSize:3
OverallDifficulty:5
ApproachRate:5
SliderMultiplier:1
SliderTickRate:1

[Events]
//Background and Video events
0,0,"BG.jpg",0,0
//Break Periods
2,112427,132999
//Storyboard Layer 0 (Background)
//Storyboard Layer 1 (Fail)
//Storyboard Layer 2 (Pass)
//Storyboard Layer 3 (Foreground)
//Storyboard Sound Samples
//Background Colour Transformations
3,100,0,0,0

[TimingPoints]
1342,342.857142857143,4,3,0,90,1,0
68542,-100,4,3,0,95,0,1
89113,-100,4,3,0,90,0,0
101456,-100,4,3,0,70,0,0
110970,-100,4,3,0,100,0,0
132999,-100,4,3,0,90,0,0
156313,-100,4,3,0,95,0,1
176884,-100,4,3,0,90,0,0

[Colours]
Combo1 : 255,255,128
Combo2 : 0,255,255
Combo3 : 255,128,0
Combo4 : 0,128,255
Combo5 : 0,255,128

[HitObjects]
176,232,2027,6,0,P|224:229|258:263,1,100,2|2,0:0|0:0,0:0:0:0:
304,352,2713,6,0,B|356:324|356:272|356:272|448:232,1,200,4|0,1:2|0:0,0:0:0:0:
512,156,3742,1,2,0:2:0:0:
424,104,4084,2,0,P|325:105|238:153,1,200,0|0,1:0|0:0,0:0:0:0:
176,232,5113,1,2,0:2:0:0:
212,328,5456,6,0,P|255:352|304:352,2,100,0|0|0,1:0|0:0|0:0,0:0:0:0:
112,312,6484,1,2,0:2:0:0:
76,216,6827,2,0,P|40:181|-7:168,2,100,0|0|0,1:0|0:0|0:0,0:0:0:0:
176,232,7856,1,2,0:2:0:0:
268,192,8199,5,0,1:0:0:0:
360,232,8542,1,0,0:0:0:0:
452,192,8884,2,0,P|438:144|404:108,1,100,0|2,0:0|0:2,0:0:0:0:
316,60,9570,1,0,1:0:0:0:
220,84,9913,1,0,0:0:0:0:
144,148,10256,2,0,B|121:193|121:193|76:215,1,100,0|2,0:0|0:2,0:0:0:0:
24,300,10942,6,0,B|68:324|112:308|112:308|168:324,1,150,0|0,1:0|0:0,0:0:0:0:
268,336,11799,2,0,L|318:322,1,50,0|2,0:0|0:2,0:0:0:0:
408,284,12313,2,0,P|428:212|408:140,1,150,0|0,1:0|0:0,0:0:0:0:
316,104,13170,2,0,L|267:91,1,50,0|2,0:0|0:2,0:0:0:0:
168,72,13684,6,0,B|96:60|52:108|52:108|52:180,1,200,4|0,1:2|0:0,0:0:0:0:
108,264,14713,1,2,0:2:0:0:
156,176,15056,2,0,B|244:160|244:160|288:204|344:192,1,200,0|0,1:0|0:0,0:0:0:0:
444,180,16084,1,2,0:2:0:0:
384,100,16427,6,0,P|345:69|296:60,2,100,0|0|0,1:0|0:0|0:0,0:0:0:0:
444,180,17456,1,2,0:2:0:0:
472,276,17799,2,0,P|485:323|520:359,2,100,0|0|0,1:0|0:0|0:0,0:0:0:0:
376,252,18827,1,2,0:2:0:0:
276,260,19170,6,0,L|82:311,1,200,0|0,1:0|0:0,0:0:0:0:
4,128,20542,2,0,L|197:76,1,200,0|0,1:0|0:0,0:0:0:0:
396,88,21913,6,0,B|356:138|356:138|347:215|268:226|268:226|257:305|181:314|181:314|130:353,1,400,0|0,1:0|1:0,0:0:0:0:
36,324,23627,5,2,0:2:0:0:
8,228,23970,1,2,0:2:0:0:
4,128,24313,1,2,0:2:0:0:
84,68,24656,6,0,P|156:77|201:136,1,150,4|0,1:1|0:0,0:0:0:0:
240,228,25513,2,0,B|273:265|304:260|304:260|315:289|364:300,1,150,0|0,0:0|1:0,0:0:0:0:
464,296,26370,1,0,0:0:0:0:
504,204,26713,1,0,0:0:0:0:
444,124,27056,1,0,0:0:0:0:
360,68,27399,6,0,P|418:23|491:32,2,150,0|0|0,1:0|0:0|0:0,0:0:0:0:
299,147,28770,2,0,L|240:227,1,100,0|0,1:0|0:0,0:0:0:0:
300,308,29456,2,0,L|358:227,1,100
299,147,30142,5,0,1:0:0:0:
216,92,30484,2,0,B|144:92|104:32|104:32|44:60,1,200
20,156,31513,1,0,1:0:0:0:
28,256,31856,2,0,P|41:303|75:339,2,100,0|0|0,0:0|0:0|0:0,0:0:0:0:
20,156,32884,5,0,1:0:0:0:
117,128,33227,2,0,B|168:97|208:137|208:137|248:178|299:147,1,200
392,112,34256,1,0,1:0:0:0:
392,112,34599,2,0,P|417:69|459:44,2,100,0|0|0,0:0|0:0|0:0,0:0:0:0:
376,212,35627,6,0,B|440:236|440:300|440:300|468:320,2,150,4|0|0,1:2|0:0|0:0,0:0:0:0:
276,192,36999,1,0,1:0:0:0:
204,260,37342,2,0,P|168:294|120:308,1,100
28,272,38027,1,0,0:0:0:0:
0,176,38370,5,0,1:0:0:0:
48,88,38713,2,0,B|79:81|79:81|101:88|114:73|114:73|127:58|149:66|149:66|171:73|188:58|188:58|205:42|227:49|227:49|250:57|263:42|263:42|276:27|298:34|298:34|329:28,1,300,0|0,0:0|1:0,0:0:0:0:
424,52,40084,2,0,P|469:139|443:234,1,200
352,272,41113,6,0,P|277:271|212:309,1,150,0|0,1:0|0:0,0:0:0:0:
120,344,41970,2,0,L|68:338,1,50
256,192,42484,12,0,45227,1:0:0:0:
200,220,46599,6,0,P|141:175|68:184,2,150,4|0|2,1:2|0:0|0:2,0:0:0:0:
256,304,47970,1,0,1:2:0:0:
336,364,48313,2,0,P|384:376|432:364,1,100,0|0,0:0|0:0,0:0:0:0:
512,304,48999,1,2,0:2:0:0:
472,212,49342,6,0,B|432:156|456:88|456:88|392:60,1,200,0|0,1:0|0:0,0:0:0:0:
296,88,50370,1,2,0:2:0:0:
236,168,50713,2,0,L|186:254,1,100,0|0,1:0|0:0,0:0:0:0:
284,268,51399,2,0,L|334:181,1,100,0|2,0:0|0:2,0:0:0:0:
296,88,52084,5,0,1:0:0:0:
200,60,52427,2,0,P|102:74|40:151,1,200,0|2,0:0|0:2,0:0:0:0:
60,248,53456,1,0,1:0:0:0:
140,308,53799,2,0,P|182:333|207:375,2,100,0|0|2,0:0|0:0|0:2,0:0:0:0:
60,248,54827,5,0,1:0:0:0:
152,208,55170,2,0,B|224:220|256:268|256:268|328:292,1,200,0|2,0:0|0:2,0:0:0:0:
428,280,56199,1,0,1:0:0:0:
476,192,56542,2,0,P|414:114|316:100,1,200,0|2,0:0|0:2,0:0:0:0:
220,116,57570,6,0,P|152:88|84:116,2,150,4|0|2,1:2|0:0|0:2,0:0:0:0:
284,192,58942,1,0,1:0:0:0:
312,288,59284,2,0,B|328:344|328:344|268:388|192:368,1,200,0|2,0:0|0:2,0:0:0:0:
100,332,60313,6,0,P|41:285|15:215,2,150,0|0|2,1:0|0:0|0:2,0:0:0:0:
180,272,61684,1,0,1:0:0:0:
190,172,62027,2,0,P|239:170|283:191,2,100,0|0|2,0:0|0:0|0:2,0:0:0:0:
256,192,63056,12,0,67170,0:0:0:0:
256,300,68542,6,0,B|329:312|329:312|399:284,2,150,4|0|2,1:2|0:0|0:2,0:0:0:0:
168,252,69913,2,0,B|108:192|136:116|136:116|180:88,1,200,4|0,1:2|0:0,0:0:0:0:
280,92,70942,1,2,0:2:0:0:
348,164,71284,6,0,P|397:164|440:188,2,100,4|0|0,1:2|0:0|0:0,0:0:0:0:
256,204,72313,1,2,0:2:0:0:
168,252,72656,2,0,B|80:296|80:296|-8:224|36:116,1,300,4|2,1:2|0:2,0:0:0:0:
138,106,74027,6,0,P|211:118|281:90,1,150,4|0,1:2|0:0,0:0:0:0:
376,64,74884,1,2,0:2:0:0:
436,200,75399,2,0,P|369:233|328:296,1,150,4|0,1:2|0:0,0:0:0:0:
374,383,76256,1,2,0:2:0:0:
475,276,76770,6,0,P|518:191|458:116,1,200,4|0,1:2|0:0,0:0:0:0:
376,64,77799,1,2,0:2:0:0:
328,152,78142,2,0,P|302:194|260:219,1,100,4|0,1:2|0:0,0:0:0:0:
164,248,78827,1,4,1:2:0:0:
64,240,79170,1,6,1:2:0:0:
16,152,79513,6,0,P|6:79|51:20,2,150,4|0|2,1:2|0:0|0:2,0:0:0:0:
64,240,80884,2,0,B|80:320|144:340|144:340|208:340,1,200,4|0,1:2|0:0,0:0:0:0:
308,340,81913,1,2,0:2:0:0:
400,300,82256,5,4,1:2:0:0:
440,208,82599,2,0,P|389:123|304:72,1,200,0|2,0:0|0:2,0:0:0:0:
204,72,83627,2,0,L|107:46,2,100,4|0|0,1:2|0:0|0:0,0:0:0:0:
256,160,84656,2,0,B|280:190|265:227|265:227|303:275|286:305|286:305|305:345,1,200,2|0,0:2|0:0,0:0:0:0:
256,192,85684,12,0,89113,1:0:0:0:
88,276,90484,6,0,B|28:216|28:216|28:152|80:120,1,200,4|0,1:2|0:0,0:0:0:0:
172,76,91513,1,2,0:2:0:0:
256,132,91856,2,0,B|320:156|364:120|364:120|448:136,1,200,0|0,1:0|0:0,0:0:0:0:
508,216,92884,1,2,0:2:0:0:
440,288,93227,6,0,P|464:331|464:380,2,100,0|0|0,1:0|0:0|0:0,0:0:0:0:
380,208,94256,1,2,0:2:0:0:
300,148,94599,2,0,L|274:51,2,100,0|0|0,1:0|0:0|0:0,0:0:0:0:
288,248,95627,1,2,0:2:0:0:
220,320,95970,5,0,1:0:0:0:
124,352,96313,1,0,0:0:0:0:
28,320,96656,2,0,B|7:273|7:273|17:224,1,100,0|2,0:0|0:2,0:0:0:0:
104,172,97342,1,0,1:0:0:0:
204,192,97684,1,0,0:0:0:0:
288,248,98027,2,0,P|323:282|371:296,1,100,0|2,0:0|0:2,0:0:0:0:
472,296,98713,6,0,B|472:244|436:220|436:220|448:160,1,150,0|0,1:0|0:0,0:0:0:0:
436,60,99570,2,0,L|385:46,1,50,0|2,0:0|0:2,0:0:0:0:
288,40,100084,2,0,B|236:40|212:76|212:76|152:64,1,150,0|0,1:0|0:0,0:0:0:0:
52,76,100941,2,0,L|38:126,1,50,0|2,0:0|0:2,0:0:0:0:
17,225,101456,6,0,P|30:272|65:308,1,100,4|0,1:2|0:0,0:0:0:0:
164,288,102142,2,0,P|176:240|164:192,1,100,0|2,0:0|0:2,0:0:0:0:
192,96,102827,2,0,P|235:71|284:71,1,100,0|0,1:0|0:0,0:0:0:0:
364,132,103513,2,0,P|376:180|364:228,1,100,0|2,0:0|0:2,0:0:0:0:
312,316,104199,6,0,P|347:350|394:363,2,100,0|0|0,1:0|0:0|0:0,0:0:0:0:
256,232,105227,1,2,0:2:0:0:
164,192,105570,2,0,P|117:208|68:202,2,100,0|0|0,1:0|0:0|0:0,0:0:0:0:
256,152,106599,1,2,0:2:0:0:
336,92,106942,6,0,P|434:81|513:139,1,200,0|0,1:0|0:0,0:0:0:0:
432,320,108313,2,0,P|333:330|254:272,1,200,0|0,1:0|0:0,0:0:0:0:
176,92,109684,6,0,P|77:81|-1:139,1,200,0|0,1:0|0:0,0:0:0:0:
80,320,111056,1,4,0:0:0:0:
380,220,134370,6,0,B|415:241|416:282|416:282|416:323|452:344,2,150,4|0|2,1:2|0:0|0:2,0:0:0:0:
308,148,135742,1,0,1:0:0:0:
228,88,136084,2,0,P|136:52|44:88,1,200,0|2,0:0|0:2,0:0:0:0:
0,176,137113,6,0,B|0:232|0:232|24:308|108:308,1,200,0|0,1:0|0:0,0:0:0:0:
208,292,138142,1,2,0:2:0:0:
256,204,138484,2,0,P|319:133|410:162,1,200,0|0,1:0|0:0,0:0:0:0:
472,240,139513,1,2,0:2:0:0:
416,324,139856,6,0,P|462:340|511:334,2,100,0|0|0,1:0|0:0|0:0,0:0:0:0:
328,272,140884,1,2,0:2:0:0:
256,204,141227,2,0,L|114:62,1,200,0|0,1:0|0:0,0:0:0:0:
16,44,142256,1,2,0:2:0:0:
0,144,142599,5,0,1:0:0:0:
48,232,142942,2,0,B|164:256|164:256|188:300|232:300,1,200,0|2,0:0|0:2,0:0:0:0:
328,272,143970,1,0,1:0:0:0:
360,176,144313,2,0,B|392:108|460:108|460:108|500:168,1,200,0|2,0:0|0:2,0:0:0:0:
436,244,145342,6,0,P|436:317|385:370,2,150,4|0|2,1:2|0:0|0:2,0:0:0:0:
360,176,146714,1,0,1:0:0:0:
272,128,147056,2,0,P|176:104|80:128,1,200,0|2,0:0|0:2,0:0:0:0:
20,208,148084,6,0,B|-3:241|12:279|12:279|29:316|4:350,2,150,0|0|2,1:0|0:0|0:2,0:0:0:0:
80,128,149456,1,0,1:0:0:0:
160,68,149799,2,0,P|209:66|253:87,2,100,0|0|2,0:0|0:0|0:2,0:0:0:0:
256,192,150828,12,0,154942,0:0:0:0:
256,88,156314,6,0,P|328:68|400:88,2,150,4|0|2,1:2|0:0|0:2,0:0:0:0:
176,148,157685,2,0,B|116:208|144:284|144:284|188:312,1,200,4|0,1:2|0:0,0:0:0:0:
284,336,158714,1,2,0:2:0:0:
384,324,159056,6,0,P|427:348|476:348,2,100,4|0|0,1:2|0:0|0:0,0:0:0:0:
324,244,160085,1,2,0:2:0:0:
276,156,160428,2,0,B|204:68|100:104|100:104|48:192,1,300,4|2,1:2|0:2,0:0:0:0:
64,292,161799,6,0,P|115:344|187:363,1,150,4|0,1:2|0:0,0:0:0:0:
284,336,162656,1,2,0:2:0:0:
240,192,163171,2,0,P|266:121|324:75,1,150,4|0,1:2|0:0,0:0:0:0:
420,48,164028,1,2,0:2:0:0:
512,164,164542,6,0,B|489:203|489:203|461:214|461:214|435:257|435:257|407:268|407:268|376:299,1,200,4|0,1:2|0:0,0:0:0:0:
284,336,165571,1,2,0:2:0:0:
216,264,165914,2,0,P|184:226|138:207,1,100,4|0,1:2|0:0,0:0:0:0:
40,188,166599,1,4,1:2:0:0:
0,96,166942,1,6,1:2:0:0:
100,108,167285,6,0,P|172:89|224:35,2,150,4|0|2,1:2|0:0|0:2,0:0:0:0:
40,188,168656,2,0,B|12:284|88:324|88:324|128:308,1,200,4|0,1:2|0:0,0:0:0:0:
216,264,169685,1,2,0:2:0:0:
284,192,170028,5,4,1:2:0:0:
332,104,170371,2,0,P|422:74|486:145,1,200,0|2,0:0|0:2,0:0:0:0:
480,244,171399,2,0,L|505:340,2,100,4|0|0,1:2|0:0|0:0,0:0:0:0:
392,192,172428,2,0,B|359:171|324:190|324:190|272:157|244:177|244:177|202:162,1,200,2|0,0:2|0:0,0:0:0:0:
256,192,173456,12,0,176885,1:0:0:0:
204,164,177570,5,0,0:0:0:0:
284,104,177913,1,0,0:0:0:0:
384,96,178256,6,0,B|392:144|352:180|352:180|384:280,1,200,4|0,1:2|0:0,0:0:0:0:
304,340,179284,1,2,0:2:0:0:
204,348,179627,2,0,B|196:300|236:264|236:264|204:164,1,200,0|0,1:0|0:0,0:0:0:0:
120,108,180656,1,2,0:2:0:0:
32,156,180999,6,0,P|25:204|42:251,1,100,4|4,1:2|1:2,0:0:0:0:
111,323,181684,2,0,P|160:323|203:347,1,100,4|6,1:2|1:2,0:0:0:0:
304,340,182370,2,0,P|401:325|463:247,1,200,0|0,1:0|0:0,0:0:0:0:
436,152,183399,1,2,0:2:0:0:
376,72,183742,6,0,B|316:48|316:48|256:92|188:72,1,200,0|0,1:0|0:0,0:0:0:0:
92,100,184770,1,2,0:2:0:0:
136,192,185113,2,0,B|196:216|196:216|256:172|324:192,1,200,0|0,1:0|0:0,0:0:0:0:
372,280,186142,1,2,0:2:0:0:
280,316,186484,5,4,1:2:0:0:
184,344,186827,2,0,B|134:354|134:354|88:333,1,100,4|4,1:2|1:2,0:0:0:0:
32,252,187513,1,6,1:2:0:0:
40,152,187856,2,0,L|126:102,1,100,0|0,1:0|0:0,0:0:0:0:
220,64,188542,2,0,P|268:52|316:64,2,100,0|2|4,0:0|0:2|1:2,0:0:0:0:
126,102,189570,5,0,0:0:0:0:
108,200,189913,1,0,0:0:0:0:
164,280,190256,2,0,P|256:316|348:280,1,200,2|0,0:2|0:0,0:0:0:0:
404,200,191284,1,0,0:0:0:0:
386,102,191627,1,2,0:2:0:0:
284,112,191970,6,0,P|234:117|194:146,1,100,4|4,1:2|1:2,0:0:0:0:
108,200,192656,2,0,P|58:205|18:234,1,100,4|6,1:2|1:2,0:0:0:0:
0,332,193342,2,0,B|20:356|56:360|56:360|192:368,1,200,0|0,1:0|0:0,0:0:0:0:
292,356,194370,1,2,0:2:0:0:
338,266,194713,6,0,B|352:211|405:201|405:201|386:100,1,200,0|0,1:0|0:0,0:0:0:0:
308,40,195742,1,2,0:2:0:0:
232,104,196084,2,0,B|204:152|233:197|233:197|149:254,1,200,0|0,1:0|0:0,0:0:0:0:
52,236,197113,1,2,0:2:0:0:
80,140,197456,6,0,P|105:97|147:72,2,100,4|4|4,1:2|1:2|1:2,0:0:0:0:
52,236,198484,1,6,1:2:0:0:
80,332,198827,1,0,1:0:0:0:
176,360,199170,1,0,1:0:0:0:
272,332,199513,2,0,P|314:306|339:264,1,100,0|2,0:0|0:2,0:0:0:0:
368,168,200199,5,4,0:1:0:0:
