osu file format v13

[General]
AudioFilename: point.mp3
AudioLeadIn: 0
PreviewTime: 68542
Countdown: 0
SampleSet: None
StackLeniency: 0.7
Mode: 0
LetterboxInBreaks: 1
WidescreenStoryboard: 0

[Editor]
Bookmarks: 1342,2713,13684,24656,35627,46599,57570,68542,79513,90484,101456,112427,123399,134370,145342,156313,167284,178256,189227,200199,211170
DistanceSpacing: 1
BeatDivisor: 4
GridSize: 4
TimelineZoom: 1.6

[Metadata]
Title:Point
TitleUnicode:ポイント
Artist:Perfume
ArtistUnicode:Perfume
Creator:asaink
Version:Hard
Source:
Tags:
BeatmapID:448459
BeatmapSetID:172891

[Difficulty]
HPDrainRate:5
CircleSize:4
OverallDifficulty:6
ApproachRate:8
SliderMultiplier:1.4
SliderTickRate:1

[Events]
//Background and Video events
0,0,"BG.jpg",0,0
//Break Periods
2,112427,131970
//Storyboard Layer 0 (Background)
//Storyboard Layer 1 (Fail)
//Storyboard Layer 2 (Pass)
//Storyboard Layer 3 (Foreground)
//Storyboard Sound Samples
//Background Colour Transformations
3,100,0,0,0

[TimingPoints]
1342,342.857142857143,4,3,0,90,1,0
68542,-100,4,3,0,95,0,1
89113,-100,4,3,0,90,0,0
101456,-100,4,3,0,70,0,0
110970,-100,4,3,0,100,0,0
132999,-100,4,3,0,90,0,0
156313,-100,4,3,0,95,0,1
176884,-100,4,3,0,90,0,0

[Colours]
Combo1 : 255,255,128
Combo2 : 0,255,255
Combo3 : 255,128,0
Combo4 : 0,128,255
Combo5 : 0,255,128

[HitObjects]
200,340,2027,6,0,P|236:338|265:322,2,70,2|0|2,0:0|0:0|0:0,0:0:0:0:
120,312,2542,1,0,0:0:0:0:
120,312,2627,1,0,0:0:0:0:
120,312,2713,6,0,P|80:256|86:188,1,140,4|2,1:2|0:2,0:0:0:0:
144,128,3227,1,0,0:0:0:0:
220,92,3399,2,0,B|269:62|306:107|355:77,1,140,0|2,0:0|0:2,0:0:0:0:
436,52,3913,1,0,0:0:0:0:
436,52,4084,6,0,B|448:100|416:136|416:136|428:184,1,140,0|2,1:0|0:2,0:0:0:0:
444,268,4599,1,0,0:0:0:0:
416,348,4770,2,0,P|350:371|280:362,1,140,0|2,0:0|0:2,0:0:0:0:
200,340,5284,1,0,0:0:0:0:
145,276,5456,6,0,P|123:305|117:338,2,70,0|0|2,1:0|0:0|0:2,0:0:0:0:
212,224,5970,2,0,P|264:180|276:113,1,140
252,32,6484,1,2,0:2:0:0:
172,56,6656,1,0,0:0:0:0:
92,32,6827,6,0,P|55:27|24:39,2,70,0|0|2,1:0|0:0|0:2,0:0:0:0:
172,56,7342,2,0,B|172:92|136:108|136:108|112:176,1,140,0|0,0:0|0:0,0:0:0:0:
88,256,7856,1,2,0:2:0:0:
116,336,8027,1,0,0:0:0:0:
192,372,8199,6,0,P|260:378|315:338,1,140,0|2,1:0|0:2,0:0:0:0:
372,276,8713,1,0,0:0:0:0:
432,216,8884,2,0,L|421:177,4,35,0|0|0|0|2,0:0|0:0|0:0|0:0|0:2,0:0:0:0:
452,300,9399,1,0,0:0:0:0:
372,276,9570,6,0,P|325:226|340:160,1,140,0|2,1:0|0:2,0:0:0:0:
392,96,10084,1,0,0:0:0:0:
476,116,10256,2,0,L|507:98,4,35,0|0|0|0|2,0:0|0:0|0:0|0:0|0:2,0:0:0:0:
424,184,10770,1,0,0:0:0:0:
340,160,10942,6,0,P|271:153|216:193,1,140,0|2,1:0|0:2,0:0:0:0:
160,256,11456,1,0,0:0:0:0:
20,160,11799,1,0,0:0:0:0:
20,160,11970,2,0,L|-5:92,1,70,2|0,0:2|0:0,0:0:0:0:
80,104,12313,6,0,P|146:121|207:90,1,140,0|2,1:0|0:2,0:0:0:0:
276,40,12827,1,0,0:0:0:0:
400,120,13170,1,0,0:0:0:0:
400,120,13342,2,0,L|458:162,1,70,2|0,0:2|0:0,0:0:0:0:
500,232,13684,6,0,B|476:260|436:248|436:248|372:276,1,140,4|2,1:2|0:2,0:0:0:0:
300,320,14199,2,0,B|276:348|236:336|236:336|172:364,1,140,0|0,0:0|0:0,0:0:0:0:
88,360,14713,1,2,0:2:0:0:
16,316,14884,1,0,0:0:0:0:
12,232,15056,6,0,P|67:192|135:198,1,140,0|2,1:0|0:2,0:0:0:0:
220,216,15570,2,0,P|288:222|343:182,1,140
400,120,16084,1,2,0:2:0:0:
436,44,16256,1,0,0:0:0:0:
352,48,16427,6,0,P|316:40|284:48,2,70,0|0|2,1:0|0:0|0:2,0:0:0:0:
400,120,16942,2,0,P|436:128|468:120,2,70
316,120,17456,1,2,0:2:0:0:
236,96,17627,1,0,0:0:0:0:
152,104,17799,6,0,P|116:96|84:104,2,70,0|0|2,1:0|0:0|0:2,0:0:0:0:
200,172,18313,2,0,P|236:180|268:172,2,70
116,172,18827,1,2,0:2:0:0:
36,196,18999,1,0,0:0:0:0:
60,276,19170,6,0,P|132:345|230:321,1,210,0|0,1:0|0:0,0:0:0:0:
312,300,19856,2,0,P|412:297|464:212,1,210
440,132,20542,6,0,P|367:62|269:86,1,210,0|0,1:0|0:0,0:0:0:0:
188,108,21227,2,0,P|87:110|35:196,1,210
256,192,21913,12,0,23284,1:0:0:0:
152,287,23627,5,2,0:2:0:0:
66,201,23970,1,2,0:2:0:0:
185,169,24313,1,2,0:2:0:0:
252,268,24656,6,0,P|310:301|377:287,1,140,4|0,1:1|0:0,0:0:0:0:
444,232,25170,1,0,0:0:0:0:
476,64,25513,1,0,0:0:0:0:
396,40,25684,2,0,P|326:49|269:88,1,140,0|0,0:0|1:0,0:0:0:0:
185,169,26370,5,0,0:0:0:0:
143,241,26713,1,0,0:0:0:0:
101,314,27056,1,0,0:0:0:0:
176,352,27399,6,0,P|212:360|244:352,2,70,0|0|0,1:0|0:0|0:0,0:0:0:0:
101,314,27913,2,0,B|72:304|60:264|60:264|24:248|8:216,1,140
0,132,28427,1,0,0:0:0:0:
104,40,28770,6,0,P|171:51|214:104,1,140,0|0,1:0|0:0,0:0:0:0:
236,185,29284,1,0,0:0:0:0:
258,267,29456,2,0,P|301:319|368:331,1,140
451,309,29970,1,0,0:0:0:0:
500,240,30142,6,0,P|524:267|533:298,2,70,0|0|0,1:0|0:0|0:0,0:0:0:0:
440,180,30656,2,0,L|326:97,1,140
258,48,31170,1,0,0:0:0:0:
100,100,31513,6,0,P|47:143|35:210,1,140,0|0,1:0|0:0,0:0:0:0:
100,336,32199,1,0,0:0:0:0:
100,336,32370,1,0,0:0:0:0:
180,360,32542,2,0,P|216:364|247:352,1,70
312,300,32884,6,0,B|346:263|312:204|347:168,1,140,0|0,1:0|0:0,0:0:0:0:
416,120,33399,2,0,P|468:163|480:230,2,140
340,84,34256,5,0,1:0:0:0:
207,122,34599,2,0,L|243:184,1,70
259,212,34856,1,0,0:0:0:0:
276,240,34942,2,0,L|311:302,1,70
256,364,35284,1,0,0:0:0:0:
172,380,35456,1,0,0:0:0:0:
124,312,35627,6,0,P|67:273|4:299,1,140,4|0,1:2|0:0,0:0:0:0:
60,345,36142,2,0,L|74:205,1,140
84,120,36656,1,0,0:0:0:0:
259,212,36999,6,0,L|223:274,2,70,0|0|0,1:0|0:0|0:0,0:0:0:0:
380,40,37856,1,0,0:0:0:0:
380,40,38027,2,0,P|413:54|435:79,1,70
460,160,38370,6,0,P|466:228|426:283,1,140,0|0,1:0|0:0,0:0:0:0:
360,336,38884,2,0,P|300:369|233:356,1,140
164,308,39399,2,0,P|118:256|118:188,1,140,0|0,0:0|1:0,0:0:0:0:
268,129,40084,6,0,L|232:191,1,70
216,220,40342,1,0,0:0:0:0:
200,247,40427,2,0,L|164:309,1,70
96,356,40770,1,0,0:0:0:0:
96,356,40942,1,0,0:0:0:0:
24,320,41113,6,0,B|36:292|64:284|64:284|108:212,1,140,0|0,1:0|0:0,0:0:0:0:
156,144,41627,1,0,0:0:0:0:
300,276,41970,1,0,0:0:0:0:
360,336,42142,1,0,0:0:0:0:
496,264,42484,6,0,P|440:224|372:230,1,140,0|0,1:0|0:0,0:0:0:0:
299,275,42999,2,0,P|231:282|176:243,1,140
132,172,43513,1,0,0:0:0:0:
108,92,43684,1,0,0:0:0:0:
256,192,43856,12,0,45227,1:0:0:0:
108,92,45570,6,0,L|139:74,3,35
168,64,45913,2,0,L|207:59,3,35
236,64,46256,2,0,L|274:74,3,35
300,84,46599,6,0,P|359:120|396:180,1,140,4|2,1:2|0:2,0:0:0:0:
400,264,47112,1,0,0:0:0:0:
400,264,47198,1,0,0:0:0:0:
400,264,47284,2,0,B|360:272|336:244|336:244|268:252,1,140,0|2,0:0|0:2,0:0:0:0:
184,264,47799,1,0,0:0:0:0:
108,228,47970,6,0,P|83:200|74:169,1,70,0|0,1:0|0:0,0:0:0:0:
108,92,48313,2,0,P|163:52|231:58,2,140,2|0|2,0:2|0:0|0:2,0:0:0:0:
74,169,49170,1,0,0:0:0:0:
104,248,49342,6,0,B|129:266|129:266|147:304|188:309|188:309|214:327,1,140,0|2,1:0|0:2,0:0:0:0:
297,327,49856,2,0,B|323:309|323:309|364:304|382:266|382:266|408:248,1,140
472,192,50370,1,2,0:2:0:0:
500,112,50542,1,0,0:0:0:0:
476,32,50713,5,0,1:0:0:0:
476,32,50799,1,0,0:0:0:0:
476,32,50884,2,0,P|439:27|408:39,1,70,0|2,0:0|0:2,0:0:0:0:
340,88,51227,1,0,0:0:0:0:
304,164,51399,2,0,L|285:233,1,70
384,212,51742,2,0,L|402:142,1,70,2|0,0:2|0:0,0:0:0:0:
340,88,52084,6,0,B|296:72|260:92|260:92|204:84,1,140,0|2,1:0|0:2,0:0:0:0:
120,100,52599,1,0,0:0:0:0:
120,100,52684,1,0,0:0:0:0:
120,100,52770,2,0,P|96:165|105:235,1,140,0|2,0:0|0:2,0:0:0:0:
152,304,53284,1,0,0:0:0:0:
228,340,53456,6,0,L|300:340,1,70,0|0,1:0|0:0,0:0:0:0:
376,304,53799,2,0,B|406:279|441:286|441:286|476:293|507:268,2,140,2|0|2,0:2|0:0|0:2,0:0:0:0:
300,340,54656,1,0,0:0:0:0:
228,296,54827,6,0,P|188:240|194:172,1,140,0|2,1:0|0:2,0:0:0:0:
240,100,55342,2,0,P|301:69|367:86,1,140
428,148,55856,2,0,P|452:212|428:276,1,140,2|0,0:2|1:0,0:0:0:0:
228,296,56542,6,0,L|165:259,1,70,2|0,0:2|0:0,0:0:0:0:
141,246,56799,1,0,0:0:0:0:
113,230,56884,2,0,L|50:193,1,70
12,120,57227,1,2,0:2:0:0:
12,120,57399,1,0,0:0:0:0:
84,76,57570,6,0,B|114:51|149:58|149:58|176:34|215:40,1,140,4|2,1:2|0:2,0:0:0:0:
296,40,58084,2,0,B|335:34|362:58|362:58|397:51|428:76,1,140
500,120,58599,1,2,0:2:0:0:
464,284,58942,6,0,P|444:315|415:332,2,70,0|0|2,1:0|0:0|0:2,0:0:0:0:
492,204,59456,1,0,0:0:0:0:
500,120,59627,2,0,P|456:67|389:56,1,140,0|2,0:0|0:2,0:0:0:0:
312,92,60142,1,0,0:0:0:0:
256,156,60313,6,0,P|227:218|165:246,1,140,0|2,1:0|0:2,0:0:0:0:
84,224,60827,2,0,P|38:172|38:104,1,140
100,44,61342,2,0,P|168:37|223:77,1,140,2|0,0:2|1:0,0:0:0:0:
256,156,61856,5,0,0:0:0:0:
292,232,62027,2,0,B|311:266|311:266|317:299|317:299|337:325|337:325|350:363,2,140,2|0|2,0:2|0:0|0:2,0:0:0:0:
256,156,62884,1,0,0:0:0:0:
180,120,63056,6,0,P|113:140|62:188,2,140,0|2|0,1:0|0:2|0:0,0:0:0:0:
264,104,63913,1,0,0:0:0:0:
348,108,64084,2,0,P|383:119|406:142,1,70,2|0,0:2|0:0,0:0:0:0:
428,224,64427,6,0,P|456:286|518:314,2,140,0|2|0,1:0|0:2|0:0,0:0:0:0:
406,142,65284,1,0,0:0:0:0:
452,72,65456,2,0,L|494:13,1,70,2|0,0:2|0:0,0:0:0:0:
256,192,65799,12,0,67170,0:0:0:0:
406,142,67856,6,0,P|438:124|471:124,2,70,4|0|0,0:0|0:0|0:0,0:0:0:0:
352,208,68370,1,0,0:0:0:0:
352,208,68456,1,0,0:0:0:0:
352,208,68542,6,0,B|340:256|288:264|288:264|256:300,1,140,4|2,1:2|0:2,0:0:0:0:
172,312,69056,2,0,P|109:283|81:221,1,140
72,136,69570,1,2,0:2:0:0:
112,60,69742,1,0,0:0:0:0:
196,48,69913,6,0,L|294:146,1,140,4|2,1:2|0:2,0:0:0:0:
352,208,70427,1,0,0:0:0:0:
352,208,70513,1,0,0:0:0:0:
352,208,70599,2,0,P|382:228|415:232,1,70
492,200,70942,1,2,0:2:0:0:
512,120,71113,1,0,0:0:0:0:
432,140,71284,6,0,L|373:97,2,70,4|0|2,1:2|0:0|0:2,0:0:0:0:
492,200,71799,2,0,P|500:267|448:312,1,140
368,328,72313,1,2,0:2:0:0:
284,328,72484,1,0,0:0:0:0:
204,300,72656,6,0,B|162:299|145:266|145:266|127:232|86:231,1,140,4|2,1:2|0:2,0:0:0:0:
20,184,73170,2,0,P|11:116|63:71,2,140
96,148,74027,6,0,B|141:122|141:122|185:119|213:80,1,140,4|2,1:2|0:2,0:0:0:0:
298,80,74542,2,0,B|326:119|370:122|370:122|416:148,1,140
468,216,75056,1,2,0:2:0:0:
444,296,75227,1,0,0:0:0:0:
360,296,75399,6,0,P|292:298|256:355,1,140,4|2,1:2|0:2,0:0:0:0:
328,360,75913,2,0,L|257:238,1,140
212,168,76427,1,2,0:2:0:0:
164,100,76599,1,0,0:0:0:0:
96,148,76770,6,0,P|56:203|62:271,1,140,4|2,1:2|0:2,0:0:0:0:
112,340,77284,1,0,0:0:0:0:
112,340,77370,1,0,0:0:0:0:
112,340,77456,2,0,L|181:321,1,70
260,296,77799,1,2,0:2:0:0:
260,296,77970,1,0,0:0:0:0:
336,260,78142,6,0,B|378:242|374:208|374:208|406:194|400:149,1,140,4|2,1:2|0:2,0:0:0:0:
364,72,78656,2,0,P|328:64|296:72,1,70,4|0,1:2|0:0,0:0:0:0:
224,116,78999,1,0,0:0:0:0:
208,212,79170,1,6,1:2:0:0:
260,296,79342,1,0,0:0:0:0:
212,364,79513,6,0,L|76:327,1,140,4|2,1:2|0:2,0:0:0:0:
16,268,80027,2,0,P|0:200|16:132,1,140
76,72,80542,1,2,0:2:0:0:
160,60,80713,1,0,0:0:0:0:
224,116,80884,6,0,B|259:137|293:134|293:134|344:177,1,140,4|2,1:2|0:2,0:0:0:0:
412,228,81399,2,0,P|477:208|496:143,1,140
444,80,81913,1,2,0:2:0:0:
360,88,82084,1,0,0:0:0:0:
292,136,82256,5,4,1:2:0:0:
292,136,82342,1,0,0:0:0:0:
292,136,82427,2,0,L|241:186,1,70,0|2,0:0|0:2,0:0:0:0:
160,200,82770,2,0,P|97:171|69:109,2,140
216,264,83627,5,4,1:2:0:0:
280,320,83799,1,0,0:0:0:0:
364,324,83970,1,2,0:2:0:0:
444,296,84142,2,0,P|483:240|477:172,1,140
432,100,84656,1,2,0:2:0:0:
356,64,84827,6,0,B|320:44|308:44|288:92|276:92|264:16|248:16|236:92|224:92|204:44|192:44|156:64,1,210,0|2,0:0|0:2,0:0:0:0:
80,100,85513,1,0,0:0:0:0:
104,180,85684,2,0,L|202:278,1,140,0|2,0:0|0:2,0:0:0:0:
288,272,86199,1,0,0:0:0:0:
264,192,86370,6,0,L|165:93,1,140,0|2,1:0|0:2,0:0:0:0:
80,100,86884,1,0,0:0:0:0:
104,180,87056,2,0,L|202:278,1,140,0|2,0:0|0:2,0:0:0:0:
256,192,87570,12,0,89113,1:0:0:0:
200,280,89799,6,0,P|185:313|160:335,2,70,0|0|0,0:0|0:0|0:0,0:0:0:0:
196,196,90313,1,0,0:0:0:0:
160,120,90484,6,0,B|212:100|248:132|248:132|292:120,1,140,4|2,1:2|0:2,0:0:0:0:
376,132,90999,1,0,0:0:0:0:
452,168,91170,2,0,P|482:229|465:295,1,140,0|2,0:0|0:2,0:0:0:0:
396,344,91684,1,0,0:0:0:0:
316,316,91856,6,0,P|250:292|180:301,1,140,0|2,1:0|0:2,0:0:0:0:
100,320,92370,1,0,0:0:0:0:
16,328,92542,2,0,B|16:280|48:256|48:256|36:200,1,140,0|2,0:0|0:2,0:0:0:0:
40,116,93056,1,0,0:0:0:0:
100,60,93227,6,0,P|133:45|155:20,2,70,0|0|2,1:0|0:0|0:2,0:0:0:0:
40,116,93742,2,0,L|157:192,1,140
227,237,94256,1,2,0:2:0:0:
298,283,94427,1,0,0:0:0:0:
372,324,94599,6,0,P|386:357|411:379,2,70,0|0|2,1:0|0:0|0:2,0:0:0:0:
420,256,95113,2,0,P|459:200|453:132,1,140
404,64,95627,1,2,0:2:0:0:
324,40,95799,1,0,0:0:0:0:
256,88,95970,6,0,P|200:127|132:121,1,140,0|2,1:0|0:2,0:0:0:0:
56,84,96484,1,0,0:0:0:0:
56,84,96656,2,0,L|38:52,4,35,0|0|0|0|2,0:0|0:0|0:0|0:0|0:2,0:0:0:0:
64,168,97170,1,0,0:0:0:0:
108,240,97342,6,0,B|140:284|188:272|188:272|232:296,1,140,0|2,1:0|0:2,0:0:0:0:
312,316,97856,1,0,0:0:0:0:
396,312,98027,2,0,L|430:321,4,35,0|0|0|0|2,0:0|0:0|0:0|0:0|0:2,0:0:0:0:
348,240,98542,1,0,0:0:0:0:
304,168,98713,6,0,P|236:155|177:190,1,140,0|2,1:0|0:2,0:0:0:0:
108,240,99227,1,0,0:0:0:0:
0,112,99570,1,0,0:0:0:0:
0,112,99742,2,0,L|64:79,1,70,2|0,0:2|0:0,0:0:0:0:
140,48,100084,6,0,P|208:32|276:48,1,140,0|2,1:0|0:2,0:0:0:0:
352,84,100599,1,0,0:0:0:0:
480,192,100942,1,0,0:0:0:0:
480,192,101113,2,0,P|488:224|480:260,1,70,2|0,0:2|0:0,0:0:0:0:
420,320,101456,6,0,L|350:338,1,70,4|0,1:2|0:0,0:0:0:0:
268,338,101799,2,0,L|200:319,1,70,2|0,0:2|0:0,0:0:0:0:
140,260,102142,2,0,L|117:232,4,35,0|0|0|0|2,0:0|0:0|0:0|0:0|0:2,0:0:0:0:
200,320,102656,1,0,0:0:0:0:
256,256,102827,6,0,L|298:197,1,70,0|0,1:0|0:0,0:0:0:0:
297,115,103170,2,0,L|255:58,1,70,2|0,0:2|0:0,0:0:0:0:
176,32,103513,2,0,L|140:28,4,35,0|0|0|0|2,0:0|0:0|0:0|0:0|0:2,0:0:0:0:
192,116,104027,1,0,0:0:0:0:
228,192,104199,6,0,L|299:199,2,70,0|0|2,1:0|0:0|0:2,0:0:0:0:
144,184,104713,2,0,P|75:184|24:229,1,140
44,312,105227,1,2,0:2:0:0:
108,368,105399,1,0,0:0:0:0:
192,364,105570,6,0,P|228:359|259:371,2,70,0|0|2,1:0|0:0|0:2,0:0:0:0:
108,368,106084,2,0,B|108:320|144:296|144:296|144:240,1,140
144,156,106599,1,2,0:2:0:0:
180,80,106770,1,0,0:0:0:0:
256,44,106942,6,0,P|357:35|427:109,1,210,0|0,1:0|0:0,0:0:0:0:
448,192,107627,2,0,P|429:292|339:340,1,210
256,340,108313,6,0,P|154:348|84:274,1,210,0|0,1:0|0:0,0:0:0:0:
64,192,108999,2,0,P|82:91|172:43,1,210
256,44,109684,5,0,1:0:0:0:
400,132,110027,1,2,0:2:0:0:
440,296,110370,2,0,P|476:304|508:296,2,70,0|0|2,0:0|0:0|0:2,0:0:0:0:
364,260,110884,1,0,0:0:0:0:
288,224,111056,5,4,0:0:0:0:
256,240,132999,6,0,P|311:279|379:273,1,140
492,192,133684,2,0,L|482:157,3,35,0|0|0|0,0:0|0:0|0:0|0:0,0:0:0:0:
464,128,134027,2,0,L|434:106,3,35,0|0|0|0,0:0|0:0|0:0|0:0,0:0:0:0:
404,92,134370,6,0,P|336:76|268:92,1,140,4|2,1:2|0:2,0:0:0:0:
184,140,134883,1,0,0:0:0:0:
184,140,134969,1,0,0:0:0:0:
184,140,135056,2,0,B|168:192|116:208|116:208|104:248,1,140,0|2,0:0|0:2,0:0:0:0:
124,328,135570,1,0,0:0:0:0:
196,372,135742,6,0,P|232:380|264:372,1,70,0|0,1:0|0:0,0:0:0:0:
336,328,136084,2,0,P|404:321|459:361,2,140,2|0|2,0:2|0:0|0:2,0:0:0:0:
256,304,136941,1,0,0:0:0:0:
184,260,137113,6,0,B|150:243|150:243|135:211|104:197|104:197|87:163,1,140,0|2,1:0|0:2,0:0:0:0:
124,88,137627,2,0,B|149:59|149:59|182:54|204:27|204:27|241:20,1,140
320,48,138141,1,2,0:2:0:0:
320,48,138313,1,0,0:0:0:0:
364,120,138484,6,0,P|408:171|476:163,1,140,0|2,1:0|0:2,0:0:0:0:
434,103,138999,2,0,L|383:233,1,140
320,288,139513,2,0,P|287:305|254:305,1,70,2|0,0:2|0:0,0:0:0:0:
172,292,139855,5,0,1:0:0:0:
172,292,139941,1,0,0:0:0:0:
172,292,140027,2,0,L|102:273,1,70,0|2,0:0|0:2,0:0:0:0:
32,232,140370,2,0,B|56:196|92:192|92:192|136:144,1,140
200,88,140884,1,2,0:2:0:0:
200,88,141056,1,0,0:0:0:0:
280,64,141227,6,0,P|347:75|390:128,1,140,0|2,1:0|0:2,0:0:0:0:
376,212,141742,2,0,B|342:249|376:308|341:344,1,140
260,372,142256,1,2,0:2:0:0:
176,356,142427,1,0,0:0:0:0:
100,320,142599,6,0,L|64:316,2,35,0|0|0,1:0|0:0|0:0,0:0:0:0:
168,272,142942,2,0,L|266:173,1,140,2|0,0:2|0:0,0:0:0:0:
326,113,143456,1,0,0:0:0:0:
326,113,143627,2,0,P|303:84|273:70,1,70,2|0,0:2|0:0,0:0:0:0:
192,48,143970,5,0,1:0:0:0:
192,48,144056,1,0,0:0:0:0:
192,48,144142,1,0,0:0:0:0:
116,84,144313,2,0,P|88:146|109:211,1,140,2|0,0:2|0:0,0:0:0:0:
168,272,144827,1,0,0:0:0:0:
240,316,144999,2,0,L|309:334,1,70,2|0,0:2|0:0,0:0:0:0:
392,340,145341,6,0,B|427:322|434:287|434:287|467:273|478:234,1,140,4|2,1:2|0:2,0:0:0:0:
478,149,145856,2,0,B|467:110|434:96|434:96|427:61|392:44,1,140
308,36,146370,1,2,0:2:0:0:
168,272,146713,6,0,L|132:334,2,70,0|0|2,1:0|0:0|0:2,0:0:0:0:
212,200,147227,1,0,0:0:0:0:
256,128,147399,2,0,P|311:88|379:94,1,140,0|2,0:0|0:2,0:0:0:0:
448,144,147913,1,0,0:0:0:0:
472,224,148084,6,0,P|443:286|381:314,1,140,0|2,1:0|0:2,0:0:0:0:
303,279,148599,2,0,P|235:259|167:271,1,140
84,280,149113,2,0,P|31:236|20:169,1,140,2|0,0:2|1:0,0:0:0:0:
56,92,149627,5,0,0:0:0:0:
124,44,149799,2,0,B|160:28|192:44|192:44|224:60|260:44,2,140,2|0|2,0:2|0:0|0:2,0:0:0:0:
56,92,150655,1,0,0:0:0:0:
124,140,150827,6,0,P|193:142|255:175,2,140,0|2|0,1:0|0:2|0:0,0:0:0:0:
76,208,151684,1,0,0:0:0:0:
112,284,151856,2,0,P|139:308|170:317,1,70,2|0,0:2|0:0,0:0:0:0:
256,304,152199,6,0,P|280:240|256:176,2,140,0|2|0,1:0|0:2|0:0,0:0:0:0:
171,318,153055,1,0,0:0:0:0:
88,332,153227,2,0,L|16:339,1,70,2|0,0:2|0:0,0:0:0:0:
256,192,153570,12,0,154941,0:0:0:0:
340,240,155627,6,0,P|332:276|340:308,2,70,4|0|0,0:0|0:0|0:0,0:0:0:0:
368,160,156141,1,0,0:0:0:0:
368,160,156227,1,0,0:0:0:0:
368,160,156313,6,0,B|320:144|284:176|284:176|236:164,1,140,4|2,1:2|0:2,0:0:0:0:
152,152,156827,2,0,P|84:163|41:216,1,140
48,300,157341,1,2,0:2:0:0:
104,364,157513,1,0,0:0:0:0:
184,340,157684,6,0,P|252:324|320:340,1,140,4|2,1:2|0:2,0:0:0:0:
400,364,158198,1,0,0:0:0:0:
400,364,158284,1,0,0:0:0:0:
400,364,158370,2,0,P|433:347|452:321,1,70
492,248,158713,1,2,0:2:0:0:
492,248,158884,1,0,0:0:0:0:
456,172,159056,6,0,P|448:140|456:104,2,70,4|0|2,1:2|0:0|0:2,0:0:0:0:
408,240,159570,2,0,P|341:257|280:226,1,140
224,164,160084,1,2,0:2:0:0:
188,88,160255,1,0,0:0:0:0:
120,40,160427,6,0,B|84:61|85:98|85:98|87:137|52:158,1,140,4|2,1:2|0:2,0:0:0:0:
72,240,160942,2,0,P|69:309|36:371,2,140,0|0|0,0:0|0:0|0:0,0:0:0:0:
56,156,161799,6,0,B|100:148|128:176|128:176|188:164,1,140,4|2,1:2|0:2,0:0:0:0:
272,144,162313,2,0,B|329:124|329:124|340:86|382:71,1,140
464,48,162827,1,2,0:2:0:0:
464,48,162998,1,0,0:0:0:0:
500,124,163170,6,0,P|481:189|424:227,1,140,4|2,1:2|0:2,0:0:0:0:
340,232,163684,2,0,P|270:234|208:267,1,140
132,300,164198,1,2,0:2:0:0:
132,300,164370,1,0,0:0:0:0:
72,240,164542,6,0,P|48:176|72:112,1,140,4|2,1:2|0:2,0:0:0:0:
152,84,165055,1,0,0:0:0:0:
152,84,165141,1,0,0:0:0:0:
152,84,165227,2,0,L|210:126,1,70
274,179,165570,1,2,0:2:0:0:
340,232,165741,1,0,0:0:0:0:
420,256,165913,6,0,B|463:242|463:208|463:208|496:197|495:152,1,140,4|2,1:2|0:2,0:0:0:0:
484,68,166427,2,0,P|449:56|416:60,1,70,4|0,1:2|0:0,0:0:0:0:
336,84,166770,1,0,0:0:0:0:
244,120,166941,1,6,1:2:0:0:
152,84,167113,1,0,0:0:0:0:
72,60,167284,6,0,B|60:96|80:128|80:128|56:192,1,140,4|2,1:2|0:2,0:0:0:0:
72,276,167799,2,0,P|100:338|162:366,1,140
248,360,168313,1,2,0:2:0:0:
316,312,168484,1,0,0:0:0:0:
340,232,168656,6,0,L|354:92,1,140,4|2,1:2|0:2,0:0:0:0:
408,28,169170,2,0,P|475:30|511:88,1,140
504,172,169684,1,2,0:2:0:0:
504,172,169855,1,0,0:0:0:0:
456,244,170027,5,4,1:2:0:0:
456,244,170113,1,0,0:0:0:0:
456,244,170198,2,0,L|393:280,1,70,0|2,0:0|0:2,0:0:0:0:
316,312,170541,2,0,P|254:342|188:325,2,140
340,232,171398,5,4,1:2:0:0:
264,192,171570,1,0,0:0:0:0:
184,220,171741,1,2,0:2:0:0:
116,272,171913,2,0,P|57:236|35:172,1,140
80,100,172427,1,2,0:2:0:0:
156,64,172598,6,0,B|192:44|204:44|224:92|236:92|248:16|264:16|276:92|288:92|308:44|320:44|356:64,1,210,0|2,0:0|0:2,0:0:0:0:
432,100,173284,1,0,0:0:0:0:
408,180,173456,2,0,L|310:278,1,140,0|2,0:0|0:2,0:0:0:0:
224,272,173970,1,0,0:0:0:0:
248,192,174141,6,0,L|347:93,1,140,0|2,1:0|0:2,0:0:0:0:
432,100,174655,1,0,0:0:0:0:
408,180,174827,2,0,L|310:278,1,140,0|2,0:0|0:2,0:0:0:0:
256,192,175341,12,0,176884,1:0:0:0:
188,120,177570,6,0,P|220:128|256:120,2,70,0|0|0,0:0|0:0|0:0,0:0:0:0:
112,84,178084,1,0,0:0:0:0:
112,84,178256,6,0,B|96:120|116:160|116:160|92:216,1,140,4|2,1:2|0:2,0:0:0:0:
56,292,178770,1,0,0:0:0:0:
56,292,178942,2,0,B|92:308|132:288|132:288|188:312,1,140,0|2,0:0|0:2,0:0:0:0:
272,328,179456,1,0,0:0:0:0:
356,320,179627,6,0,P|418:291|446:229,1,140,0|2,1:0|0:2,0:0:0:0:
436,144,180142,1,0,0:0:0:0:
352,144,180313,2,0,P|283:150|228:110,1,140,0|2,0:0|0:2,0:0:0:0:
184,40,180827,1,0,0:0:0:0:
112,84,180999,6,0,P|80:103|63:132,1,70,4|0,1:2|0:0,0:0:0:0:
144,164,181342,2,0,P|119:191|110:222,1,70,6|0,1:2|0:0,0:0:0:0:
196,232,181684,2,0,P|178:264|178:297,1,70,4|0,1:2|0:0,0:0:0:0:
264,288,182027,2,0,P|256:324|264:356,1,70,6|0,1:2|0:0,0:0:0:0:
340,320,182370,6,0,B|356:284|340:252|340:252|324:220|340:184,1,140,0|2,1:0|0:2,0:0:0:0:
340,100,182884,1,0,0:0:0:0:
424,84,183056,2,0,P|459:72|482:50,2,70,0|0|2,0:0|0:0|0:2,0:0:0:0:
340,100,183570,1,0,0:0:0:0:
260,72,183742,6,0,L|238:42,4,35,0|0|0|0|2,1:0|0:0|0:0|0:0|0:2,0:0:0:0:
276,156,184256,1,0,0:0:0:0:
276,156,184427,2,0,P|264:223|212:266,1,140,0|2,0:0|0:2,0:0:0:0:
136,304,184942,1,0,0:0:0:0:
56,332,185113,6,0,L|65:366,4,35,0|0|0|0|2,1:0|0:0|0:0|0:0|0:2,0:0:0:0:
32,252,185627,1,0,0:0:0:0:
92,192,185799,2,0,B|152:176|148:116|148:116|180:100,1,140,0|2,0:0|0:2,0:0:0:0:
260,72,186313,1,0,0:0:0:0:
344,56,186484,6,0,P|412:56|463:101,2,140,4|6|4,1:2|1:2|1:2,0:0:0:0:
200,192,187513,2,0,P|251:237|319:237,2,140,6|0|2,1:2|1:0|0:2,0:0:0:0:
332,144,188542,6,0,L|365:156,3,35,0|0|0|0,0:0|0:0|0:0|0:0,0:0:0:0:
396,172,188884,2,0,L|421:197,3,35,2|0|0|0,0:2|0:0|0:0|0:0,0:0:0:0:
444,224,189227,6,0,B|468:256|468:256|484:308|432:340,1,140,4|2,1:2|0:2,0:0:0:0:
348,360,189742,1,0,0:0:0:0:
272,324,189913,2,0,P|206:300|136:309,1,140,0|2,0:0|0:2,0:0:0:0:
56,332,190427,1,0,0:0:0:0:
56,332,190599,6,0,B|44:292|68:260|68:260|48:200,1,140,0|2,1:0|0:2,0:0:0:0:
20,120,191113,1,0,0:0:0:0:
20,120,191284,2,0,P|84:96|148:120,1,140,0|2,0:0|0:2,0:0:0:0:
212,176,191799,1,0,0:0:0:0:
263,260,191970,6,0,L|244:329,1,70,4|0,1:2|0:0,0:0:0:0:
328,277,192313,2,0,L|397:295,1,70,6|0,1:2|0:0,0:0:0:0:
346,211,192656,2,0,L|364:141,1,70,4|0,1:2|0:0,0:0:0:0:
280,194,192999,2,0,L|210:175,1,70,6|0,1:2|0:0,0:0:0:0:
328,277,193342,6,0,P|392:301|456:277,1,140,0|2,1:0|0:2,0:0:0:0:
504,208,193856,1,0,0:0:0:0:
512,124,194027,2,0,L|530:54,2,70,0|0|2,0:0|0:0|0:2,0:0:0:0:
436,160,194542,1,0,0:0:0:0:
354,177,194713,6,0,L|346:212,4,35,0|0|0|0|2,1:0|0:0|0:0|0:0|0:2,0:0:0:0:
312,104,195227,1,0,0:0:0:0:
312,104,195399,2,0,P|243:96|187:136,1,140,0|2,0:0|0:2,0:0:0:0:
140,204,195913,1,0,0:0:0:0:
112,284,196084,6,0,L|130:315,4,35,0|0|0|0|2,1:0|0:0|0:0|0:0|0:2,0:0:0:0:
56,220,196599,1,0,0:0:0:0:
56,220,196770,2,0,B|37:181|64:156|64:156|53:120|89:96,1,140,0|2,0:0|0:2,0:0:0:0:
160,52,197284,5,0,0:0:0:0:
244,40,197456,2,0,B|284:32|284:32|340:48|340:48|380:40,2,140,4|6|4,1:2|1:2|1:2,0:0:0:0:
89,96,198484,1,6,1:2:0:0:
20,280,198827,5,0,1:0:0:0:
89,96,199170,1,2,1:2:0:0:
256,120,199513,1,0,0:0:0:0:
256,120,199599,1,0,0:0:0:0:
256,120,199684,2,0,P|325:129|382:168,1,140
440,232,200199,5,4,0:1:0:0:
