osu file format v5

[General]
AudioFilename: 11 - Perfume.mp3
AudioLeadIn: 0
PreviewTime: -1
Countdown: 1
SampleSet: Soft
StackLeniency: 1
Mode: 0
LetterboxInBreaks: 1
EditorBookmarks: 13309,13310,39135,42827,47296,49045,51571,57594,59926,60703,61480,62257,63034,69252,81493,88876,92180,93734,94900,97037,98786,101312,107529,109472,111221,112775,128125,129291,136091,138617,141726,146972,148527,151635,170294,181175,188364,189919,193416,196136,199439,206046,208572,226253

[Metadata]
Title:Perfume
Artist:Perfume
Creator:Skyripper
Version:Insane
Source:
Tags:

[Difficulty]
HPDrainRate:7
CircleSize:5
OverallDifficulty:7
SliderMultiplier:1.4
SliderTickRate:2

[Events]
//Background and Video events
0,0,"perfume_compwall32.jpg"
//Break Periods
2,16424,18477
2,22659,23308
2,31986,36715
2,75475,80593
2,154756,156959
//Storyboard Layer 0 (Background)
//Storyboard Layer 1 (Failing)
//Storyboard Layer 2 (Passing)
//Storyboard Layer 3 (Foreground)
//Storyboard Sound Samples
//Background Colour Transformations
3,100,0,0,0

[TimingPoints]
13329,388.621172081455,4,2,0,100,1,0
13488,-100,4,1,0,100,0,0
59828,-100,4,1,0,61,0,0
63034,-100,4,1,0,100,0,1
67309,-100,4,1,0,100,0,0
69252,-100,4,1,0,100,0,1
73527,-100,4,1,0,100,0,0
112775,-100,4,1,0,100,0,1
117439,-100,4,1,0,100,0,0
118993,-100,4,1,0,100,0,1
123656,-100,4,2,0,100,0,0
125405,-100,4,1,0,100,0,0
168740,-100,4,1,0,11,0,0
168934,-100,4,1,0,21,0,0
169129,-100,4,1,0,31,0,0
169323,-100,4,1,0,42,0,0
169517,-100,4,1,0,51,0,0
169711,-100,4,1,0,66,0,0
169906,-100,4,1,0,76,0,0
170100,-100,4,1,0,89,0,0
170294,-100,4,1,0,100,0,1
175346,-100,4,1,0,100,0,0
181175,-100,4,1,0,9,0,0
181369,-100,4,1,0,23,0,0
181564,-100,4,1,0,31,0,0
181758,-100,4,1,0,44,0,0
181952,-100,4,1,0,59,0,0
182147,-100,4,1,0,71,0,0
182341,-100,4,1,0,83,0,0
182535,-100,4,1,0,100,0,0
213720,-100,4,1,0,100,0,1
218092,-100,4,1,0,100,0,0
220035,-100,4,1,0,100,0,1

[Colours]
Combo1 : 166,83,0
Combo2 : 181,34,181
Combo3 : 138,138,253
Combo4 : 255,179,255

[HitObjects]
40,48,13328,1,6
152,48,13717,1,0
264,48,14106,1,0
264,160,14494,1,0
264,272,14883,1,0
152,272,15272,1,0
40,272,15660,5,4
40,208,15855,1,0
40,144,16049,2,0,B|80:120|128:160,1,70,4|0
464,192,19546,6,0,B|400:232|328:192,1,140
332,61,20324,2,0,B|371:130|328:200,1,140
200,192,21101,2,0,B|269:154|336:192,1,140
332,316,21878,5,4
316,255,22072,1,0
333,193,22267,1,4
333,193,22461,1,0
256,192,24210,12,4,25570
48,40,25764,6,2,B|128:40,1,70
120,104,26153,2,0,B|120:160,1,35,0|0
183,139,26444,2,2,B|277:139,1,70
254,201,26833,2,0,B|254:249,1,35,0|0
317,237,27125,1,0
379,237,27319,5,2
316,237,27513,1,2
317,299,27707,2,0,B|317:354,1,35
379,334,27999,1,2
441,334,28193,1,2
440,270,28388,2,0,B|440:200,1,35
439,172,28679,1,0
375,171,28873,6,2,B|295:171,1,70
242,171,29262,1,0
210,171,29359,1,0
146,171,29553,2,2,B|146:242,1,70
208,241,29942,1,0
240,241,30039,1,0
303,242,30234,1,0
256,192,30428,12,6,31788
264,168,37617,5,0
328,168,37812,1,0
328,104,38006,1,0
264,104,38200,2,0,B|56:104|56:344,1,350
119,331,39366,1,0
181,330,39560,1,0
243,329,39755,2,0,B|333:329|333:224,1,140
332,115,40532,2,0,B|246:115|246:211,1,140
248,266,41115,2,0,L|27:266|27:60|103:60|104:200,1,630
167,187,43058,1,8
230,187,43252,1,8
408,224,43835,5,0
421,162,44030,1,0
467,205,44224,1,0
464,264,44418,2,0,B|440:368|304:368|160:288,1,350
136,344,45584,1,0
96,296,45778,1,0
125,240,45973,2,0,B|125:140|226:140,1,140
328,104,46750,1,0
384,136,46944,1,0
416,256,47333,2,0,L|48:256|48:176|264:176,1,630
296,176,49276,5,8
360,176,49470,1,8
392,120,49665,1,0
392,120,49762,1,0
392,120,49859,1,0
328,120,50053,5,8
264,120,50248,1,0
232,176,50442,1,8
296,176,50636,2,0,B|296:376|40:360,1,350,8|0
56,296,51802,1,8
56,232,51996,1,0
56,168,52191,2,0,B|56:80|152:80,1,140,0|8
232,168,52968,2,0,B|320:168|320:56,1,140,0|8
384,80,53551,1,0
384,328,53939,5,2
256,328,54328,1,2
192,328,54522,1,2
160,328,54619,2,0,B|72:328,1,70,2|10
88,232,55105,5,0
88,168,55300,1,10
88,104,55494,1,0
144,136,55688,1,8
144,200,55883,1,0
200,168,56077,1,10
264,168,56271,1,0
328,168,56465,6,0,B|416:168,1,70,10|0
464,168,56854,2,0,B|464:328|248:328,1,280,4|0
208,328,57826,1,8
208,264,58020,1,0
272,264,58214,1,0
272,328,58409,2,0,B|272:168,1,140,0|8
145,188,59186,2,0,B|145:92,1,70,2|2
271,118,59769,1,4
336,120,59963,6,2,B|336:352,1,210,2|10
399,329,60740,2,2,B|399:105,1,210,2|10
464,120,61518,2,2,B|464:344,1,210,2|10
400,330,62295,2,2,B|236:330,1,140,2|14
144,272,63072,5,0
176,216,63266,1,0
208,160,63461,1,0
240,104,63655,1,0
240,104,63752,2,0,B|288:32,2,70
240,104,64238,1,0
344,152,64626,5,0
296,264,65015,1,0
392,264,65307,1,0
344,216,65501,1,0
344,312,65792,5,0
344,376,65987,1,0
288,344,66181,2,0,B|184:344,1,70
152,344,66570,1,0
152,280,66764,1,0
152,248,66861,2,0,B|152:160,1,70
152,112,67250,1,0
152,112,67347,1,0
256,184,67735,1,2
504,184,68124,5,2
256,184,68513,1,2
384,184,68901,1,4
384,312,69290,5,0
320,312,69484,1,0
256,312,69679,1,0
192,312,69873,1,0
192,312,69970,2,0,B|120:312,2,70
192,312,70456,1,0
160,184,70844,5,6
288,184,71233,1,2
384,184,71525,2,0,B|456:184,1,70,2|0
456,280,72010,1,0
456,344,72205,1,0
456,280,72399,1,0
392,280,72593,1,0
328,280,72788,1,0
264,280,72982,1,0
232,280,73079,1,0
168,280,73273,1,0
104,280,73468,1,0
104,280,73565,1,0
104,24,73953,5,2
104,280,74342,1,2
104,24,74731,1,2
232,24,75119,5,4
232,88,75314,1,0
256,192,81532,5,2
320,192,81726,1,8
384,192,81920,1,0
384,256,82114,2,0,B|384:304,1,35,2|0
321,291,82406,1,8
257,291,82600,1,0
193,291,82795,2,0,B|193:235,1,35,2|0
192,192,83086,1,8
192,128,83280,5,0
128,128,83475,1,0
128,192,83669,2,0,B|128:232,1,35,2|0
128,288,83960,1,8
64,288,84155,1,0
64,224,84349,2,0,B|64:168,1,35,2|0
64,128,84640,1,8
64,64,84835,5,0
128,64,85029,1,0
192,64,85223,1,2
224,64,85321,1,0
288,64,85515,1,8
352,64,85709,1,0
352,128,85904,1,2
352,160,86001,1,0
352,224,86195,1,8
352,288,86389,6,0,B|352:328,10,35,0|0|0|0|0|0|0|0|0|0|2
288,288,87555,1,8
224,288,87749,1,8
256,232,87944,6,0,B|240:184|256:96|152:96|136:184|40:184|56:32,1,350,2|0
118,36,89110,1,8
182,36,89304,1,0
246,36,89498,2,0,B|414:36,1,140,0|8
392,168,90275,2,0,B|248:192,1,140,0|8
256,256,90858,2,0,L|256:336|152:336|152:96|72:96,1,490
88,160,92413,5,8
88,224,92607,1,0
88,288,92802,1,8
152,288,92996,1,0
216,288,93190,1,0
216,288,93287,1,0
216,288,93384,1,8
272,256,93579,5,2
328,288,93773,1,8
392,288,93967,1,2
448,256,94162,2,0,B|448:72|176:72,1,350,8|0
200,136,95328,1,2
136,136,95522,1,8
136,200,95716,2,0,B|136:280|248:280,1,140,2|8
343,337,96493,2,0,B|343:273|279:273,1,70,0|8
216,280,97076,2,0,L|32:280|32:40|120:40|120:104|176:104,1,630,0|8
240,104,99019,5,0
304,104,99214,1,8
368,104,99408,1,0
368,136,99505,1,8
368,168,99602,1,0
368,232,99797,5,2
368,296,99991,1,8
304,296,100185,1,2
256,336,100380,2,8,B|48:336|48:80,1,350,8|0
48,107,101546,1,2
49,109,101740,1,8
113,108,101934,2,0,B|193:108|193:204,1,140,2|8
336,192,102711,2,0,B|336:96|248:96,1,140,2|8
256,160,103294,2,0,B|256:256,1,70
256,296,103683,5,2
368,352,104072,1,0
432,352,104266,1,2
448,320,104363,2,0,B|448:224,1,70,0|2
448,152,104849,5,0
384,152,105043,1,8
384,216,105237,1,0
384,280,105432,1,8
328,248,105626,1,0
328,248,105723,1,0
328,248,105820,1,0
328,184,106015,5,10
328,120,106209,1,0
272,152,106403,1,10
208,152,106598,2,8,L|208:48|104:48|104:192,1,350,8|0
104,224,107666,1,0
104,256,107763,1,10
168,256,107958,1,0
232,256,108152,2,0,L|376:256,1,140,0|8
368,128,108929,2,0,L|280:128,1,70
232,128,109318,1,8
256,192,109512,12,0,111261
432,56,112816,5,0
368,56,113010,1,0
368,120,113204,1,0
304,120,113398,1,0
304,120,113496,2,0,B|304:216,2,70
304,120,113981,1,4
176,120,114370,5,6
48,120,114759,1,6
48,216,115050,1,2
112,216,115244,1,0
176,216,115439,2,0,B|176:264,1,35
240,248,115730,1,0
240,184,115924,5,0
304,184,116119,1,0
368,184,116313,1,0
368,248,116507,1,0
368,248,116605,2,0,B|368:328,1,70
304,320,116993,1,0
272,320,117090,1,4
272,64,117479,5,2
56,192,117868,1,2
272,320,118256,1,0
272,192,118645,5,4
400,192,119033,5,0
336,192,119228,1,0
336,128,119422,1,0
272,128,119616,1,0
272,128,119714,2,0,B|184:128,2,70
272,128,120199,1,0
272,256,120588,5,2
400,256,120977,1,2
304,256,121268,1,2
240,256,121462,1,0
144,256,121754,5,0
80,256,121948,1,0
80,192,122142,1,0
80,128,122337,1,0
144,128,122531,1,0
192,88,122725,1,0
192,88,122823,2,0,B|296:88,1,70
320,88,123211,1,0
320,120,123308,1,0
256,360,123697,6,0,B|296:360,2,35,12|2|2
256,232,124086,2,0,B|200:232,2,35,12|2|2
256,104,124474,2,0,B|304:104,2,35,12|2|2
256,232,124863,6,0,B|256:384,1,140,12|4
152,296,125640,5,0
152,168,126029,1,0
200,128,126223,1,0
248,88,126417,1,0
296,128,126612,1,2
296,256,127000,1,2
408,192,127389,1,2
296,128,127777,1,2
184,192,128166,2,0,L|184:32|88:32|88:200,1,420,2|0
88,259,129526,5,2
151,259,129721,1,2
280,258,130109,1,2
384,192,130498,1,2
280,120,130886,1,2
280,256,131275,2,0,L|280:120|128:120,1,280,2|0
136,256,132441,5,0
136,192,132635,1,0
200,192,132830,1,0
200,256,133024,2,0,B|200:304|256:304,1,70,8|0
304,304,133412,2,8,B|344:304|344:248,1,70,8|0
344,192,133801,2,0,B|344:128|408:128,1,70,8|0
440,136,134190,1,8
440,72,134384,2,0,L|120:72|120:128|264:128|264:256,1,630,8|8
136,240,136521,5,8
263,237,136910,1,2
388,237,137299,1,2
451,237,137493,2,0,B|451:55|256:40|112:64,1,420,2|0
134,123,138853,1,0
134,187,139047,1,0
201,188,139242,1,2
304,256,139630,1,2
201,188,140019,1,2
304,104,140408,1,2
363,84,140602,2,0,L|472:192|328:352|272:352,1,420,2|0
213,353,141962,1,8
149,354,142156,1,8
256,56,143128,5,2
352,136,143517,1,2
456,208,143905,2,2,B|456:344|320:344,1,210,8|0
264,344,144682,2,2,B|128:344|128:208,1,210,8|0
128,152,145460,2,2,B|128:16|264:16,1,210,8|0
320,16,146237,2,2,B|456:16|456:152,1,210,8|0
256,192,147014,12,4,148374
256,192,148569,12,4,151677
256,192,152066,5,0
256,64,152455,1,0
144,128,152844,1,0
256,192,153232,1,0
368,128,153621,1,0
256,64,154009,5,0
256,128,154204,1,0
256,192,154398,2,0,B|256:272,1,70
368,88,157896,6,0,L|368:184|304:184,1,140
227,140,158673,2,0,L|323:140|323:204,1,140
280,280,159450,2,0,L|280:184|344:184,1,140,0|0
432,240,160227,5,0
368,240,160422,1,0
324,185,160616,1,0
324,185,160810,1,0
72,184,161587,5,2
136,184,161782,2,0,L|136:88,3,70
136,48,162559,2,0,L|208:48,3,70
208,112,163336,2,0,L|208:152,6,35
272,112,164114,5,4
368,192,164502,2,0,B|456:192,2,70,4|0|4
272,272,165279,2,0,B|272:368,2,70,4|0|4
176,192,166057,2,0,B|80:192,2,70,4|0|4
239,192,166640,6,0,B|319:192,2,70,0|0|0
256,192,167222,12,0,168387
392,296,168777,6,8,L|392:232,16,35
264,296,170720,5,0
136,296,171109,1,0
136,168,171497,1,0
264,168,171886,1,0
264,40,172275,1,0
392,40,172663,5,2
392,104,172857,1,0
392,168,173052,1,2
392,232,173246,1,2
256,192,173440,12,4,174800
256,192,174995,12,6,176355
