osu file format v5

[General]
AudioFilename: 01. Perfume - Perfect Star Perfect Style.mp3
AudioLeadIn: 0
PreviewTime: 79377
Countdown: 1
SampleSet: Soft
StackLeniency: 0.7
Mode: 0
LetterboxInBreaks: 0
StoryFireInFront: 0
EditorBookmarks: 505,2893,3371
EditorDistanceSpacing: 1

[Metadata]
Title:Perfect Star Perfect Style
Artist:Perfume
Creator:Skyripper
Version:Hard
Source:
Tags:

[Difficulty]
HPDrainRate:7
CircleSize:5
OverallDifficulty:7
SliderMultiplier:2
SliderTickRate:2

[Events]
//Background and Video events
0,0,"normal-BG.png"
//Break Periods
2,39204,47421
2,112966,125720
//Storyboard Layer 0 (Background)
//Storyboard Layer 1 (Fail)
//Storyboard Layer 2 (Pass)
//Storyboard Layer 3 (Foreground)
//Storyboard Sound Samples
//Background Colour Transformations
3,100,163,162,255

[TimingPoints]
15832,477.783086478739,4,2,0,100,1,0
23375,-100,4,2,0,100,0,0
47678,-100,4,1,0,100,0,0
80760,-100,4,1,0,100,0,1
113721,-100,4,1,0,100,0,0
157193,-100,4,1,0,100,0,1
187647,-100,4,1,0,100,0,0
187766,-100,4,1,0,100,0,1

[Colours]
Combo1 : 255,255,168
Combo2 : 202,255,255
Combo3 : 182,107,107
Combo4 : 254,186,186

[HitObjects]
80,136,15831,1,4
160,72,16070,1,0
256,104,16309,1,0
328,168,16548,1,0
328,168,16668,1,0
408,104,16907,1,0
408,104,17026,1,8
480,32,17265,1,0
120,304,17982,5,0
208,256,18220,1,0
296,304,18459,1,0
296,304,18579,1,0
384,256,18818,1,0
384,256,18937,1,8
464,200,19176,1,0
168,168,19654,5,0
168,264,19893,1,0
72,224,20132,1,0
8,144,20370,1,0
8,144,20490,1,0
40,48,20729,1,0
40,48,20848,1,8
136,32,21087,1,0
336,48,21565,5,0
416,144,21804,1,0
416,144,21923,1,0
320,184,22162,1,0
320,184,22282,1,0
320,184,22401,2,0,B|240:168|176:240,1,150,0|8
96,176,22998,1,0
72,80,23237,5,0
72,80,23357,1,0
72,80,23476,5,4
152,24,23715,1,0
248,48,23954,1,2
336,88,24193,2,2,B|376:120|360:160,1,50
248,136,24551,2,2,B|232:184|272:208,1,50
336,232,24909,1,8
48,328,25626,6,8,B|16:264|64:208,1,100
120,168,26104,2,2,B|160:128|128:80,1,50
56,64,26462,2,2,B|88:24|120:24,1,50
192,24,26821,1,8
416,216,27298,6,2,B|448:264|432:328,1,100
336,296,27776,1,0
296,200,28015,2,2,B|256:184|232:200,1,50
232,288,28373,2,2,B|208:312|168:288,1,50
136,208,28732,1,0
80,288,28971,1,0
32,200,29209,1,2
64,104,29448,1,2
160,40,29687,1,0
264,32,29926,2,0,B|281:111|481:63|473:215,1,300
56,192,32554,5,10
456,192,33032,6,0,B|344:192,1,100,0|2
352,88,33509,2,0,B|240:88,1,100,0|2
216,184,33987,2,0,B|216:320,1,100,0|2
120,272,34465,1,8
56,192,34704,1,8
120,112,34943,6,0,B|232:112,1,100,0|2
288,40,35421,1,2
336,128,35659,1,8
256,192,35898,1,10
152,192,36137,1,10
96,104,36376,1,10
168,40,36615,1,0
248,96,36854,6,2,L|224:136|128:160|200:224|184:320|272:280|360:320|344:224|416:160|320:136|264:40,1,900,0|0
424,32,48321,5,4
360,80,48560,1,0
424,120,48799,1,8
360,168,49037,1,0
424,216,49276,1,0
360,256,49515,1,0
360,256,49635,1,0
360,256,49754,1,8
296,304,49993,5,0
224,336,50232,1,0
152,304,50471,1,0
224,264,50710,1,8
224,184,50949,1,0
224,104,51187,1,0
224,24,51426,1,2
224,24,51546,1,0
224,24,51665,1,10
224,24,51904,1,10
152,56,52143,5,0
88,104,52382,1,0
152,144,52621,1,8
224,104,52860,1,0
296,144,53099,1,0
368,104,53337,1,0
440,144,53576,1,8
368,184,53815,1,0
368,184,53935,1,0
368,184,54054,1,0
368,264,54293,1,0
368,264,54532,1,8
288,264,54771,1,0
112,104,55487,5,8
368,264,56204,6,0,B|368:136,1,100,0|8
368,80,56682,1,0
288,80,56921,2,0,B|288:200,3,100,0|0|8|0
288,264,57876,1,0
288,344,58115,1,0
208,344,58354,1,8
208,264,58593,2,0,B|208:136,1,100
208,80,59071,1,0
208,80,59190,1,0
208,80,59310,1,8
128,80,59549,1,2
128,80,59668,1,0
128,80,59788,1,2
56,144,60026,6,0,B|56:248,1,100,0|8
112,296,60504,1,2
168,240,60743,2,0,B|296:240,1,100,0|2
304,168,61221,1,8
344,96,61460,2,0,B|432:160,2,100,0|2|2
304,168,62176,1,0
304,248,62415,2,0,B|208:288|112:216|120:112|176:64,1,300,0|8
128,240,63610,5,0
56,296,63849,1,0
48,216,64088,1,8
96,152,64326,1,0
160,200,64565,1,0
184,232,64685,1,0
208,264,64804,1,0
280,224,65043,1,8
344,176,65282,5,0
376,152,65401,1,0
416,136,65521,1,0
464,200,65760,1,0
408,256,65999,1,8
344,304,66238,1,0
72,168,66715,5,0
120,104,66954,1,10
72,168,67193,1,0
208,248,67671,5,0
248,264,67790,1,0
288,280,67910,1,8
288,200,68149,1,0
368,200,68388,1,0
368,120,68627,1,0
448,120,68865,1,8
448,40,69104,1,0
408,40,69224,1,0
368,40,69343,1,0
288,40,69582,1,0
288,120,69821,1,8
368,120,70060,1,4
424,176,70299,5,2
344,312,70777,1,2
200,232,71254,1,2
152,168,71493,5,0
120,96,71732,1,8
200,80,71971,1,0
248,136,72210,1,0
312,184,72449,1,0
352,168,72568,1,0
392,152,72688,1,8
360,80,72927,1,0
440,64,73165,1,0
472,136,73404,1,0
488,216,73643,1,8
416,248,73882,1,0
264,296,74360,5,0
264,296,74479,1,0
264,296,74599,1,10
184,320,74838,1,0
184,320,74957,1,0
184,320,75077,1,6
144,248,75315,6,0,L|40:184,1,100
96,128,75793,2,0,L|192:192,1,100,0|8
224,120,76271,1,2
392,224,76749,5,2
432,152,76988,1,8
392,80,77227,1,2
360,152,77466,1,8
256,192,77704,12,0,80331
256,352,80810,5,4
256,248,81049,1,0
256,144,81288,1,8
256,40,81527,1,0
256,40,81646,1,0
352,72,81885,1,0
352,72,82004,1,0
424,144,82243,1,8
256,144,82482,5,2
256,144,82721,1,2
256,144,82960,6,0,B|296:168|320:240,1,100,0|8
200,216,83438,1,0
200,216,83557,1,2
256,304,83796,1,0
256,304,83916,1,2
360,288,84154,1,12
40,192,84632,5,0
112,112,84871,1,0
200,56,85110,1,8
304,48,85349,1,0
304,48,85468,1,0
400,88,85707,1,0
400,88,85827,1,0
464,168,86066,1,8
392,240,86305,1,2
280,272,86543,5,2
176,272,86782,1,0
176,272,86902,1,0
232,360,87141,1,0
232,360,87260,1,0
232,360,87380,2,0,B|328:368|408:304,1,150,0|8
464,272,87977,1,8
96,192,88455,5,4
200,192,88693,1,0
304,192,88932,1,8
408,192,89171,1,0
408,192,89291,1,0
376,288,89530,1,0
376,288,89649,1,0
304,360,89888,1,8
304,192,90127,5,2
304,192,90366,1,2
304,192,90605,6,0,B|280:232|208:256,1,100,0|8
232,136,91082,1,0
232,136,91202,1,0
144,192,91441,1,0
144,192,91560,1,0
160,296,91799,1,12
472,192,92277,5,0
400,272,92516,1,8
312,328,92755,1,0
208,336,92993,1,0
208,336,93113,1,8
112,296,93352,1,0
112,296,93471,1,8
48,216,93710,1,8
128,152,93949,1,2
232,112,94188,5,2
336,112,94427,1,0
424,160,94666,1,0
368,240,94905,2,0,B|296:280|176:280,1,150,0|4
368,240,95621,1,4
232,112,96099,6,0,B|168:96|128:24,1,100,0|0
56,96,96577,1,8
88,192,96816,1,0
88,192,96935,1,0
168,256,97174,1,0
168,256,97294,1,0
256,304,97532,1,8
312,168,97771,5,2
312,168,98010,1,2
416,184,98249,6,0,B|464:224|432:288,1,100,0|8
384,344,98727,2,0,B|360:360|312:360,1,50,0|2
256,304,99085,2,0,B|224:336|200:328,1,50,0|2
112,312,99444,1,12
256,48,99921,5,0
256,144,100160,1,0
344,96,100399,1,8
440,96,100638,1,0
440,96,100757,1,2
344,96,100996,1,0
344,96,101116,1,2
256,96,101355,1,12
64,168,101832,6,0,B|72:224|168:224,1,100
184,224,102191,1,2
232,216,102310,1,10
272,192,102430,1,0
312,160,102549,1,0
360,168,102669,1,2
456,264,103027,1,8
368,304,103266,1,8
160,328,103744,6,0,B|96:344|48:328,1,100
72,232,104221,1,8
120,144,104460,1,2
152,104,104580,1,0
232,48,104819,1,2
256,88,104938,1,0
296,176,105177,1,8
64,360,105894,6,0,B|152:288,1,100,0|8
240,296,106371,2,2,B|256:320|304:328,1,50
352,256,106730,2,2,B|376:288|424:272,1,50
464,200,107088,1,8
184,80,107566,6,0,B|128:40|64:88,1,100
40,160,108044,1,8
120,216,108283,1,0
120,216,108402,1,0
216,192,108641,1,0
216,192,108760,1,0
296,128,108999,1,8
392,112,109238,1,0
456,192,109477,1,2
368,232,109716,1,2
288,296,109955,1,10
256,192,110194,12,0,112821
72,40,126677,5,4
152,24,126916,2,0,B|200:40|240:88,1,100,0|8
192,144,127394,1,0
272,160,127633,1,0
320,96,127872,1,0
392,136,128111,1,8
352,208,128349,1,0
304,272,128588,2,0,B|248:256|184:312,1,100,0|0
128,272,129066,1,8
64,224,129305,1,0
64,144,129544,1,0
104,64,129783,1,2
104,64,129902,1,2
104,64,130022,1,12
104,64,130261,1,2
296,120,130738,5,0
368,152,130977,1,8
296,192,131216,1,0
368,224,131455,1,0
296,264,131694,1,0
224,224,131933,1,8
224,152,132172,1,0
296,192,132411,1,0
296,192,132649,1,0
296,192,132888,1,8
296,120,133127,1,4
48,336,134561,6,0,B|48:224,1,100
48,152,135038,1,0
88,152,135158,1,0
128,152,135277,1,8
128,240,135516,1,0
208,240,135755,1,0
288,240,135994,1,0
288,200,136113,1,0
288,160,136233,1,8
208,160,136472,1,0
208,80,136711,1,0
288,80,136950,1,0
360,120,137188,1,8
408,184,137427,5,0
408,184,137547,1,0
408,184,137666,1,2
408,264,137905,1,0
408,264,138025,1,0
408,264,138144,1,10
336,304,138383,5,0
256,296,138622,2,0,B|208:312|128:288,1,100,2|0
80,280,139100,1,10
88,200,139338,2,0,B|136:176|200:208,1,100,2|0
264,216,139816,1,0
272,136,140055,1,10
320,72,140294,1,2
392,32,140533,2,2,B|512:24|272:200|504:272,1,300,2|8
424,320,141488,1,14
184,296,142205,5,0
120,240,142444,2,0,B|56:216|64:136,1,100,8|0
96,88,142922,2,0,B|152:112|168:184,1,100
224,208,143400,1,8
264,136,143638,2,0,B|304:80|400:136,1,100
416,160,144116,1,0
496,160,144355,1,8
496,240,144594,2,0,B|424:320|304:328,1,200
240,312,145311,1,10
160,296,145550,1,10
256,120,146027,5,0
184,80,146266,2,0,B|128:88|104:160,1,100,8|0
136,224,146744,2,0,B|184:168|256:208,1,100
304,216,147222,2,0,B|360:248|432:168,1,100,8|0
432,128,147700,1,0
432,128,147939,1,0
376,64,148177,1,8
296,48,148416,1,0
240,104,148655,5,2
160,112,148894,1,0
160,112,149014,1,0
160,112,149133,1,10
88,152,149372,1,0
88,152,149491,1,0
88,152,149611,1,2
48,224,149850,5,0
104,280,150089,2,0,B|160:336|224:336,1,100,8|0
256,280,150566,1,0
384,184,151044,2,0,B|448:152|488:208,1,100,8|0
448,272,151522,1,0
392,328,151761,1,0
392,328,151880,1,0
392,328,152000,1,8
328,272,152239,1,0
280,160,152477,5,2
64,48,152955,1,10
280,160,153433,1,2
336,104,153672,5,0
272,48,153911,1,8
200,88,154150,1,0
128,128,154389,2,0,B|56:112|24:176,1,100
24,232,154866,1,8
80,288,155105,1,2
80,288,155225,1,0
80,288,155344,1,0
160,312,155583,1,2
224,264,155822,1,8
264,192,156061,2,2,C|320:160|288:112|328:56|224:16,1,300,2|4
128,192,157255,5,4
224,192,157494,1,0
320,192,157733,1,0
416,192,157972,1,8
416,192,158091,1,0
416,88,158330,1,0
416,88,158450,1,8
320,88,158689,1,0
200,88,158928,6,2,B|144:136|176:192,1,100,2|2
112,256,159405,5,0
176,328,159644,1,2
264,272,159883,2,0,B|312:296|328:256,1,50,8|0
400,240,160241,2,0,B|432:232|424:160,1,50,2|8
416,88,160600,1,4
200,88,161078,6,0,B|104:96|96:152,1,100
80,216,161555,1,8
136,296,161794,1,0
168,256,161914,1,0
192,160,162153,1,0
240,144,162272,1,8
336,120,162511,1,0
440,288,162989,6,2,B|456:240|432:168,1,100
438,189,163347,1,8
336,200,163586,1,0
336,200,163705,1,0
336,200,163825,2,0,B|288:240|184:232,1,150,0|8
96,208,164422,1,8
384,192,164900,5,4
288,192,165139,1,0
192,192,165378,1,8
96,192,165616,1,0
96,192,165736,1,0
96,296,165975,1,0
96,296,166094,1,8
192,296,166333,1,0
312,296,166572,6,2,B|368:248|336:192,1,100,2|2
400,128,167050,5,0
336,56,167289,1,2
248,112,167528,2,0,B|200:88|184:128,1,50,8|0
112,152,167886,2,0,B|72:160|88:232,1,50,2|8
96,296,168244,1,4
312,296,168722,6,0,B|408:288|416:232,1,100
432,168,169200,1,8
376,88,169439,1,0
344,128,169558,1,0
320,224,169797,1,0
272,240,169917,1,8
176,264,170155,1,0
152,168,170394,1,0
80,104,170633,6,2,B|64:152|88:224,1,100
104,296,171111,1,2
184,344,171350,2,2,B|280:352|392:312|440:200,1,300
256,32,172544,5,4
256,136,172783,1,8
256,240,173022,1,0
256,344,173261,1,0
256,344,173380,1,8
160,312,173619,1,0
160,312,173739,1,8
88,240,173978,1,0
256,240,174217,5,10
256,240,174455,1,2
256,240,174694,6,0,B|216:216|192:144,1,100,8|0
312,168,175172,1,8
312,168,175292,1,8
256,80,175530,1,0
256,80,175650,1,0
152,96,175889,1,4
472,192,176367,5,0
400,272,176606,1,8
312,328,176844,1,0
208,336,177083,1,0
208,336,177203,1,8
112,296,177442,1,0
112,296,177561,1,8
48,216,177800,1,8
120,144,178039,1,2
232,112,178278,5,2
336,112,178517,1,0
336,112,178636,1,8
280,24,178875,1,0
280,24,178994,1,0
280,24,179114,2,0,B|184:16|104:80,1,150,8|8
56,120,179711,1,8
256,256,180189,6,0,B|272:192|368:176,1,100
408,240,180667,1,8
448,144,180906,1,0
448,144,181025,1,0
384,64,181264,1,0
384,64,181383,1,0
280,72,181622,1,8
56,272,182339,5,0
120,192,182578,1,8
168,272,182817,2,0,B|192:288|232:272,1,50
264,184,183175,2,0,B|288:200|328:184,1,50
360,272,183533,1,8
416,40,184011,6,0,B|472:16|512:80,1,100
464,160,184489,1,8
376,112,184728,1,0
376,112,184847,1,0
280,80,185086,1,0
280,80,185206,1,0
376,112,185444,1,8
328,200,185683,1,0
264,280,185922,2,2,B|184:312|128:304,1,100
120,216,186400,1,10
256,192,186639,12,4,187833
