osu file format v6

[General]
AudioFilename: Perfume - NIGHT FLIGHT.mp3
AudioLeadIn: 1500
PreviewTime: 92792
Countdown: 0
SampleSet: Normal
StackLeniency: 0.3
Mode: 0
LetterboxInBreaks: 1

[Editor]
Bookmarks: 184861
DistanceSpacing: 0.800000011920929
BeatDivisor: 4
GridSize: 8

[Metadata]
Title:NIGHT FLIGHT
Artist:Perfume
Creator:Breeze
Version:v2b
Source:Toraianguru(Triangle)
Tags:v2b

[Difficulty]
HPDrainRate:5
CircleSize:5
OverallDifficulty:8
SliderMultiplier:2.1
SliderTickRate:2

[Events]
//Background and Video events
0,0,"Cover - v2b.jpg"
//Break Periods
2,19789,25874
2,119307,131805
//Storyboard Layer 0 (Background)
Sprite,Background,Centre,"SB\black.png",320,240 M,0,0,215275,320,240 F,0,214485,216140,1
Sprite,Background,Centre,"SB\light3.png",320,240 M,0,26585,,113,271 F,0,26585,26999,1,0 F,0,26999,27412,0,1 F,0,27412,29895,1 F,0,29895,30309,1,0 F,0,30309,30723,0,1 F,0,30723,33206,1 F,0,33206,33619,1,0 F,0,33619,34033,0,1 F,0,34033,36516,1 F,0,36516,36930,1,0 F,0,36930,37344,0,1 C,0,19550,66308,255,255,255 C,0,66309,91550,0,255,0 C,0,91551,105206,255,255,255 C,0,105207,106033,0,255,255 C,0,106034,117412,255,255,255 C,0,117413,119068,255,255,0 C,0,119068,158999,255,255,255 C,0,159000,185481,0,255,0 C,0,185481,210102,255,255,255 C,0,210103,211757,0,255,0 R,0,19550,215275,0,-200 C,0,211758,215275,255,255,255 F,0,214485,216140,1,0
Sprite,Background,Centre,"SB\light3.png",320,240 M,0,26585,,524,274 F,0,26999,27412,1,0 F,0,27412,27826,0,1 F,0,27826,30309,1 F,0,30309,30723,1,0 F,0,30723,31137,0,1 F,0,31137,33619,1 F,0,33619,34033,1,0 F,0,34033,34447,0,1 F,0,34447,36930,1 F,0,36930,37344,1,0 F,0,37344,37757,0,1 C,0,19550,66308,255,255,255 C,0,66309,91550,0,255,0 C,0,91551,105206,255,255,255 C,0,105207,106033,0,255,255 C,0,106034,117412,255,255,255 C,0,117413,119068,255,255,0 C,0,119068,158999,255,255,255 C,0,159000,185481,0,255,0 C,0,185481,210102,255,255,255 C,0,210103,211757,0,255,0 R,0,19550,215275,0,-200 C,0,211758,215275,255,255,255 F,0,214485,216140,1,0
//Storyboard Layer 1 (Fail)
//Storyboard Layer 2 (Pass)
//Storyboard Layer 3 (Foreground)
Sprite,Foreground,Centre,"SB\nocchi.png",320,240 M,0,13344,,224,260 F,0,13344,14171,0,1 C,0,13344,19550,98,98,98
Sprite,Foreground,Centre,"SB\a-chan.png",320,240 M,0,13344,,414,260 F,0,13344,14171,0,1 C,0,13344,19550,98,98,98 P,0,13344,19550,H
Sprite,Foreground,Centre,"SB\kashiyuka.png",320,240 M,0,13344,,323,281 F,0,13344,14171,0,1 C,0,13344,19550,98,98,98
Animation,Foreground,Centre,"SB\a-chan-.png",320,240,2,400,LoopForever M,0,19602,26585,444,258
Animation,Foreground,Centre,"SB\a-chan-.png",320,240,2,800,LoopForever C,0,26585,93206,127,127,127 M,0,26585,119275,444,258 C,0,93207,119275,255,255,255
Animation,Foreground,Centre,"SB\a-chan-.png",320,240,2,400,LoopForever M,0,119276,132516,444,258
Animation,Foreground,Centre,"SB\a-chan-.png",320,240,2,800,LoopForever C,0,132517,185481,127,127,127 C,0,185482,211757,255,255,255 M,0,132517,215275,444,258 F,0,214485,216140,1,0
Animation,Foreground,Centre,"SB\nocchi-.png",320,240,2,400,LoopForever M,0,19602,26585,219,254
Animation,Foreground,Centre,"SB\nocchi-.png",320,240,2,800,LoopForever C,0,26585,93206,127,127,127 M,0,26585,119275,219,254 C,0,93207,119275,255,255,255
Animation,Foreground,Centre,"SB\nocchi-.png",320,240,2,400,LoopForever M,0,119276,132516,219,254
Animation,Foreground,Centre,"SB\nocchi-.png",320,240,2,800,LoopForever C,0,132517,185481,127,127,127 C,0,185482,211757,255,255,255 M,0,132517,215275,219,254 F,0,214485,216140,1,0
Animation,Foreground,Centre,"SB\kashiyuka-.png",320,240,2,400,LoopForever M,0,19602,26585,323,325
Animation,Foreground,Centre,"SB\kashiyuka-.png",320,240,2,800,LoopForever C,0,26585,93206,127,127,127 M,0,26585,119275,323,325 C,0,93207,119275,255,255,255
Animation,Foreground,Centre,"SB\kashiyuka-.png",320,240,2,400,LoopForever M,0,119276,132516,323,325
Animation,Foreground,Centre,"SB\kashiyuka-.png",320,240,2,800,LoopForever C,0,132517,185481,127,127,127 C,0,185482,211757,255,255,255 M,0,132517,215275,323,325 F,0,214485,216140,1,0
Sprite,Foreground,Centre,"SB\logo-v2b.png",320,240 M,0,0,,320,240 F,0,0,3826,0,1 F,0,3826,12102,1 F,0,12102,13344,1,0
Sprite,Foreground,Centre,"SB\bottomlight.png",320,240 S,0,19550,,0.7952002 F,0,19550,19964,1,0 F,0,19964,20378,0,1 F,0,20378,20792,1,0 F,0,20792,21206,0,1 F,0,21206,21620,1,0 F,0,21620,22034,0,1 F,0,22034,22448,1,0 F,0,22448,22862,0,1 F,0,22862,23276,1,0 F,0,23276,23690,0,1 F,0,23690,24104,1,0 F,0,24104,24518,0,1 F,0,24518,24932,1,0 F,0,24932,25346,0,1 F,0,25346,25760,1,0 F,0,25760,26174,0,1 F,0,26174,26588,1,0 F,0,26588,27002,0,1 F,0,27002,27416,1,0 F,0,27416,27830,0,1 F,0,27830,28244,1,0 F,0,28244,28658,0,1 F,0,28658,29072,1,0 F,0,29072,29486,0,1 F,0,29486,29900,1,0 F,0,29900,30314,0,1 F,0,30314,30728,1,0 F,0,30728,31142,0,1 F,0,31142,31556,1,0 F,0,31556,31970,0,1 F,0,31970,32384,1,0 F,0,32384,32798,0,1 F,0,32798,33212,1,0 F,0,33212,33626,0,1 F,0,33626,34040,1,0 F,0,34040,34454,0,1 F,0,34454,34868,1,0 F,0,34868,35282,0,1 F,0,35282,35696,1,0 F,0,35696,36110,0,1 F,0,36110,36524,1,0 F,0,36524,36938,0,1 F,0,36938,37352,1,0 F,0,37352,37766,0,1 F,0,37766,38180,1,0 F,0,38180,38594,0,1 F,0,38594,39008,1,0 F,0,39008,39422,0,1 F,0,39422,39836,1,0 F,0,39836,40250,0,1 F,0,40250,40664,1,0 F,0,40664,41078,0,1 F,0,41078,41492,1,0 F,0,41492,41906,0,1 F,0,41906,42320,1,0 F,0,42320,42734,0,1 F,0,42734,43148,1,0 F,0,43148,43562,0,1 F,0,43562,43976,1,0 F,0,43976,44390,0,1 F,0,44390,44804,1,0 F,0,44804,45218,0,1 F,0,45218,45632,1,0 F,0,45632,46046,0,1 F,0,46046,46460,1,0 F,0,46460,46874,0,1 F,0,46874,47288,1,0 F,0,47288,47702,0,1 F,0,47702,48116,1,0 F,0,48116,48530,0,1 F,0,48530,48944,1,0 F,0,48944,49358,0,1 F,0,49358,49772,1,0 F,0,49772,50186,0,1 F,0,50186,50600,1,0 F,0,50600,51014,0,1 F,0,51014,51428,1,0 F,0,51428,51842,0,1 F,0,51842,52256,1,0 F,0,52256,52670,0,1 F,0,52670,53084,1,0 F,0,53084,53498,0,1 F,0,53498,53912,1,0 F,0,53912,54326,0,1 F,0,54326,54740,1,0 F,0,54740,55154,0,1 F,0,55154,55568,1,0 F,0,55568,55982,0,1 F,0,55982,56396,1,0 F,0,56396,56810,0,1 F,0,56810,57224,1,0 F,0,57224,57638,0,1 F,0,57638,58052,1,0 F,0,58052,58466,0,1 F,0,58466,58880,1,0 F,0,58880,59294,0,1 F,0,59294,59708,1,0 F,0,59708,60122,0,1 F,0,60122,60536,1,0 F,0,60536,60950,0,1 F,0,60950,61364,1,0 F,0,61364,61778,0,1 F,0,61778,62192,1,0 F,0,62192,62606,0,1 F,0,62606,63020,1,0 F,0,63020,63434,0,1 F,0,63434,63848,1,0 F,0,63848,64262,0,1 F,0,64262,64676,1,0 F,0,64676,65090,0,1 F,0,65090,65504,1,0 F,0,65504,65918,0,1 C,0,19550,66309,255,0,0 F,0,65918,66332,1,0 F,0,66332,66746,0,1 F,0,66746,67160,1,0 F,0,67160,67574,0,1 F,0,67574,67988,1,0 F,0,67988,68402,0,1 F,0,68402,68816,1,0 F,0,68816,69230,0,1 F,0,69230,69644,1,0 F,0,69644,70058,0,1 F,0,70058,70472,1,0 F,0,70472,70886,0,1 F,0,70886,71300,1,0 F,0,71300,71714,0,1 F,0,71714,72128,1,0 F,0,72128,72542,0,1 F,0,72542,72956,1,0 F,0,72956,73370,0,1 F,0,73370,73784,1,0 F,0,73784,74198,0,1 F,0,74198,74612,1,0 F,0,74612,75026,0,1 F,0,75026,75440,1,0 F,0,75440,75854,0,1 F,0,75854,76268,1,0 F,0,76268,76682,0,1 F,0,76682,77096,1,0 F,0,77096,77510,0,1 F,0,77510,77924,1,0 F,0,77924,78338,0,1 F,0,78338,78752,1,0 F,0,78752,79166,0,1 F,0,79166,79580,1,0 F,0,79580,79994,0,1 F,0,79994,80408,1,0 F,0,80408,80822,0,1 F,0,80822,81236,1,0 F,0,81236,81650,0,1 F,0,81650,82064,1,0 F,0,82064,82478,0,1 F,0,82478,82892,1,0 F,0,82892,83306,0,1 F,0,83306,83720,1,0 F,0,83720,84134,0,1 F,0,84134,84548,1,0 F,0,84548,84962,0,1 F,0,84962,85376,1,0 F,0,85376,85790,0,1 F,0,85790,86204,1,0 F,0,86204,86618,0,1 F,0,86618,87032,1,0 F,0,87032,87446,0,1 F,0,87446,87860,1,0 F,0,87860,88274,0,1 F,0,88274,88688,1,0 F,0,88688,89102,0,1 F,0,89102,89516,1,0 F,0,89516,89930,0,1 F,0,89930,90344,1,0 F,0,90344,90758,0,1 F,0,90758,91172,1,0 F,0,91172,91586,0,1 F,0,91586,92000,1,0 F,0,92000,92414,0,1 C,0,66310,92792,0,255,255 F,0,92414,92828,1,0 F,0,92828,93242,0,1 F,0,93242,93656,1,0 F,0,93656,94070,0,1 F,0,94070,94484,1,0 F,0,94484,94898,0,1 F,0,94898,95312,1,0 F,0,95312,95726,0,1 F,0,95726,96140,1,0 F,0,96140,96554,0,1 F,0,96554,96968,1,0 F,0,96968,97382,0,1 F,0,97382,97796,1,0 F,0,97796,98210,0,1 F,0,98210,98624,1,0 F,0,98624,99038,0,1 F,0,99038,99452,1,0 F,0,99452,99866,0,1 F,0,99866,100280,1,0 F,0,100280,100694,0,1 F,0,100694,101108,1,0 F,0,101108,101522,0,1 F,0,101522,101936,1,0 F,0,101936,102350,0,1 F,0,102350,102764,1,0 F,0,102764,103178,0,1 F,0,103178,103592,1,0 F,0,103592,104006,0,1 F,0,104006,104420,1,0 F,0,104420,104834,0,1 F,0,104834,105248,1,0 F,0,105248,105662,0,1 F,0,105662,106076,1,0 F,0,106076,106490,0,1 F,0,106490,106904,1,0 F,0,106904,107318,0,1 F,0,107318,107732,1,0 F,0,107732,108146,0,1 F,0,108146,108560,1,0 F,0,108560,108974,0,1 F,0,108974,109388,1,0 F,0,109388,109802,0,1 F,0,109802,110216,1,0 F,0,110216,110630,0,1 F,0,110630,111044,1,0 F,0,111044,111458,0,1 F,0,111458,111872,1,0 F,0,111872,112286,0,1 F,0,112286,112700,1,0 F,0,112700,113114,0,1 F,0,113114,113528,1,0 F,0,113528,113942,0,1 F,0,113942,114356,1,0 F,0,114356,114770,0,1 F,0,114770,115184,1,0 F,0,115184,115598,0,1 F,0,115598,116012,1,0 F,0,116012,116426,0,1 F,0,116426,116840,1,0 F,0,116840,117254,0,1 F,0,117254,117668,1,0 F,0,117668,118082,0,1 F,0,118082,118496,1,0 F,0,118496,118910,0,1 F,0,118910,119324,1,0 F,0,119324,119738,0,1 F,0,119738,120152,1,0 F,0,120152,120566,0,1 F,0,120566,120980,1,0 F,0,120980,121394,0,1 F,0,121394,121808,1,0 F,0,121808,122222,0,1 F,0,122222,122636,1,0 F,0,122636,123050,0,1 F,0,123050,123464,1,0 F,0,123464,123878,0,1 F,0,123878,124292,1,0 F,0,124292,124706,0,1 F,0,124706,125120,1,0 F,0,125120,125534,0,1 F,0,125534,125948,1,0 F,0,125948,126362,0,1 F,0,126362,126776,1,0 F,0,126776,127190,0,1 F,0,127190,127604,1,0 F,0,127604,128018,0,1 F,0,128018,128432,1,0 F,0,128432,128846,0,1 F,0,128846,129260,1,0 F,0,129260,129674,0,1 F,0,129674,130088,1,0 F,0,130088,130502,0,1 F,0,130502,130916,1,0 F,0,130916,131330,0,1 F,0,131330,131744,1,0 F,0,131744,132158,0,1 F,0,132158,132572,1,0 F,0,132572,132986,0,1 F,0,132986,133400,1,0 F,0,133400,133814,0,1 F,0,133814,134228,1,0 F,0,134228,134642,0,1 F,0,134642,135056,1,0 F,0,135056,135470,0,1 F,0,135470,135884,1,0 F,0,135884,136298,0,1 F,0,136298,136712,1,0 F,0,136712,137126,0,1 F,0,137126,137540,1,0 F,0,137540,137954,0,1 F,0,137954,138368,1,0 F,0,138368,138782,0,1 F,0,138782,139196,1,0 F,0,139196,139610,0,1 F,0,139610,140024,1,0 F,0,140024,140438,0,1 F,0,140438,140852,1,0 F,0,140852,141266,0,1 F,0,141266,141680,1,0 F,0,141680,142094,0,1 F,0,142094,142508,1,0 F,0,142508,142922,0,1 F,0,142922,143336,1,0 F,0,143336,143750,0,1 F,0,143750,144164,1,0 F,0,144164,144578,0,1 F,0,144578,144992,1,0 F,0,144992,145406,0,1 F,0,145406,145820,1,0 F,0,145820,146234,0,1 F,0,146234,146648,1,0 F,0,146648,147062,0,1 F,0,147062,147476,1,0 F,0,147476,147890,0,1 F,0,147890,148304,1,0 F,0,148304,148718,0,1 F,0,148718,149132,1,0 F,0,149132,149546,0,1 F,0,149546,149960,1,0 F,0,149960,150374,0,1 F,0,150374,150788,1,0 F,0,150788,151202,0,1 F,0,151202,151616,1,0 F,0,151616,152030,0,1 F,0,152030,152444,1,0 F,0,152444,152858,0,1 F,0,152858,153272,1,0 F,0,153272,153686,0,1 F,0,153686,154100,1,0 F,0,154100,154514,0,1 F,0,154514,154928,1,0 F,0,154928,155342,0,1 F,0,155342,155756,1,0 F,0,155756,156170,0,1 F,0,156170,156584,1,0 F,0,156584,156998,0,1 F,0,156998,157412,1,0 F,0,157412,157826,0,1 F,0,157826,158240,1,0 F,0,158240,158654,0,1 C,0,92793,158999,255,0,0 F,0,158654,159068,1,0 F,0,159068,159482,0,1 F,0,159482,159896,1,0 F,0,159896,160310,0,1 F,0,160310,160724,1,0 F,0,160724,161138,0,1 F,0,161138,161552,1,0 F,0,161552,161966,0,1 F,0,161966,162380,1,0 F,0,162380,162794,0,1 F,0,162794,163208,1,0 F,0,163208,163622,0,1 F,0,163622,164036,1,0 F,0,164036,164450,0,1 F,0,164450,164864,1,0 F,0,164864,165278,0,1 F,0,165278,165692,1,0 F,0,165692,166106,0,1 F,0,166106,166520,1,0 F,0,166520,166934,0,1 F,0,166934,167348,1,0 F,0,167348,167762,0,1 F,0,167762,168176,1,0 F,0,168176,168590,0,1 F,0,168590,169004,1,0 F,0,169004,169418,0,1 F,0,169418,169832,1,0 F,0,169832,170246,0,1 F,0,170246,170660,1,0 F,0,170660,171074,0,1 F,0,171074,171488,1,0 F,0,171488,171902,0,1 F,0,171902,172316,1,0 F,0,172316,172730,0,1 F,0,172730,173144,1,0 F,0,173144,173558,0,1 F,0,173558,173972,1,0 F,0,173972,174386,0,1 F,0,174386,174800,1,0 F,0,174800,175214,0,1 F,0,175214,175628,1,0 F,0,175628,176042,0,1 F,0,176042,176456,1,0 F,0,176456,176870,0,1 F,0,176870,177284,1,0 F,0,177284,177698,0,1 F,0,177698,178112,1,0 F,0,178112,178526,0,1 F,0,178526,178940,1,0 F,0,178940,179354,0,1 F,0,179354,179768,1,0 F,0,179768,180182,0,1 F,0,180182,180596,1,0 F,0,180596,181010,0,1 F,0,181010,181424,1,0 F,0,181424,181838,0,1 F,0,181838,182252,1,0 F,0,182252,182666,0,1 F,0,182666,183080,1,0 F,0,183080,183494,0,1 F,0,183494,183908,1,0 F,0,183908,184322,0,1 F,0,184322,184736,1,0 F,0,184736,185150,0,1 C,0,159000,185481,0,255,255 F,0,185150,185564,1,0 F,0,185564,185978,0,1 F,0,185978,186392,1,0 F,0,186392,186806,0,1 F,0,186806,187220,1,0 F,0,187220,187634,0,1 F,0,187634,188048,1,0 F,0,188048,188462,0,1 F,0,188462,188876,1,0 F,0,188876,189290,0,1 F,0,189290,189704,1,0 F,0,189704,190118,0,1 F,0,190118,190532,1,0 F,0,190532,190946,0,1 F,0,190946,191360,1,0 F,0,191360,191774,0,1 F,0,191774,192188,1,0 F,0,192188,192602,0,1 F,0,192602,193016,1,0 F,0,193016,193430,0,1 F,0,193430,193844,1,0 F,0,193844,194258,0,1 F,0,194258,194672,1,0 F,0,194672,195086,0,1 F,0,195086,195500,1,0 F,0,195500,195914,0,1 F,0,195914,196328,1,0 F,0,196328,196742,0,1 F,0,196742,197156,1,0 F,0,197156,197570,0,1 F,0,197570,197984,1,0 F,0,197984,198398,0,1 C,0,185481,198723,255,0,0 F,0,198398,198812,1,0 F,0,198812,199226,0,1 F,0,199226,199640,1,0 F,0,199640,200054,0,1 F,0,200054,200468,1,0 F,0,200468,200882,0,1 F,0,200882,201296,1,0 F,0,201296,201710,0,1 F,0,201710,202124,1,0 F,0,202124,202538,0,1 F,0,202538,202952,1,0 F,0,202952,203366,0,1 F,0,203366,203780,1,0 F,0,203780,204194,0,1 F,0,204194,204608,1,0 F,0,204608,205022,0,1 F,0,205022,205436,1,0 F,0,205436,205850,0,1 F,0,205850,206264,1,0 F,0,206264,206678,0,1 F,0,206678,207092,1,0 F,0,207092,207506,0,1 F,0,207506,207920,1,0 F,0,207920,208334,0,1 F,0,208334,208748,1,0 F,0,208748,209162,0,1 F,0,209162,209576,1,0 F,0,209576,209990,0,1 F,0,209990,210404,1,0 F,0,210404,210818,0,1 F,0,210818,211232,1,0 F,0,211232,211646,0,1 F,0,211646,212060,1,0 F,0,212060,212474,0,1 F,0,212474,212888,1,0 F,0,212888,213302,0,1 F,0,213302,213716,1,0 F,0,213716,214130,0,1 F,0,214130,214544,1,0 F,0,214544,214958,0,1 M,0,19550,215275,320,433 C,0,198724,215275,255,0,255 F,0,214958,215372,1,0
Sprite,Foreground,Centre,"light2.png",320,240 M,0,93206,,203,246 M,0,93206,93619,203,246 F,0,93619,93671,1,0 M,0,94033,94447,316,251 F,0,94033,94447,1 F,0,94447,94499,1,0 M,0,94861,95275,435,251 F,0,94861,95275,1 F,0,95275,95326,1,0 M,0,96516,,218,257 M,0,96516,96930,218,257 F,0,96516,96930,1 F,0,96930,96981,1,0 M,0,97344,97757,319,255 F,0,97344,97757,1 F,0,97757,97809,1,0 M,0,98171,98585,449,255 F,0,98171,98585,1 F,0,98585,98637,1,0 M,0,99826,100240,206,256 F,0,99826,100240,1 F,0,100240,100292,1,0 M,0,100654,101068,325,254 F,0,100654,101068,1 F,0,101068,101119,1,0 M,0,101481,101895,451,257 F,0,101481,101895,1 F,0,101895,101947,1,0 M,0,103137,103550,215,254 F,0,103137,103550,1 F,0,103550,103602,1,0 M,0,103964,104378,326,253 F,0,103964,104378,1 F,0,104378,104430,1,0 M,0,104792,105206,449,256 F,0,104792,105206,1 F,0,105206,105257,1,0 F,0,105257,,0 M,0,185481,,224,256 M,0,185481,185895,224,256 F,0,185481,185895,1 F,0,185895,185947,1,0 M,0,186309,,323,254 M,0,186309,186723,323,254 F,0,186309,186723,1 F,0,186723,186775,1,0 M,0,187137,187550,449,256 F,0,187137,187550,1 F,0,187550,187602,1,0 M,0,188792,,225,256 M,0,188792,189206,225,256 F,0,188792,189206,1 F,0,189206,189258,1,0 M,0,189619,,324,256 M,0,189619,190033,324,256 F,0,189619,190033,1 F,0,190033,190085,1,0 M,0,190447,190861,449,256 F,0,190447,190861,1 F,0,190861,190913,1,0 M,0,192102,,218,254 M,0,192102,192516,218,254 F,0,192102,192516,1 F,0,192516,192568,1,0 M,0,192930,,325,254 M,0,192930,193344,325,254 F,0,192930,193344,1 F,0,193344,193396,1,0 M,0,193757,194171,449,256 F,0,193757,194171,1 F,0,194171,194223,1,0 M,0,195412,,218,256 M,0,195412,195826,218,256 F,0,195412,195826,1 F,0,195826,195878,1,0 M,0,196240,,320,253 M,0,196240,196654,320,253 F,0,196240,196654,1 F,0,196654,196706,1,0 M,0,197068,197481,449,256 F,0,197068,197481,1 F,0,197481,197533,1,0
Sprite,Foreground,Centre,"SB\light.png",320,240 M,0,13344,,320,240 F,0,13344,19550,0,1 F,0,19550,19602,1 F,0,19602,25757,1 F,0,25757,26585,1,0 F,0,95688,96102,1 F,0,96102,96154,1,0 F,0,98999,99412,1 F,0,99412,99464,1,0 F,0,102309,102723,1 F,0,102723,102775,1,0 F,0,105619,106033,1 F,0,106033,106085,1,0 F,0,106447,106861,1,0 F,0,106861,107275,0,1 F,0,107275,107689,1,0 F,0,107689,108103,0,1 F,0,108103,108517,1,0 F,0,108517,108931,0,1 F,0,108931,109345,1,0 F,0,109345,109759,0,1 F,0,109759,110173,1,0 F,0,110173,110587,0,1 F,0,110587,111001,1,0 F,0,111001,111415,0,1 F,0,111415,111829,1,0 F,0,111829,112243,0,1 F,0,112243,112657,1,0 F,0,112657,113071,0,1 F,0,113071,113485,1,0 F,0,113485,113899,0,1 F,0,113899,114313,1,0 F,0,114313,114727,0,1 F,0,114727,115141,1,0 F,0,115141,115555,0,1 F,0,115555,115969,1,0 F,0,115969,116383,0,1 F,0,116383,116797,1,0 F,0,116797,117211,0,1 F,0,117211,117625,1,0 F,0,117625,118039,0,1 F,0,118039,118453,1,0 F,0,187964,188378,1 F,0,188378,188430,1,0 F,0,191275,191688,1 F,0,191688,191740,1,0 F,0,194585,194999,1 F,0,194999,195050,1,0 F,0,197895,198309,1 F,0,198309,198361,1,0 F,0,198723,199137,0,1 F,0,199137,199551,1,0 F,0,199551,199965,0,1 F,0,199965,200379,1,0 F,0,200379,200793,0,1 F,0,200793,201207,1,0 F,0,201207,201621,0,1 F,0,201621,202035,1,0 F,0,202035,202449,0,1 F,0,202449,202863,1,0 F,0,202863,203277,0,1 F,0,203277,203691,1,0 F,0,203691,204105,0,1 F,0,204105,204519,1,0 F,0,204519,204933,0,1 F,0,204933,205347,1,0 F,0,205347,205761,0,1 F,0,205761,206175,1,0 F,0,206175,206589,0,1 F,0,206589,207003,1,0 F,0,207003,207417,0,1 F,0,207417,207831,1,0 F,0,207831,208245,0,1 F,0,208245,208659,1,0 F,0,208659,209073,0,1 F,0,209073,209487,1,0 F,0,209487,209901,0,1 F,0,209901,210315,1,0
Sprite,Foreground,Centre,"SB\toplight.png",320,240 F,0,0,930,0,1 M,0,0,13344,113,31,131,34 R,0,0,19550,0,-10.01472 C,0,0,19550,0,255,255 C,0,19550,66309,255,0,0 C,0,66310,92792,0,255,255 C,0,92793,105206,255,0,0 C,0,92793,105206,255,0,0 C,0,105207,106033,255,255,0 C,0,106034,117412,255,0,0 C,0,117413,119068,0,255,255 C,0,119068,158999,255,0,0 C,0,159000,183826,0,255,255 C,0,183827,185480,255,0,255 C,0,185481,210102,255,0,0 C,0,210103,211757,0,255,255 R,0,19550,215275,0,-200 C,0,211758,215275,255,0,0 F,0,214485,216140,1,0
Sprite,Foreground,Centre,"SB\toplight.png",320,240 M,0,0,,325,36 F,0,0,930,0,1 R,0,0,19550,0,-10 C,0,0,19550,0,255,255 C,0,19550,66309,255,0,0 C,0,66310,92792,0,255,255 C,0,92793,105206,255,0,0 C,0,92793,105206,255,0,0 C,0,105207,106033,255,255,0 C,0,106034,117412,255,0,0 C,0,117413,119068,0,255,255 C,0,119068,158999,255,0,0 C,0,159000,183826,0,255,255 C,0,183827,185480,255,0,255 C,0,185481,210102,255,0,0 C,0,210103,211757,0,255,255 R,0,19550,215275,0,-200 C,0,211758,215275,255,0,0 F,0,214485,216140,1,0
Sprite,Foreground,Centre,"SB\toplight.png",320,240 F,0,0,930,0,1 M,0,0,13344,544,33,503,39 R,0,0,19550,0,-10.01472 C,0,0,19550,0,255,255 C,0,19550,66309,255,0,0 C,0,66310,92792,0,255,255 C,0,92793,105206,255,0,0 C,0,92793,105206,255,0,0 C,0,105207,106033,255,255,0 C,0,106034,117412,255,0,0 C,0,117413,119068,0,255,255 C,0,119068,158999,255,0,0 C,0,159000,183826,0,255,255 C,0,183827,185480,255,0,255 C,0,185481,210102,255,0,0 C,0,210103,211757,0,255,255 R,0,19550,215275,0,-200 C,0,211758,215275,255,0,0 F,0,214485,216140,1,0
Sprite,Foreground,Centre,"SB\toplight2.png",320,240 M,0,13344,,97,118 R,0,13344,,-1.06496 F,0,13344,13757,1,0 F,0,13757,14170,0,1 F,0,14170,14583,1,0 F,0,14583,14996,0,1 F,0,14996,15409,1,0 F,0,15409,15822,0,1 F,0,15822,16235,1,0 F,0,16235,16648,0,1 F,0,16648,17061,1,0 F,0,17061,17474,0,1 F,0,17474,17887,1,0 F,0,17887,18300,0,1 F,0,18300,18713,1,0 F,0,18713,19126,0,1 F,0,19126,19539,1,0 F,0,19539,,0 C,0,13344,19550,255,255,0 F,0,211964,212378,1,0 F,0,212378,212792,0,1 F,0,212792,213206,1,0 F,0,213206,213620,0,1 F,0,213620,214034,1,0 C,0,211964,214447,255,255,255 F,0,214034,214448,0,1
Sprite,Foreground,Centre,"SB\toplight2.png",320,240 M,0,13344,,326,122 R,0,13344,,-1.536 F,0,13344,13757,0,1 F,0,13757,14170,1,0 F,0,14170,14583,0,1 F,0,14583,14996,1,0 F,0,14996,15409,0,1 F,0,15409,15822,1,0 F,0,15822,16235,0,1 F,0,16235,16648,1,0 F,0,16648,17061,0,1 F,0,17061,17474,1,0 F,0,17474,17887,0,1 F,0,17887,18300,1,0 F,0,18300,18713,0,1 F,0,18713,19126,1,0 F,0,19126,19539,0,1 C,0,13344,19550,255,255,0 F,0,19539,19602,1,0 F,0,211964,212378,0,1 F,0,212378,212792,1,0 F,0,212792,213206,0,1 F,0,213206,213620,1,0 F,0,213620,214034,0,1 C,0,211964,214447,255,255,255 F,0,214034,214448,1,0
Sprite,Foreground,Centre,"SB\toplight2.png",320,240 M,0,13344,,554,106 R,0,13344,,-2.1504 F,0,13344,13757,0.99488,0 F,0,13757,14170,0,1 F,0,14170,14583,1,0 F,0,14583,14996,0,1 F,0,14996,15409,1,0 F,0,15409,15822,0,1 F,0,15822,16235,1,0 F,0,16235,16648,0,1 F,0,16648,17061,1,0 F,0,17061,17474,0,1 F,0,17474,17887,1,0 F,0,17887,18300,0,1 F,0,18300,18713,1,0 F,0,18713,19126,0,1 F,0,19126,19539,1,0 C,0,13344,19550,255,255,0 F,0,211964,212378,1,0 F,0,212378,212792,0,1 F,0,212792,213206,1,0 F,0,213206,213620,0,1 F,0,213620,214034,1,0 C,0,211964,214447,255,255,255 F,0,214034,214448,0,1
Sprite,Foreground,Centre,"SB\white.png",320,240 F,0,19589,19693,1,0
//Storyboard Sound Samples
//Background Colour Transformations
3,100,0,0,0

[TimingPoints]
13383,413.793103448276,4,2,0,100,1,0
19589,-100,4,1,0,100,0,1
19641,-100,4,1,0,81,0,0
92831,-100,4,1,0,81,0,1
105348,-100,4,2,0,81,0,1
105865,-100,4,1,0,81,0,1
117451,-100,4,1,0,50,0,0
132141,-100,4,1,0,81,0,0
161727,-100,4,1,0,45,0,0
162141,-100,4,1,0,81,0,0
165038,-100,4,1,0,45,0,0
165451,-100,4,1,0,81,0,0
168245,-100,4,1,0,45,0,0
168658,-100,4,1,0,81,0,0
171555,-100,4,1,0,45,0,0
171969,-100,4,1,0,81,0,0
174865,-100,4,1,0,45,0,0
175279,-100,4,1,0,81,0,0
178176,-100,4,1,0,45,0,0
178589,-100,4,1,0,81,0,0
183865,1655.1724137931,4,1,0,81,1,0
184692,413.793103448276,4,1,0,81,1,0
185519,-100,4,1,0,81,0,1
211950,-100,4,1,0,81,0,0
212002,-100,4,1,0,81,0,1
212054,-100,4,1,0,81,0,0

[Colours]
Combo1 : 255,150,0
Combo2 : 255,255,255
Combo3 : 5,5,240
Combo4 : 240,5,5

[HitObjects]
64,80,13382,1,2
144,80,13589,1,0
224,80,13796,1,2
304,80,14003,2,0,B|368:80|416:144|368:208|288:208,1,210
224,208,14624,1,2
144,208,14831,1,0
64,208,15038,5,0
64,288,15245,2,0,B|112:336|160:288|208:240|272:304,1,210,2|0
336,336,15865,1,0
416,304,16072,1,0
416,224,16279,1,2
336,192,16486,1,0
360,264,16693,5,2
272,264,16900,1,0
184,264,17107,1,2
96,264,17314,2,0,B|32:264|-16:200|32:136|112:136,1,210
176,136,17934,1,2
256,136,18141,1,0
344,136,18348,5,0
392,56,18555,2,0,B|512:144|384:224,1,210,2|0
320,256,19176,1,0
240,288,19382,1,2
256,192,19589,5,0
64,96,26624,5,4
144,64,26831,1,0
224,96,27038,1,0
304,64,27245,1,0
384,96,27451,2,0,B|512:96,2,105
448,160,28072,6,0,B|528:224|368:288|448:352,1,210
357,346,28693,1,8
273,346,28900,1,8
304,272,29107,2,0,B|192:272,1,105
112,272,29520,1,8
32,272,29727,1,8
64,64,29934,5,0
144,64,30141,1,0
112,144,30348,1,0
192,144,30555,1,0
224,64,30762,1,0
304,64,30969,1,0
384,64,31176,1,0
464,64,31382,6,0,B|464:304,1,210
400,336,32003,1,8
336,272,32210,1,0
336,256,32314,1,0
336,240,32417,1,0
288,160,32624,1,8
240,240,32831,1,0
192,160,33038,1,8
368,32,33245,6,0,B|256:32,1,105
144,112,33658,2,0,B|256:112,1,105
400,192,34072,2,0,B|288:192,1,105
112,272,34486,2,0,B|224:272,1,105,0|0
304,272,34900,5,0
384,272,35107,1,0
464,272,35314,2,0,B|496:224|496:160,1,105,8|0
368,32,35727,2,0,B|336:80|336:144,1,105
160,272,36141,2,0,B|192:224|192:160,1,105,8|0
32,48,36555,5,0
64,128,36762,1,0
96,208,36969,1,0
128,288,37176,2,0,B|176:336|288:336|336:272,1,210
352,208,37796,1,0
384,128,38003,5,4
384,104,38107,1,0
352,120,38210,1,8
352,144,38314,1,0
320,160,38417,1,8
320,136,38520,1,0
288,152,38624,1,0
288,176,38727,1,0
256,192,38831,1,8
256,168,38934,1,0
224,184,39038,1,0
224,208,39141,1,0
192,224,39245,1,8
192,200,39348,1,0
160,216,39451,1,0
160,240,39555,1,8
128,256,39658,1,8
128,232,39762,1,8
96,240,39865,6,0,B|16:240|32:160,2,105,4|0|0
416,240,40693,2,0,B|496:240|480:160,2,105,0|0|0
344,296,41314,1,0
256,336,41520,2,0,B|256:224,2,105
256,192,42141,1,0
256,48,42348,2,0,B|256:160,2,105
256,192,42969,1,0
160,32,43176,6,0,B|88:32|88:112,1,105,0|0
96,288,43589,2,0,B|96:360|176:360,1,105,0|0
352,352,44003,2,0,B|424:352|424:272,1,105,0|0
416,96,44417,2,0,B|416:24|336:24,1,105,0|0
256,128,44831,5,0
256,256,45038,1,0
192,192,45245,1,0
320,192,45451,1,0
192,128,45658,5,0
320,256,45865,1,0
320,128,46072,1,0
192,256,46279,1,0
64,288,46486,6,0,B|128:352|288:352,1,210
256,192,47107,1,0
252,32,47314,2,0,B|384:32|448:96,1,210
448,288,48141,6,0,B|384:352|224:352,1,210
256,192,48762,1,0
259,32,48969,2,0,B|128:32|64:96,1,210
227,274,49796,6,0,B|196:320|226:384|290:384|319:314|279:261,1,210
256,32,50624,1,0
256,112,50831,1,0
256,192,51038,1,0
344,336,51451,5,0
296,264,51658,1,0
216,264,51865,1,0
176,336,52072,1,0
256,352,52279,1,0
256,272,52486,1,8
256,256,52589,1,0
256,240,52693,1,0
256,160,52900,1,8
432,48,53107,5,4
464,128,53314,1,0
384,112,53520,1,0
80,336,53934,5,0
48,256,54141,1,0
128,272,54348,1,0
96,192,54555,1,0
64,112,54762,2,0,B|16:0,1,105
144,128,55176,2,0,B|185:224,1,105,0|0
224,32,55589,6,0,B|265:128,1,105,0|0
352,336,56003,2,0,B|304:224,1,105,0|0
432,64,56417,6,0,B|480:112|432:176,1,105
288,96,56831,2,0,B|355:101|359:181,1,105
196,220,57245,2,0,B|252:181|306:240,1,105
203,368,57658,2,0,B|220:302|300:312,1,105
448,320,58072,5,0
448,240,58279,1,0
384,320,58486,1,0
384,240,58693,1,0
320,352,58900,5,0
320,208,59107,1,0
256,352,59314,1,0
256,208,59520,1,0
192,320,59727,6,0,B|64:320,1,105
240,272,60141,1,0
80,224,60555,2,0,B|208:224,1,105
32,176,60969,1,0
304,48,61383,6,0,B|304:160,1,105
368,16,61796,1,0
208,48,62210,2,0,B|208:160,1,105
144,16,62624,1,0
192,336,63038,6,0,B|304:336,1,105
352,272,63451,1,0
432,272,63658,1,0
352,272,63865,2,0,B|224:272,1,105
192,208,64279,1,0
112,208,64486,1,0
192,208,64693,6,0,B|320:208,1,105
320,128,65107,2,0,B|192:128,1,105
208,288,65520,2,0,B|320:288,1,105
304,48,65934,2,0,B|176:48,1,105
112,48,66348,5,4
48,112,66555,1,0
112,48,66762,1,0
144,128,66969,2,0,B|246:184|353:126,1,210
242,223,67589,1,0
343,316,67796,2,0,B|241:260|134:318,1,210
64,352,68417,6,2,B|0:256,1,105,0|0
80,224,68831,2,2,B|92:109,1,105,0|0
176,128,69245,2,2,B|259:48,1,105,0|0
400,48,69658,5,0
464,112,69865,1,0
400,48,70072,1,0
368,128,70279,2,0,B|266:184|159:126,1,210
269,223,70900,1,0
168,316,71107,2,0,B|270:260|377:318,1,210
448,352,71727,6,2,B|512:256,1,105,0|0
432,224,72141,2,2,B|420:109,1,105,0|0
336,128,72555,2,2,B|253:48,1,105,0|0
176,32,72969,5,0
144,112,73176,1,0
112,192,73383,1,0
80,272,73589,1,0
368,112,74003,1,0
400,192,74210,1,0
432,272,74417,1,0
256,192,74831,1,0
304,69,75038,6,2,B|254:49|198:72,1,105,0|0
125,211,75451,2,2,B|132:264|180:301,1,105,0|0
337,295,75865,2,2,B|380:262|388:202,1,105,0|0
336,32,76279,5,0
368,112,76486,1,0
400,192,76693,1,0
432,272,76900,1,0
144,112,77314,1,0
112,192,77520,1,0
80,272,77727,1,0
256,192,78141,1,0
207,69,78348,6,2,B|257:49|313:72,1,105,0|0
386,211,78762,2,2,B|379:264|331:301,1,105,0|0
174,295,79176,2,2,B|131:262|123:202,1,105,0|0
96,32,79589,5,4
176,32,79796,1,0
256,32,80003,1,0
336,32,80210,2,0,B|400:32|448:96|400:160|320:160,1,210
256,160,80831,1,0
176,160,81038,2,0,B|112:160|64:224|112:288|192:288,1,210
256,288,81658,5,0
336,288,81865,1,0
384,208,82072,2,0,B|512:208,1,105
336,128,82486,1,0
256,128,82693,1,0
208,48,82900,5,0
128,48,83107,1,0
48,48,83314,1,0
48,128,83520,2,0,B|48:192|112:240|176:192|176:112,1,210
256,128,84141,1,0
336,128,84348,2,0,B|336:64|400:16|464:64|464:144,1,210
464,208,84969,5,0
384,208,85176,1,0
304,208,85383,2,0,B|304:336,1,105
224,208,85796,1,0
144,208,86003,1,0
80,272,86210,5,4
144,336,86417,1,0
208,272,86624,1,0
272,336,86831,2,0,B|496:336,1,210
482,251,87451,1,0
482,167,87658,1,0
422,108,87865,5,0
342,188,88072,1,0
262,108,88279,1,0
182,28,88486,1,0
102,108,88693,1,0
182,188,88900,1,0
262,108,89107,1,0
342,28,89314,1,0
480,192,89520,5,0
480,192,89934,1,0
32,192,90348,5,0
32,192,90762,1,0
256,208,91176,12,0,92417
256,192,92624,5,0
256,192,92727,1,0
256,192,92831,2,0,B|256:64,1,105,4|0
176,128,93245,2,0,B|64:128,1,105,8|0
112,208,93658,2,0,B|112:320,1,105
192,272,94072,2,0,B|304:272,1,105,8|0
384,272,94486,5,0
464,224,94693,1,0
384,176,94900,2,0,B|256:176,1,105,8|0
384,80,95314,1,0
464,128,95520,1,0
384,176,95727,2,0,B|256:176,1,105,8|0
144,80,96141,6,0,B|272:80,1,105
80,176,96555,2,0,B|192:176,1,105,8|0
256,272,96969,2,0,B|128:272,1,105
320,368,97383,2,0,B|208:368,1,105,8|0
128,368,97796,5,0
64,320,98003,1,0
192,320,98210,2,0,C|192:192,1,105,8|0
128,160,98624,1,0
192,112,98831,1,0
64,112,99038,2,0,C|64:-16,1,105,8|0
16,192,99451,5,0
80,256,99658,1,0
144,320,99865,2,0,C|256:320,1,105,8|0
144,320,100279,1,0
208,256,100486,1,0
272,192,100693,2,0,C|384:192,1,105,8|0
432,256,101107,6,0,C|418:306|352:320,3,105,0|0|8|0
432,128,101934,2,0,C|418:78|352:64,3,105,0|0|8|0
336,192,102762,5,0
288,240,102969,1,0
288,144,103176,1,8
240,288,103383,1,0
240,96,103589,1,0
192,256,103796,2,0,B|128:256|80:192|128:128|208:128,1,210,0|4
304,352,104624,5,0
208,288,104831,1,0
304,224,105038,1,0
304,224,105141,1,0
304,224,105245,1,0
208,160,105451,1,2
304,96,105658,1,0
432,336,106072,5,4
496,272,106279,1,0
496,192,106486,1,8
432,128,106693,2,0,B|384:80|336:128,1,105
272,176,107107,1,0
432,224,107314,2,0,B|384:272|336:224,1,105,8|0
272,176,107727,5,0
240,256,107934,1,0
176,304,108141,1,8
96,336,108348,1,0
176,304,108555,1,0
240,256,108762,1,0
272,176,108969,1,8
272,96,109176,1,0
96,160,109383,6,0,B|96:48,1,105
96,224,109796,2,0,B|96:336,1,105,8|0
160,192,110210,1,0
240,192,110417,1,0
320,192,110624,1,8
400,192,110831,1,0
384,272,111038,6,0,C|337:297|285:270,1,105
160,208,111451,2,0,C|113:233|61:206,1,105,8|0
128,112,111865,2,0,C|175:87|227:114,1,105
352,176,112279,2,0,C|399:151|451:178,1,105,8|0
400,320,112693,5,0
320,320,112900,1,0
432,320,113107,1,8
288,320,113314,1,0
192,320,113520,5,0
112,320,113727,1,0
224,320,113934,1,8
80,320,114141,1,0
48,240,114348,6,0,B|47:203|75:178|98:205|98:242,1,105
144,96,114762,2,0,B|143:59|171:34|194:61|194:98,1,105,8|0
368,96,115176,2,0,B|368:59|340:34|317:61|317:98,1,105,0|0
464,240,115589,2,0,B|464:203|436:178|413:205|413:242,1,105,8|0
256,336,116003,6,0,B|256:208,1,105
256,144,116417,2,0,B|256:32,2,105,8|0|0
256,231,117038,1,0
256,231,117245,1,8
317,289,117451,6,0,B|317:353|253:401|189:353|189:273,1,210,4|0
256,231,118072,1,0
256,231,118279,1,0
256,144,118486,1,0
256,64,118693,1,0
256,144,118900,1,0
256,64,119107,1,0
336,48,132555,6,0,B|96:48,1,210,4|0
48,80,133176,1,0
112,128,133383,2,0,B|176:240,1,105
240,160,133796,2,0,B|304:272,1,105
336,320,134210,5,0
416,336,134417,1,0
464,272,134624,1,0
384,256,134831,1,0
48,336,135245,5,0
64,256,135451,1,0
128,304,135658,1,0
144,224,135865,6,0,B|176:80,1,105
192,32,136279,2,0,B|224:176,1,105
240,256,136693,2,0,B|272:112,1,105
288,64,137107,2,0,B|320:208,1,105
336,256,137520,5,0
432,256,137727,1,0
384,336,137934,1,0
384,176,138141,1,0
384,176,138245,1,0
384,176,138348,2,0,B|384:64,1,105
288,128,138762,2,0,B|160:128,1,105
96,128,139176,6,0,B|32:208|160:256|80:336,1,210
176,224,139796,1,0
256,128,140003,2,0,B|320:208|192:256|272:336,1,210
464,272,140831,5,0
388,299,141038,1,0
360,222,141245,1,0
437,195,141451,1,0
497,291,141658,1,0
367,333,141865,1,0
326,203,142072,1,0
454,160,142279,1,0
432,32,142486,6,0,B|320:32,1,105,0|0
384,128,142900,1,0
272,128,143107,1,0
329,225,143314,2,0,B|217:225,1,105,0|0
281,321,143727,1,0
169,321,143934,1,0
256,208,144141,12,0,144969
256,192,145176,5,8
256,192,145279,1,8
256,192,145383,1,0
256,192,145486,1,8
256,192,145589,1,0
208,48,145796,6,0,B|96:48,1,105,4|0
32,96,146210,1,0
208,144,146624,2,0,B|352:144,1,105
384,192,147038,2,0,B|496:192,1,105
320,240,147451,2,0,B|192:240,1,105,0|0
144,288,147865,2,0,B|32:288,1,105
208,336,148279,2,0,B|336:336,1,105
400,336,148693,1,0
480,336,148900,1,0
448,256,149107,6,0,B|400:144,1,105
272,352,149520,2,0,B|224:240,1,105,0|0
64,128,149934,2,0,B|112:240,1,105
240,32,150348,2,0,B|288:144,1,105,0|0
320,208,150762,5,0
320,304,150969,1,0
224,304,151176,1,0
224,208,151383,1,0
368,256,151589,5,0
272,352,151796,1,0
176,256,152003,1,0
272,160,152210,1,0
144,64,152417,5,0
64,64,152624,1,0
144,64,152831,2,0,B|256:64,1,105
368,64,153245,1,0
448,64,153451,1,0
368,64,153658,2,0,B|240:64,1,105
208,144,154072,5,0
128,144,154279,2,0,B|16:144,1,105
208,144,154693,1,0
304,144,154900,1,0
384,144,155107,2,0,B|496:144,1,105
304,144,155520,1,0
144,192,155727,6,0,B|32:256,1,105,0|0
208,256,156141,2,0,B|160:368,1,105
304,256,156555,2,0,B|352:368,1,105
368,192,156969,2,0,B|480:256,1,105,0|0
256,352,157383,5,0
256,32,157796,1,0
256,192,158210,1,0
256,192,158417,1,0
256,192,158624,1,0
256,192,158831,1,0
144,96,159038,5,4
80,160,159245,1,0
64,160,159348,1,0
48,160,159451,1,0
144,240,159658,2,0,B|144:368|304:368,1,210
240,256,160279,1,0
335,268,160486,2,0,B|336:144|200:144,1,210
185,144,161003,1,0
169,144,161107,6,0,B|50:145,1,105
144,48,161520,2,0,B|288:48,1,105,0|2
336,144,161934,2,0,B|224:144,1,105,2|0
368,96,162348,5,0
432,160,162555,1,0
448,160,162658,1,0
464,160,162762,1,0
368,240,162969,2,0,B|368:368|208:368,1,210
272,256,163589,1,0
176,268,163796,2,0,B|176:144|311:144,1,210
326,144,164314,1,0
342,144,164417,6,0,B|462:145,1,105
368,48,164831,2,0,B|224:48,1,105,0|2
176,144,165245,2,0,B|288:144,1,105,2|0
480,240,165658,5,0
416,288,165865,1,0
400,288,165969,1,0
384,288,166072,1,0
288,240,166279,1,0
304,240,166382,1,0
320,240,166486,1,0
224,288,166693,1,0
208,288,166796,1,0
192,288,166900,1,0
96,240,167107,1,0
112,240,167210,1,0
128,240,167314,1,0
32,288,167520,1,0
96,160,167727,5,0
59,258,167934,1,0
96,160,168141,1,0
21,85,168348,1,2
96,160,168555,1,2
198,138,168762,1,0
32,240,168969,5,0
96,288,169176,1,0
112,288,169279,1,0
128,288,169382,1,0
224,240,169589,1,0
208,240,169693,1,0
192,240,169796,1,0
288,288,170003,1,0
304,288,170107,1,0
320,288,170210,1,0
416,240,170417,1,0
400,240,170520,1,0
384,240,170624,1,0
480,288,170831,1,0
416,160,171038,5,0
452,258,171245,1,0
416,160,171451,1,0
490,85,171658,1,2
416,160,171865,1,2
313,138,172072,1,0
160,32,172279,6,0,C|32:32,1,105,4|0
256,32,172693,2,0,C|368:32,1,105
416,112,173107,2,0,C|288:112,1,105
416,112,173520,1,0
224,112,173727,2,0,B|80:112|32:240,1,210
64,288,174348,5,0
128,352,174555,1,0
192,288,174762,1,0
192,208,174969,1,2
256,144,175176,1,2
320,208,175382,1,0
352,32,175589,6,0,C|480:32,1,105,0|0
256,32,176003,2,0,C|144:32,1,105
96,112,176417,2,0,C|224:112,1,105
96,112,176831,1,0
288,112,177038,2,0,B|432:112|480:240,1,210
448,288,177658,5,0
384,352,177865,1,0
320,288,178072,1,0
320,208,178279,1,2
256,144,178486,1,2
192,208,178693,1,0
80,208,178900,6,0,B|0:288,1,105
80,176,179314,2,0,B|0:96,1,105
256,192,179934,1,0
336,192,180141,1,0
416,192,180348,1,0
464,80,180555,6,0,B|416:51|363:83,1,105
364,261,180969,1,0
364,82,181176,2,0,B|316:49|252:92,1,105
265,262,181589,1,0
265,83,181796,2,0,B|214:54|160:85,1,105
96,128,182210,5,0
416,128,182624,1,0
256,352,183038,1,0
256,272,183245,1,0
256,352,183451,1,0
256,272,183658,1,0
256,256,183762,1,0
256,240,183865,2,0,B|256:112,1,105
256,93,185002,1,0
256,77,185105,2,0,B|255:34,6,26.25
256,32,185519,6,0,B|135:32,1,105,4|0
256,128,185933,2,0,B|384:128,1,105,8|0
256,224,186347,2,0,B|128:224,1,105
256,320,186760,2,0,B|384:320,1,105,8|0
192,320,187174,5,0
192,320,187381,1,0
320,224,187588,1,8
320,224,187795,1,0
192,128,188002,1,0
192,128,188209,1,0
320,32,188416,1,8
320,32,188623,1,0
368,144,188829,6,0,B|416:192|368:240,1,105
144,144,189243,2,0,B|96:192|144:240,1,105,8|0
304,80,189657,2,0,B|256:32|208:80,1,105,0|0
304,304,190071,2,0,B|256:352|208:304,1,105,8|0
144,256,190485,5,0
80,192,190691,1,0
64,176,190795,1,0
48,160,190898,1,8
208,192,191105,1,0
224,176,191209,1,0
240,160,191312,1,0
144,160,191519,1,0
144,136,191623,1,0
144,112,191726,1,8
144,240,191933,1,0
144,320,192140,5,0
224,320,192347,1,0
272,320,192450,1,0
320,320,192554,1,8
400,320,192760,1,0
464,240,192967,1,0
384,240,193174,1,0
336,240,193278,1,0
288,240,193381,1,8
208,240,193588,1,0
21,165,193795,6,0,B|96:240,1,105
144,23,194209,2,0,B|144:128,1,105,8|0
330,5,194623,2,0,B|256:80,1,105
489,128,195036,2,0,B|384:128,1,105,8|0
240,128,195450,5,0
368,208,195657,2,0,B|432:240,2,52.5,0|0|8
240,272,196071,2,0,B|240:352,2,52.5
112,208,196485,2,0,B|48:240,2,52.5,0|0|8
240,128,196898,1,0
240,48,197105,5,0
320,80,197312,1,0
400,112,197519,1,0
432,32,197726,1,0
400,112,197933,1,0
368,192,198140,1,0
360,208,198243,1,0
352,224,198347,1,0
344,240,198450,1,0
336,256,198554,1,0
328,272,198657,1,0
320,288,198760,1,4
160,240,198967,5,0
80,192,199174,1,8
80,112,199381,1,0
160,64,199588,1,0
240,112,199795,1,0
240,192,200002,1,8
160,148,200209,5,0
160,148,200312,1,0
160,148,200416,1,0
160,63,200623,1,0
80,192,200829,1,8
240,192,201036,1,0
80,112,201243,1,0
240,112,201450,1,0
160,240,201657,1,8
160,148,201864,1,0
320,144,202071,6,0,B|432:144,1,105
496,272,202485,2,0,B|368:272,1,105,8|0
288,208,202898,2,0,B|400:208,1,105
464,336,203312,2,0,B|336:336,1,105,8|0
272,336,203726,5,0
240,256,203933,1,0
208,256,204036,1,0
240,256,204140,1,8
208,176,204347,1,0
176,176,204450,1,0
208,176,204554,1,0
176,96,204760,1,0
144,96,204864,1,0
176,96,204967,1,8
144,16,205174,1,0
272,16,205381,6,0,B|336:16|352:96,2,105,0|0|8
347,77,206002,1,0
256,256,206209,2,0,B|192:256|176:176,2,105,0|0|8
180,194,206829,1,0
80,64,207036,6,0,B|192:64,1,105
204,101,207347,1,0
185,139,207450,2,0,B|73:139,1,105,8|0
48,224,207864,1,0
80,304,208071,1,0
160,256,208278,1,8
192,336,208485,1,0
320,336,208691,5,0
400,304,208898,1,0
464,240,209105,1,8
496,160,209312,1,0
496,80,209519,1,0
432,16,209726,1,0
416,16,209829,1,0
400,16,209933,1,0
340,75,210140,2,0,B|240:158|125:56,1,210,4|0
256,208,210760,12,4,212002
