osu file format v13

[General]
AudioFilename: FutureMuseum.mp3
AudioLeadIn: 1500
PreviewTime: 45704
Countdown: 0
SampleSet: Soft
StackLeniency: 0.4
Mode: 0
LetterboxInBreaks: 1
WidescreenStoryboard: 0

[Editor]
Bookmarks: 16807,23160,45748
DistanceSpacing: 1
BeatDivisor: 4
GridSize: 16
TimelineZoom: 1

[Metadata]
Title:Museum of the Future (TV Size)
TitleUnicode:未来のミュージアム (TV Size)
Artist:Perfume
ArtistUnicode:Perfume
Creator:DoraX
Version:Hard
Source:
Tags:Doraemon
BeatmapID:247517
BeatmapSetID:91434

[Difficulty]
HPDrainRate:6
CircleSize:4
OverallDifficulty:6
ApproachRate:7
SliderMultiplier:1.4
SliderTickRate:1

[Events]
//Background and Video events
Video,404,"ED.avi"
0,0,"BG.jpg",0,0
//Break Periods
//Storyboard Layer 0 (Background)
//Storyboard Layer 1 (Fail)
//Storyboard Layer 2 (Pass)
//Storyboard Layer 3 (Foreground)
//Storyboard Sound Samples
//Background Colour Transformations
3,100,128,255,255

[TimingPoints]
572,352.941176470588,4,2,1,60,1,0
10454,-100,4,2,0,60,0,0
11866,-100,4,2,1,60,0,0
45748,-100,4,2,1,60,0,1
68336,-100,4,2,1,60,0,0

[Colours]
Combo1 : 128,255,0
Combo2 : 0,255,255
Combo3 : 255,255,0
Combo4 : 255,70,70

[HitObjects]
64,64,572,6,0,L|224:64,1,140,0|8,0:0|0:0,0:0:0:0:
272,80,1101,2,0,P|336:112|352:192,1,140
352,240,1630,1,8,0:0:0:0:
256,336,1983,5,0,0:0:0:0:
144,256,2336,1,8,0:0:0:0:
128,112,2689,1,0,0:0:0:0:
144,256,3042,1,8,0:0:0:0:
272,192,3395,6,0,P|368:192|384:144,1,140,0|8,0:0|0:0,0:0:0:0:
368,96,3924,2,0,P|432:80|480:144,1,140
480,192,4454,1,8,0:0:0:0:
368,288,4807,5,0,0:0:0:0:
240,256,5160,1,8,0:0:0:0:
368,288,5513,1,0,0:0:0:0:
480,208,5866,1,8,0:0:0:0:
368,288,6219,6,0,P|368:176|336:160,1,140,0|8,0:0|0:0,0:0:0:0:
288,160,6748,1,0,0:0:0:0:
240,112,6924,2,0,P|176:128|112:96,2,140,0|8|0,0:0|0:0|0:0,0:0:0:0:
256,256,7983,5,8,0:0:0:0:
272,112,8336,1,0,0:0:0:0:
256,256,8689,1,2,0:0:0:0:
256,256,8866,1,2,0:0:0:0:
192,224,9042,6,0,L|32:256,1,140,0|2,0:0|0:0,0:0:0:0:
320,160,9748,2,0,L|480:128,1,140,0|2,0:0|0:0,0:0:0:0:
336,80,10454,6,0,L|256:48,1,70,0|2,0:0|0:0,0:0:0:0:
208,80,10807,2,0,P|176:128|144:128,1,70,0|2,0:0|0:0,0:0:0:0:
112,160,11160,2,0,L|112:240,1,70,0|2,0:0|0:0,0:0:0:0:
160,272,11513,2,0,P|176:320|160:336,1,70,0|2,0:0|0:0,0:0:0:0:
96,336,11866,6,0,P|32:288|32:160,1,210,4|0,0:0|0:0,0:0:0:0:
96,144,12571,2,0,P|128:80|64:48,1,140,0|2,0:0|0:0,0:0:0:0:
192,128,13277,2,0,P|256:192|384:176,1,210
368,112,13983,2,0,P|448:144|448:208,1,140,0|2,0:0|0:0,0:0:0:0:
432,256,14513,5,0,0:0:0:0:
464,320,14689,2,0,P|400:336|320:304,1,140,0|2,0:0|0:0,0:0:0:0:
256,192,15395,2,0,L|160:192,1,70
128,160,15748,2,0,L|48:160,1,70,2|0,0:0|0:0,0:0:0:0:
48,224,16101,2,0,P|64:288|144:320,1,140,0|2,0:0|0:0,0:0:0:0:
256,288,16807,2,0,P|240:224|160:192,1,140,0|2,0:0|0:0,0:0:0:0:
288,112,17513,6,0,P|368:144|432:128,2,140,0|2|0,0:0|0:0|0:0,0:0:0:0:
224,80,18395,1,0,0:0:0:0:
208,144,18571,1,2,0:0:0:0:
144,112,18748,1,0,0:0:0:0:
128,176,18924,1,0,0:0:0:0:
256,240,19277,1,2,0:0:0:0:
128,176,19630,1,0,0:0:0:0:
64,304,19983,1,2,0:0:0:0:
128,176,20336,6,0,P|64:128|64:64,2,140,0|2|0,0:0|0:0|0:0,0:0:0:0:
256,96,21395,1,2,0:0:0:0:
256,96,21571,1,0,0:0:0:0:
256,96,21748,2,0,L|336:96,1,70
384,128,22101,2,0,P|400:160|384:192,1,70,2|0,0:0|0:0,0:0:0:0:
336,224,22454,2,0,P|320:256|336:288,1,70
384,320,22807,2,0,P|416:336|448:320,1,70,2|2,0:0|0:0,0:0:0:0:
480,256,23160,6,0,B|480:160|432:176|432:48,1,210
368,32,23866,2,0,L|288:32,1,70
240,64,24219,2,0,L|160:64,1,70,2|0,0:0|0:0,0:0:0:0:
112,32,24571,2,0,P|64:64|64:208,1,210
128,224,25277,2,0,P|144:272|144:304,1,70
208,304,25630,2,0,P|224:336|256:352,1,70,2|0,0:0|0:0,0:0:0:0:
320,336,25983,6,0,P|400:320|416:272,2,140,0|2|0,0:0|0:0|0:0,0:0:0:0:
288,272,26866,1,0,0:0:0:0:
320,208,27042,1,2,0:0:0:0:
384,192,27219,1,0,0:0:0:0:
432,144,27395,2,0,P|416:96|480:48,1,140,0|2,0:0|0:0,0:0:0:0:
352,96,28101,2,0,L|208:112,3,140,0|2|0|2,0:0|0:0|0:0|0:0,0:0:0:0:
80,80,29513,6,0,P|48:176|64:224,1,140,0|2,0:0|0:0,0:0:0:0:
192,160,30219,2,0,P|224:64|208:16,1,140,0|2,0:0|0:0,0:0:0:0:
80,80,30924,2,0,P|96:160|128:208,1,140,0|2,0:0|0:0,0:0:0:0:
272,240,31630,6,0,P|256:160|224:112,2,140,0|2|0,0:0|0:0|0:0,0:0:0:0:
352,128,32689,1,2,0:0:0:0:
480,192,33042,1,0,0:0:0:0:
480,192,33395,1,0,0:0:0:0:
80,64,34454,6,0,P|44:116|48:192,2,140,0|2|0,0:0|0:0|0:0,0:0:0:0:
128,112,35336,1,0,0:0:0:0:
192,96,35513,1,2,0:0:0:0:
240,144,35689,1,0,0:0:0:0:
304,128,35866,2,0,L|400:160,1,70
416,208,36219,2,0,P|432:240|432:288,1,70,2|0,0:0|0:0,0:0:0:0:
416,208,36571,2,0,P|448:176|480:160,1,70
416,208,36924,2,0,P|368:208|336:192,1,70,2|0,0:0|0:0,0:0:0:0:
304,256,37277,6,0,P|256:272|160:240,2,140,0|2|0,0:0|0:0|0:0,0:0:0:0:
336,192,38160,1,0,0:0:0:0:
368,128,38336,1,2,0:0:0:0:
400,64,38513,1,0,0:0:0:0:
336,32,38689,2,0,P|256:48|192:32,3,140,0|2|0|2,0:0|0:0|0:0|0:0,0:0:0:0:
96,128,40101,6,0,P|144:176|160:256,2,140,0|2|0,0:0|0:0|0:0,0:0:0:0:
64,64,40983,1,0,0:0:0:0:
128,32,41160,1,2,0:0:0:0:
192,64,41336,1,0,0:0:0:0:
256,32,41513,2,0,P|336:64|400:64,1,140,0|2,0:0|0:0,0:0:0:0:
336,192,42219,2,0,P|384:256|384:336,1,140,0|2,0:0|0:0,0:0:0:0:
256,272,42924,6,0,L|112:272,1,140,0|2,0:0|0:0,0:0:0:0:
224,192,43630,2,0,L|368:192,1,140,0|2,0:0|0:0,0:0:0:0:
256,112,44336,2,0,L|112:112,1,140,0|2,0:0|0:0,0:0:0:0:
48,144,44866,2,2,L|48:192,2,35
320,80,45748,6,0,P|368:144|384:208,1,140,4|2,0:0|0:0,0:0:0:0:
383,201,46277,1,0,0:0:0:0:
448,224,46454,2,0,P|400:272|336:256,1,140,0|2,0:0|0:0,0:0:0:0:
192,256,47160,2,0,P|128:224|64:240,1,140,0|2,0:0|0:0,0:0:0:0:
96,304,47689,1,0,0:0:0:0:
96,304,47866,2,0,P|128:256|128:176,1,140,0|2,0:0|0:0,0:0:0:0:
96,112,48395,1,0,0:0:0:0:
32,144,48571,6,0,P|32:64|96:48,1,140,0|2,0:0|0:0,0:0:0:0:
96,112,49101,2,0,P|176:144|240:144,2,140,0|2|0,0:0|0:0|0:0,0:0:0:0:
416,304,51042,6,0,L|448:160,2,140,2|0|2,0:0|0:0|0:0,0:0:0:0:
352,320,51924,2,0,P|272:320|240:272,2,140,0|2|0,0:0|0:0|0:0,0:0:0:0:
352,176,52983,1,0,0:0:0:0:
288,160,53160,1,2,0:0:0:0:
224,144,53336,1,0,0:0:0:0:
64,304,54219,6,0,L|224:304,1,140,0|2,0:0|0:0,0:0:0:0:
240,240,54748,2,0,L|384:240,1,140
432,192,55277,1,2,0:0:0:0:
464,128,55454,1,0,0:0:0:0:
432,64,55630,2,0,L|352:64,1,70,2|0,0:0|0:0,0:0:0:0:
304,32,55983,2,0,L|224:32,1,70,2|0,0:0|0:0,0:0:0:0:
448,320,57042,6,0,P|352:336|304:304,1,140,4|2,0:0|0:0,0:0:0:0:
256,288,57571,1,0,0:0:0:0:
192,320,57748,2,0,L|112:320,1,70
64,288,58101,2,0,P|48:256|48:208,1,70,2|0,0:0|0:0,0:0:0:0:
112,192,58454,2,0,P|112:112|64:96,1,140,0|2,0:0|0:0,0:0:0:0:
32,160,58983,1,0,0:0:0:0:
32,160,59160,2,0,P|96:144|160:96,1,140,0|2,0:0|0:0,0:0:0:0:
208,48,59689,1,0,0:0:0:0:
272,96,59866,6,0,P|336:128|400:112,1,140,0|2,0:0|0:0,0:0:0:0:
448,160,60395,2,0,P|480:240|464:304,2,140,0|2|0,0:0|0:0|0:0,0:0:0:0:
64,64,62336,6,0,B|64:128|96:128|96:208,2,140,2|0|2,0:0|0:0|0:0,0:0:0:0:
128,48,63219,1,0,0:0:0:0:
192,64,63395,2,0,L|192:112,2,35
256,192,63924,2,0,P|320:208|400:192,2,140,0|2|0,0:0|0:0|0:0,0:0:0:0:
192,208,64807,2,0,L|192:256,2,35
128,192,65160,1,2,0:0:0:0:
256,128,65513,6,0,P|256:80|176:32,1,140,0|2,0:0|0:0,0:0:0:0:
256,256,66219,2,0,P|256:304|336:352,1,140,0|2,0:0|0:0,0:0:0:0:
256,192,66924,1,0,0:0:0:0:
256,192,67277,1,0,0:0:0:0:
224,48,67630,2,0,L|144:48,1,70,2|0,0:0|0:0,0:0:0:0:
288,96,67983,2,0,L|368:96,1,70,2|0,0:0|0:0,0:0:0:0:
256,192,68336,12,0,69836,0:0:0:0:
