osu file format v5

[General]
AudioFilename: 06 - Monochrome Effect.mp3
AudioLeadIn: 0
PreviewTime: -1
Countdown: 1
SampleSet: Normal
StackLeniency: 0.3
Mode: 0
LetterboxInBreaks: 1
EditorBookmarks: 31101,63014,77539,110649,141125,155411,183982,203268

[Metadata]
Title:Monochrome Effect
Artist:Perfume
Creator:Skyripper
Version:Hard
Source:
Tags:sky pop techno

[Difficulty]
HPDrainRate:7
CircleSize:4
OverallDifficulty:7
SliderMultiplier:2.1
SliderTickRate:2

[Events]
//Background and Video events
0,0,"perfume_052.jpg"
//Break Periods
2,30825,31956
2,108930,110061
//Storyboard Layer 0 (Background)
//Storyboard Layer 1 (Failing)
//Storyboard Layer 2 (Passing)
//Storyboard Layer 3 (Foreground)
//Storyboard Sound Samples
//Background Colour Transformations
3,100,163,162,255

[TimingPoints]
7788,476.190476190476,4,1,0,100,1

[Colours]
Combo1 : 255,72,164
Combo2 : 255,128,255
Combo3 : 128,128,192
Combo4 : 34,34,255

[HitObjects]
72,64,7767,1,0
224,64,8264,1,8
368,64,8740,1,0
368,208,9216,1,8
224,208,9692,1,0
224,352,10168,1,8
368,352,10645,5,0
368,280,10883,1,0
368,208,11121,1,8
224,208,11597,1,0
224,280,11835,1,0
224,352,12073,1,8
80,352,12549,1,0
80,280,12787,1,0
80,208,13026,1,8
80,136,13264,1,0
80,64,13502,1,2
456,320,14454,5,2
384,320,14692,2,0,B|312:320|312:232,1,105
312,184,15168,1,0
144,184,15645,1,0
72,184,15883,2,0,B|72:112|160:112,1,105,2|0
208,112,16359,1,0
280,112,16597,1,0
280,184,16835,1,2
352,184,17073,2,0,B|352:320|184:320,1,210
144,320,17787,1,2
144,96,18502,5,0
72,96,18740,1,2
71,167,18978,2,0,B|70:298|206:298,1,210
272,296,19692,1,2
344,296,19930,2,0,B|407:298|407:226,1,105,0|0
408,160,20407,2,0,B|408:88|320:88,1,105,0|2
336,160,20883,2,0,B|363:242|104:114|232:240,1,210
280,264,21597,1,2
48,344,22311,5,0
120,344,22549,1,0
191,343,22787,2,0,B|165:262|423:389|295:263,1,210,2|0
312,208,23502,1,2
312,136,23740,1,0
312,208,23978,1,0
312,136,24216,1,0
312,64,24454,1,2
240,64,24692,1,0
240,208,25168,1,0
240,280,25407,1,2
448,192,26121,6,0,B|448:272|384:272,1,105,0|2
320,272,26597,1,0
168,272,27073,1,4
168,200,27311,1,10
392,192,28026,1,0
392,120,28264,1,2
320,120,28502,2,0,B|320:256|184:256,1,210
120,256,29216,1,2
160,192,29454,1,0
120,128,29692,1,0
160,64,29930,1,0
120,128,30168,1,2
160,64,30407,1,0
232,40,30645,1,4
456,48,33026,5,2
384,48,33264,1,8
384,120,33502,1,0
384,192,33740,1,8
384,264,33978,1,2
384,336,34216,2,0,B|264:336|264:184|264:64,1,315,8|10
192,80,35168,1,0
48,352,36835,5,8
120,352,37073,1,2
192,352,37311,2,0,L|312:352|312:232,1,210,0|10
312,192,38026,2,0,L|176:192,1,105
136,192,38502,1,0
136,120,38740,1,2
136,192,38978,1,4
440,56,40645,5,2
440,128,40883,1,0
440,200,41121,1,0
440,272,41359,2,0,L|296:272,1,105,0|10
264,272,41835,2,0,L|264:144,1,105,0|8
336,168,42311,1,0
264,168,42549,1,2
192,168,42787,1,8
48,352,43502,5,2
464,352,44454,2,0,B|464:224|328:224,1,210,2|0
264,224,45168,2,0,B|137:224|134:90,1,210,0|2
208,96,45883,1,0
280,96,46121,1,0
352,96,46359,2,0,B|440:96|440:176,1,105,2|8
440,216,46835,1,0
440,288,47073,2,0,B|445:337|352:336,1,105,8|2
48,40,48264,5,2
120,40,48502,1,0
192,40,48740,2,0,B|192:272,1,210,0|10
265,252,49454,2,0,B|264:32,1,210,0|8
336,40,50168,2,0,B|448:40,4,105,2|0|0|8|10
440,312,52073,5,2
368,312,52311,2,0,L|248:312|248:200,1,210
248,152,53026,1,2
248,80,53264,2,0,L|128:80|128:208,1,210
128,240,53978,1,10
128,312,54216,1,12
256,192,54930,6,0,L|256:143|312:143,1,105,2|0
384,144,55407,1,0
384,216,55645,1,0
384,288,55883,2,0,L|416:328|472:272,1,105,2|0
456,216,56359,2,0,L|456:48|392:104,1,210,0|2
376,136,57073,2,0,L|296:232|184:232,1,210
136,232,57787,1,10
136,160,58026,1,12
464,344,59692,5,2
392,344,59930,2,0,B|256:344|256:208,1,210,0|8
256,72,60883,2,0,B|112:72|112:224,1,210,0|8
112,264,61597,1,2
184,264,61835,1,8
328,264,62311,1,8
400,264,62549,1,2
400,24,63026,5,8
160,24,63502,1,2
344,176,63978,1,8
104,176,64454,1,2
288,336,64930,1,8
48,336,65407,1,0
120,336,65645,1,10
328,336,66359,5,2
448,336,66597,2,0,B|448:184,3,105,0|0|0|2
208,232,67787,2,0,B|80:160|216:64,1,210,0|2
440,72,68740,1,0
440,312,69216,1,10
440,192,69454,1,0
312,192,69692,2,8,B|232:192,2,52.5
440,192,70168,1,10
256,344,70645,5,0
256,104,71121,1,2
16,104,71597,1,0
256,104,72073,1,2
496,104,72549,1,0
256,104,73026,1,2
256,224,73264,1,8
56,224,73978,5,2
56,344,74216,2,0,B|168:344,2,105
56,224,74930,1,10
272,128,75407,6,0,B|272:248,1,105,0|8
392,232,75883,1,2
256,192,76121,12,6,76835
464,48,77549,5,2
464,120,77787,1,0
400,82,78026,2,0,B|427:164|168:36|296:162,1,210
344,184,78740,1,2
416,208,78978,1,0
360,256,79216,1,0
432,280,79454,1,0
376,328,79692,1,2
304,328,79930,2,0,B|184:328|184:144,1,210
184,112,80645,1,2
72,304,81359,5,0
144,304,81597,1,2
108,238,81835,2,0,B|-6:127|253:255|226:173,1,210
184,128,82549,1,2
256,112,82787,1,0
328,128,83026,1,0
256,112,83264,1,0
328,128,83502,1,2
280,184,83740,2,0,B|280:320|440:320,1,210
184,128,85168,5,0
240,176,85407,1,2
168,200,85645,2,0,B|40:200|40:368,1,210,0|8
114,336,86359,2,0,B|117:269|187:269,1,105,2|8
184,344,86835,1,0
256,344,87073,1,0
256,272,87311,2,2,B|319:272|322:205,1,105,2|8
472,208,88026,2,6,B|472:336,1,105,8|6
480,88,88978,5,0
480,16,89216,1,2
480,88,89454,2,0,B|480:208|312:208,1,210,0|2
264,208,90168,1,2
40,208,90883,1,0
40,280,91121,1,2
112,280,91359,1,0
240,208,91835,1,0
240,280,92073,1,2
456,280,92787,5,0
456,208,93026,2,0,B|456:152|368:152,1,105,2|0
384,296,93740,1,0
384,368,93978,1,2
320,336,94216,1,0
320,264,94454,1,0
256,304,94692,1,0
256,232,94930,1,2
191,266,95168,1,0
64,192,95645,1,0
64,120,95883,1,6
280,120,96597,6,0,B|392:120|392:192,1,105,0|10
424,208,97073,1,0
344,328,97549,1,0
272,312,97787,1,10
208,272,98026,1,0
168,208,98264,1,0
160,136,98502,1,8
160,64,98740,1,2
232,64,98978,1,0
376,64,99454,1,8
304,64,99692,1,2
304,136,99930,2,8,B|304:200,2,52.5
304,280,100645,6,0,B|232:280|232:360,1,105,2|0
88,344,101359,1,0
88,272,101597,1,2
160,272,101835,1,0
88,272,102073,1,0
160,272,102311,1,0
160,344,102549,1,2
88,344,102787,1,0
88,200,103264,2,0,B|208:200,1,105,0|2
416,192,104216,5,0
344,192,104454,1,2
272,192,104692,1,0
128,192,105168,1,0
56,192,105407,1,2
272,192,106121,5,0
272,192,106359,1,2
344,192,106597,1,0
464,288,107073,1,0
463,217,107311,2,0,B|463:97,5,105,2|0|8|0|10|0
464,40,108740,1,4
24,40,111121,5,2
96,40,111359,1,0
96,112,111597,1,0
96,184,111835,1,0
96,256,112073,1,2
168,256,112311,1,0
168,328,112549,1,0
240,328,112787,1,0
312,328,113026,1,2
312,256,113264,1,0
312,184,113502,6,0,B|200:184,2,105,0|0|2
384,184,114216,1,0
384,112,114454,2,0,B|504:112,2,105,0|0|2
312,112,115168,5,0
240,112,115407,1,0
240,184,115645,1,0
240,112,115883,1,2
240,40,116121,2,0,B|96:40|96:216,1,210
101,237,116835,1,10
173,237,117073,1,4
464,192,118740,6,0,B|464:80|296:80,1,210,2|0
240,80,119454,1,0
240,152,119692,2,0,B|240:224|128:224,1,105,2|0
100,218,120168,1,0
100,144,120407,1,0
24,144,120645,1,2
100,144,120883,1,0
256,192,121121,12,0,122073
448,192,122549,5,2
376,192,122787,1,0
304,192,123026,1,0
232,192,123264,1,0
160,192,123502,1,2
88,192,123740,2,0,L|88:128|168:104,1,105
200,112,124216,2,0,L|200:48,4,52.5,0|0|0|0|2
200,256,125168,1,8
272,256,125407,1,6
408,192,125883,5,0
408,192,126002,1,0
408,192,126121,1,0
408,264,126359,1,2
408,336,126597,1,0
336,336,126835,2,0,L|336:216,1,105
336,160,127311,1,2
264,160,127549,1,0
264,232,127787,1,0
264,232,127907,1,0
264,232,128026,1,0
264,304,128264,1,2
192,304,128502,1,4
40,48,129692,6,8,L|184:48,1,105
216,48,130168,2,0,L|368:48|368:144,1,210,2|0
368,176,130883,1,0
368,176,131002,1,0
368,176,131121,2,0,L|136:176,1,210,2|0
88,176,131835,1,0
88,248,132073,2,0,L|200:248,2,105,2|0|0
88,176,132787,1,0
88,176,132907,1,0
88,176,133026,1,2
88,248,133264,1,0
160,248,133502,2,8,L|304:248,1,105
264,320,133978,5,2
336,320,134216,1,0
336,248,134454,1,0
336,176,134692,2,0,L|336:112|384:112,1,105,0|2
448,112,135168,2,0,L|448:40|192:40,1,315,0|2
130,41,136121,1,4
128,192,136597,5,0
128,192,136716,1,0
128,192,136835,1,2
128,192,136954,1,0
128,192,137073,1,0
128,192,137192,1,0
128,192,137311,1,0
480,344,137787,5,2
480,272,138026,1,0
408,272,138264,1,0
408,200,138502,1,0
256,192,138978,12,2,139692
256,192,139930,5,8
400,192,140407,1,12
472,192,140645,1,6
256,56,141121,5,0
40,192,141597,1,2
256,328,142073,1,0
472,192,142549,1,2
256,56,143026,1,0
256,328,143502,2,0,B|256:216,1,105,2|0
448,48,144692,5,0
352,128,144930,1,0
152,288,145407,1,2
400,288,145883,1,0
400,32,146359,1,2
144,32,146835,1,0
256,256,147311,1,2
384,256,147549,1,0
384,128,147787,2,8,B|464:128,2,52.5
256,128,148264,1,2
48,272,148740,5,8
288,352,149216,1,2
288,96,149692,1,8
32,96,150168,1,2
32,344,150645,2,8,B|176:344,1,105,8|0
136,216,151121,1,2
136,88,151359,1,4
256,192,152311,5,0
328,192,152549,1,8
256,192,152787,1,0
32,192,153502,1,8
32,264,153740,1,0
256,192,154216,12,0,154930
464,48,155645,5,0
464,120,155883,1,0
399,80,156121,2,0,B|424:147|166:20|280:132,1,210,0|0
328,168,156835,1,2
400,168,157073,1,0
328,168,157311,1,0
328,240,157549,1,0
400,240,157787,1,2
400,312,158026,1,0
256,312,158502,2,0,B|256:240|184:240,1,105,0|2
72,56,159454,5,0
144,56,159692,1,2
111,120,159930,2,0,B|-3:233|255:106|229:187,1,210,0|0
272,232,160645,1,2
320,176,160883,1,0
368,232,161121,1,0
392,160,161359,1,0
344,104,161597,1,2
272,104,161835,2,0,B|144:104|144:264,1,210
144,312,162549,1,2
424,320,163264,6,0,B|424:224|344:224,1,105,0|2
304,232,163740,2,0,B|152:232|152:96,1,210
224,120,164454,1,2
296,120,164692,1,0
224,120,164930,1,0
152,120,165168,1,0
152,192,165407,1,2
224,192,165645,1,0
224,336,166121,2,0,B|104:336,1,105,0|2
336,336,167073,5,0
408,336,167311,1,2
408,264,167549,2,0,B|408:32,1,210,0|8
334,54,168264,1,2
113,54,168978,2,0,B|233:54,1,105,0|8
216,128,169454,1,2
360,128,169930,2,0,B|360:248,1,105,0|2
464,352,170883,6,0,L|464:280|392:280,1,105,0|2
360,280,171359,2,0,L|136:280,1,210,0|8
152,208,172073,2,0,L|224:208|224:160,1,105,2|8
296,176,172549,2,0,L|296:209|368:209,1,105,0|8
440,208,173026,2,0,L|440:88,1,105,2|8
296,104,173740,1,8
224,104,173978,1,10
256,320,174692,5,0
184,320,174930,1,2
112,320,175168,2,0,B|112:192|272:192,1,210,0|8
320,192,175883,2,0,B|320:128|248:120,1,105,2|0
184,120,176359,2,0,B|128:120|128:32,1,105,0|8
201,46,176835,1,2
272,48,177073,2,0,B|408:48|408:208,1,210
408,248,177787,1,2
184,248,178502,5,0
112,248,178740,1,2
152,184,178978,2,0,L|224:184|224:32,1,210
296,48,179692,1,2
224,48,179930,1,0
152,48,180168,1,0
152,120,180407,1,0
152,48,180645,1,2
80,48,180883,1,8
80,192,181359,2,0,B|80:320,1,105,8|2
296,288,182311,5,0
368,288,182549,1,2
368,216,182787,1,8
216,216,183264,1,8
216,144,183502,1,2
432,144,184216,5,8
432,216,184454,1,2
432,288,184692,2,0,B|312:288|312:136,1,210
312,72,185407,1,2
240,72,185645,1,8
312,72,185883,1,0
384,72,186121,1,8
432,128,186359,1,10
472,192,186597,1,8
256,192,186835,5,4
