osu file format v5

[General]
AudioFilename: 06 - Monochrome Effect.mp3
AudioLeadIn: 0
PreviewTime: -1
Countdown: 1
SampleSet: Normal
StackLeniency: 0.7
Mode: 0
LetterboxInBreaks: 1
EditorBookmarks: 14696,31101,63014,77539,110649,141125,155411,183982,203268

[Metadata]
Title:Monochrome Effect
Artist:Perfume
Creator:Skyripper
Version:Easy
Source:
Tags:sky pop techno

[Difficulty]
HPDrainRate:0
CircleSize:3
OverallDifficulty:1
SliderMultiplier:1.6
SliderTickRate:2

[Events]
//Background and Video events
0,0,"perfume_052.jpg"
//Break Periods
2,30825,31956
//Storyboard Layer 0 (Background)
//Storyboard Layer 1 (Failing)
//Storyboard Layer 2 (Passing)
//Storyboard Layer 3 (Foreground)
//Storyboard Sound Samples
//Background Colour Transformations
3,100,163,162,255

[TimingPoints]
7788,476.190476190476,4,1,0,100,1

[Colours]
Combo1 : 255,72,164
Combo2 : 255,128,255
Combo3 : 128,128,192
Combo4 : 26,26,255

[HitObjects]
48,48,7789,1,0
464,48,9692,1,0
464,336,11597,1,0
48,336,13502,1,8
256,272,14454,1,12
64,112,15407,5,0
176,112,15883,1,8
288,112,16359,1,0
288,224,16835,1,8
176,224,17311,1,0
64,224,17787,1,8
64,256,19216,5,0
176,256,19692,1,8
288,256,20168,1,0
288,144,20645,1,8
400,144,21121,1,0
400,256,21597,1,8
448,64,23026,6,0,B|448:240,1,160,0|8
336,224,23978,2,0,B|144:224,1,160,0|8
176,112,24930,2,0,B|352:112,1,160,0|8
384,272,26121,6,0,B|272:272,2,80
384,160,27073,2,0,B|384:64,1,80,8|8
232,160,28026,2,0,B|120:160,2,80,0|0|8
344,160,28978,2,0,B|344:272,6,80,0|8|0|8|0|8|0
344,104,30645,1,4
64,64,33026,5,2
176,64,33502,1,0
288,64,33978,1,2
400,64,34454,1,0
400,176,34930,2,0,B|400:288,1,80,2|0
64,352,36835,5,2
176,352,37311,2,0,B|368:352,1,160,0|2
336,240,38264,2,0,B|336:64,1,160,0|2
336,24,38978,1,4
64,40,40645,6,0,B|64:136,1,80,2|0
64,176,41121,2,0,B|64:352,1,160,0|2
176,336,42073,2,0,B|368:336,1,160,0|2
392,336,42787,1,8
480,96,44454,5,2
368,96,44930,2,0,B|176:96,1,160,0|2
208,208,45883,1,0
320,208,46359,1,2
376,208,46597,1,0
432,208,46835,2,0,B|432:320,2,80,0|0|2
192,208,48264,6,0,B|0:208,1,160,2|0
104,288,49216,2,0,B|280:288,1,160,2|0
384,288,50168,2,0,B|384:96,1,160,2|0
272,128,51121,2,0,B|80:128,1,160,2|0
112,240,52073,6,0,B|224:240,3,80,2|0|0|0
304,240,53264,2,8,B|304:48,1,160
248,80,53978,2,0,B|152:80,1,80,2|0
464,208,55883,5,2
464,264,56121,1,0
464,320,56359,2,0,B|272:320,1,160,0|2
192,320,57311,2,0,B|192:128,1,160,0|2
304,160,58264,1,0
304,272,58740,2,0,B|416:272,2,80,2|0|0
192,272,59692,5,2
80,272,60168,2,0,B|80:96,1,160,0|2
136,112,60883,2,8,B|312:112,1,160
352,112,61597,2,0,B|352:224,1,80,2|0
352,304,62311,2,0,B|240:304,1,80,8|10
160,304,63026,5,8
160,192,63502,1,2
160,80,63978,1,8
272,80,64454,1,2
272,192,64930,1,8
272,304,65407,2,0,B|176:304,1,80,2|10
480,208,66835,5,8
368,208,67311,1,2
256,208,67787,1,8
256,96,68264,1,2
368,96,68740,1,8
368,208,69216,2,0,B|368:304,1,80,2|10
96,336,70645,5,8
208,336,71121,1,2
320,336,71597,1,8
320,224,72073,1,2
320,112,72549,1,8
208,112,73026,2,0,B|112:112,1,80,2|8
304,240,74216,6,0,B|400:240,2,80
128,240,75407,2,0,B|16:240,1,80
48,128,76121,2,0,B|224:128,1,160
264,128,76835,1,4
400,208,77549,6,0,B|512:208,2,80
288,208,78502,2,0,B|176:208,6,80,0|8|0|8|0|8|0
400,208,80407,2,8,B|400:320,1,80
400,112,81359,6,0,B|512:112,2,80
288,112,82311,2,0,B|176:112,6,80,0|8|0|8|0|8|0
288,224,84216,1,12
64,224,85168,6,0,B|64:112,1,80
64,88,85645,2,8,B|250:88,1,160
280,88,86359,2,0,B|279:186,5,80,0|0|8|0|8|0
278,281,88026,2,8,B|374:281,1,80,8|12
448,144,88978,6,8,B|336:144,1,80
312,144,89454,2,8,B|128:144,1,160
96,144,90168,1,8
96,304,90883,2,8,B|192:304,1,80
224,304,91359,2,8,B|416:304,1,160
440,304,92073,1,8
432,128,92787,6,8,B|320:128,1,80
350,184,93264,2,8,B|350:359,1,160
294,345,93978,2,0,B|199:345,5,80,0|0|8|0|8|0
101,342,95645,2,8,B|101:246,1,80
256,208,96597,5,8
312,208,96835,1,0
368,208,97073,2,8,B|368:32,1,160
312,48,97787,2,8,B|216:48,1,80
176,48,98264,2,0,B|176:160,1,80
176,184,98740,2,8,B|64:184,1,80
96,288,99454,1,12
304,288,100407,6,8,B|416:288,1,80
440,288,100883,2,8,B|440:112,1,160
384,128,101597,1,0
328,128,101835,1,8
272,128,102073,2,0,B|272:219,3,80,0|0|8|8
265,322,103264,1,8
208,320,103502,1,8
80,208,104216,5,8
80,152,104454,1,8
80,96,104692,1,8
192,96,105168,1,8
248,96,105407,1,8
416,96,106121,2,8,B|416:208,1,80,8|8
256,192,106597,12,4,108740
