osu file format v14

[General]
AudioFilename: Macaroni.mp3
AudioLeadIn: 1000
PreviewTime: 60130
Countdown: 0
SampleSet: Soft
StackLeniency: 0.7
Mode: 0
LetterboxInBreaks: 1
WidescreenStoryboard: 0

[Editor]
DistanceSpacing: 1.6
BeatDivisor: 4
GridSize: 8
TimelineZoom: 1

[Metadata]
Title:Macaroni
TitleUnicode:マカロニ
Artist:Perfume
ArtistUnicode:Perfume
Creator:IchiGUN
Version:Hard
Source:
Tags:ayano oomoto yuka kashino ayaka nishiwaki game kashiyuka a~chan nocchi japanese
BeatmapID:523487
BeatmapSetID:224226

[Difficulty]
HPDrainRate:6
CircleSize:4
OverallDifficulty:6
ApproachRate:7
SliderMultiplier:1.8
SliderTickRate:1

[Events]
//Background and Video events
0,0,"BG.jpg",0,0
//Break Periods
//Storyboard Layer 0 (Background)
//Storyboard Layer 1 (Fail)
//Storyboard Layer 2 (Pass)
//Storyboard Layer 3 (Foreground)
//Storyboard Sound Samples

[TimingPoints]
280,600,4,2,1,80,1,0
60280,-100,4,2,1,90,0,1
97480,-100,4,2,1,80,0,0
137080,-100,4,2,1,90,0,1
174880,-100,4,2,1,80,0,0

[Colours]
Combo1 : 182,139,105
Combo2 : 255,164,164
Combo3 : 187,255,255

[HitObjects]
256,192,280,5,4,0:0:0:0:
304,96,584,2,0,P|344:128|360:176,1,90,0|2,0:0|3:0,0:0:0:0:
328,272,1184,1,0,0:0:0:0:
208,288,1480,2,0,P|168:256|152:208,2,90,0|0|2,0:0|0:0|3:0,0:0:0:0:
256,192,2384,1,2,0:0:0:0:
184,112,2684,5,0,0:0:0:0:
256,296,2984,1,0,0:0:0:0:
328,112,3284,1,2,3:0:0:0:
160,224,3584,1,0,0:0:0:0:
352,224,3884,1,0,0:0:0:0:
256,192,4184,5,0,0:0:0:0:
184,112,4480,1,2,3:0:0:0:
328,112,4784,1,0,0:0:0:0:
256,192,5084,1,0,0:0:0:0:
300,284,5384,2,0,P|256:296|208:280,2,90,0|2|0,0:0|3:0|0:0,0:0:0:0:
360,40,6284,6,2,B|336:64|336:64|304:56|272:72,1,90,0|2,0:0|0:0,0:0:0:0:
224,312,6880,2,2,B|202:324|170:316|170:316|146:340,1,90,0|2,0:0|0:0,0:0:0:0:
88,256,7480,5,0,0:0:0:0:
88,272,7780,1,0,0:0:0:0:
176,168,8080,1,2,3:0:0:0:
176,152,8380,1,0,0:0:0:0:
304,208,8680,1,0,0:0:0:0:
304,224,8980,1,0,0:0:0:0:
392,120,9280,1,2,3:0:0:0:
392,104,9580,1,0,0:0:0:0:
488,320,10180,2,0,P|448:352|408:360,1,90
304,288,10780,2,0,P|256:280|208:288,1,90
101,359,11380,2,0,P|57:349|24:320,2,90,0|0|0,0:0|0:0|0:0,0:0:0:0:
384,192,12280,6,0,L|272:192,1,90
128,192,12880,2,0,L|224:192,1,90,2|0,3:0|0:0,0:0:0:0:
256,128,13480,2,0,L|256:32,1,90
256,256,14080,2,0,L|256:360,1,90,2|0,3:0|0:0,0:0:0:0:
160,304,14680,5,0,0:0:0:0:
160,200,14980,1,0,0:0:0:0:
256,152,15280,1,2,3:0:0:0:
352,200,15580,1,0,0:0:0:0:
352,304,15880,6,0,P|400:304|448:264,1,90,0|4,0:0|0:0,0:0:0:0:
429,159,16480,2,0,P|385:170|352:200,1,90,2|0,0:0|0:0,0:0:0:0:
440,72,17080,6,0,B|392:56|392:56|336:16,1,90
256,16,17680,1,2,3:0:0:0:
152,33,17980,2,0,B|120:56|120:56|72:72,1,90
32,176,18580,2,0,L|0:224,2,45,0|0|0,0:0|3:0|0:0,0:0:0:0:
144,152,19180,1,4,0:0:0:0:
256,192,20980,5,0,3:0:0:0:
256,192,21280,1,0,3:0:0:0:
256,192,21580,1,0,3:0:0:0:
320,280,21880,6,0,B|360:272|360:272|376:216|416:192,1,135
448,156,22480,2,0,P|484:128|468:88,1,90,8|0,0:0|0:0,0:0:0:0:
372,48,23080,1,0,0:0:0:0:
472,92,23380,5,0,0:0:0:0:
344,112,23680,1,8,0:0:0:0:
472,92,23980,5,0,0:0:0:0:
316,176,24280,1,0,0:0:0:0:
224,64,24580,1,0,0:0:0:0:
80,84,24880,1,8,0:0:0:0:
28,216,25180,2,0,L|124:280,1,90
428,108,25780,6,0,L|480:32,1,90,0|8,3:0|0:0,0:0:0:0:
424,280,26380,2,0,L|476:356,1,90,0|0,3:0|0:0,0:0:0:0:
256,192,26980,5,0,0:0:0:0:
192,104,27280,2,0,B|152:112|152:112|136:168|96:192,1,135,8|0,0:0|0:0,0:0:0:0:
64,228,27880,2,0,P|28:256|44:296,1,90,0|0,0:0|0:0,0:0:0:0:
140,336,28480,1,8,0:0:0:0:
40,292,28780,5,0,0:0:0:0:
168,272,29080,1,0,0:0:0:0:
40,292,29380,5,0,0:0:0:0:
196,208,29680,1,8,0:0:0:0:
288,320,29980,1,0,0:0:0:0:
432,300,30280,1,0,0:0:0:0:
484,168,30580,2,0,L|388:104,1,90,0|8,0:0|0:0,3:0:0:0:
100,228,31180,2,0,L|4:292,1,90,0|0,0:0|0:0,3:0:0:0:
136,88,31780,5,0,0:0:0:0:
144,72,31930,1,0,0:0:0:0:
152,56,32080,1,8,0:0:0:0:
256,24,32380,1,0,0:0:0:0:
256,192,32680,1,0,0:0:0:0:
256,360,32980,1,0,0:0:0:0:
212,276,33280,6,0,L|304:276,1,90,8|0,0:0|0:0,0:0:0:0:
302,104,33880,2,0,L|212:104,1,90
144,192,34480,1,8,0:0:0:0:
256,192,34780,1,0,0:0:0:0:
368,192,35080,1,0,0:0:0:0:
208,104,35380,6,0,L|208:8,1,90,0|8,0:0|0:0,0:0:0:0:
304,280,35980,2,0,L|304:376,1,90
72,320,36580,5,0,0:0:0:0:
72,296,36880,1,8,0:0:0:0:
144,64,37180,1,0,0:0:0:0:
144,88,37480,1,0,0:0:0:0:
368,64,37780,1,0,0:0:0:0:
368,96,38080,2,0,L|368:232,1,135,8|0,0:0|0:0,0:0:0:0:
368,288,38680,2,0,P|384:320|440:344,2,90,0|0|8,0:0|0:0|0:0,0:0:0:0:
256,192,39580,6,0,L|256:96,1,90
168,192,40180,2,0,L|120:192,2,45,0|0|4,0:0|0:0|0:0,0:0:0:0:
128,64,40780,1,2,0:0:0:0:
256,24,41080,6,0,B|304:24|304:24|344:32|384:72,1,135,0|0,0:0|0:0,0:0:0:0:
416,104,41680,2,0,P|456:144|440:192,2,90,8|0|0,0:0|0:0|0:0,0:0:0:0:
368,104,42580,6,0,L|304:176,1,90,0|8,0:0|0:0,0:0:0:0:
308,171,43180,2,0,L|244:243,1,90
248,238,43780,2,0,L|184:310,1,90,0|8,0:0|0:0,0:0:0:0:
188,305,44380,1,0,0:0:0:0:
188,305,44680,1,0,0:0:0:0:
32,152,44980,6,0,L|32:56,1,90,0|8,0:0|0:0,0:0:0:0:
32,232,45580,2,0,L|32:336,1,90
256,192,46180,6,0,L|352:192,1,90,0|8,0:0|0:0,0:0:0:0:
344,104,46780,1,0,0:0:0:0:
344,280,47080,1,0,0:0:0:0:
400,152,47380,1,0,0:0:0:0:
400,232,47680,1,8,0:0:0:0:
464,192,47980,1,0,0:0:0:0:
464,96,48280,6,0,L|392:32,1,90
464,288,48880,2,0,L|392:352,1,90,8|0,0:0|0:0,0:0:0:0:
336,192,49480,1,0,0:0:0:0:
256,104,49780,6,0,L|256:0,1,90,0|8,0:0|0:0,0:0:0:0:
256,280,50380,2,0,L|256:384,1,90
256,192,50980,1,0,0:0:0:0:
240,192,51130,1,0,0:0:0:0:
224,192,51280,1,8,0:0:0:0:
112,192,51580,1,0,0:0:0:0:
48,160,51880,1,0,0:0:0:0:
112,192,52180,5,0,0:0:0:0:
48,88,52480,1,8,0:0:0:0:
112,192,52780,5,0,0:0:0:0:
48,16,53080,1,0,0:0:0:0:
152,40,53380,2,0,P|200:40|248:64,1,90,0|8,0:0|0:0,0:0:0:0:
344,24,53980,2,0,P|384:56|448:64,1,90
432,176,54580,6,0,P|456:216|448:272,1,90,0|8,0:0|0:0,0:0:0:0:
80,208,55180,2,0,P|56:168|64:112,1,90,0|0,0:0|0:0,0:0:0:0:
256,192,55780,5,2,0:0:0:0:
184,272,56080,1,8,0:0:0:0:
256,88,56380,1,0,0:0:0:0:
328,272,56680,1,0,0:0:0:0:
160,160,56980,1,0,0:0:0:0:
352,160,57280,1,8,0:0:0:0:
256,192,57580,1,2,0:0:0:0:
256,192,57730,12,2,59380,0:0:0:0:
192,232,59680,5,2,0:3:0:0:
256,136,59980,1,2,0:3:0:0:
320,232,60280,1,4,0:3:0:0:
384,144,60580,6,0,P|400:96|440:56,1,90,0|4,0:0|0:3,0:0:0:0:
488,152,61180,1,0,0:0:0:0:
440,248,61480,1,4,0:3:0:0:
264,328,61780,5,0,0:0:0:0:
320,232,62080,1,4,0:3:0:0:
128,240,62380,6,0,P|112:288|72:328,1,90,0|4,0:0|0:3,0:0:0:0:
24,232,62980,1,0,0:0:0:0:
72,136,63280,1,4,0:3:0:0:
248,56,63580,5,0,0:0:0:0:
192,152,63880,1,4,0:3:0:0:
296,144,64180,2,0,P|336:112|352:48,2,90,0|4|0,0:0|0:3|0:0,0:0:0:0:
256,240,65080,5,0,0:0:0:0:
256,240,65380,1,0,0:0:0:0:
256,344,65680,1,4,0:3:0:0:
256,344,65980,1,0,0:0:0:0:
360,352,66280,2,0,P|400:368|464:368,2,90,0|0|4,0:0|0:0|0:3,0:0:0:0:
440,280,67180,2,0,P|480:256|496:216,1,90
472,72,67780,5,0,0:0:0:0:
336,16,68080,1,4,0:3:0:0:
192,40,68380,1,0,0:0:0:0:
24,328,68680,6,0,L|37:239,1,90,8|0,0:0|0:0,0:0:0:0:
192,40,69280,2,0,L|178:128,1,90,8|0,0:0|0:0,0:0:0:0:
