osu file format v13

[General]
AudioFilename: Perfume - MY COLOR - JPN.mp3
AudioLeadIn: 0
PreviewTime: 116887
Countdown: 0
SampleSet: Soft
StackLeniency: 0.3
Mode: 0
LetterboxInBreaks: 1
WidescreenStoryboard: 1

[Editor]
Bookmarks: 62682,69955
DistanceSpacing: 1.2
BeatDivisor: 4
GridSize: 4
TimelineZoom: 1

[Metadata]
Title:MY COLOR
TitleUnicode:MY COLOR
Artist:Perfume
ArtistUnicode:Perfume
Creator:fm4a93au04
Version:Normal
Source:
Tags:JPN Japanese Perfume
BeatmapID:303468
BeatmapSetID:117078

[Difficulty]
HPDrainRate:3
CircleSize:3
OverallDifficulty:3
ApproachRate:6
SliderMultiplier:1.2
SliderTickRate:1

[Events]
//Background and Video events
0,0,"zzz_cr_cr.png",0,0
//Break Periods
2,60270,69928
2,103906,113565
//Storyboard Layer 0 (Background)
//Storyboard Layer 1 (Fail)
//Storyboard Layer 2 (Pass)
//Storyboard Layer 3 (Foreground)
//Storyboard Sound Samples
//Background Colour Transformations
3,100,163,162,255

[TimingPoints]
69,454.545454545455,4,2,1,100,1,0
29614,-100,4,2,1,5,0,0
29841,-100,4,2,1,50,0,0
30409,-100,4,2,1,75,0,0
30864,-100,4,2,2,100,0,0
33250,-100,4,2,1,100,0,0
35069,-100,4,2,2,100,0,0
36887,-100,4,2,1,100,0,0
38705,-100,4,2,2,100,0,0
40523,-100,4,2,1,100,0,0
45069,-100,4,2,1,50,0,0
45523,-100,4,2,2,100,0,0
49387,-100,4,2,1,100,0,0
117796,-100,4,2,2,100,0,0
118250,-100,4,2,2,100,0,1
131659,-100,4,2,2,100,0,0
132341,-100,4,2,1,100,0,0
132796,-100,4,2,1,100,0,1
145978,-100,4,2,1,5,0,0
146205,-100,4,2,1,50,0,0
146773,-100,4,2,1,75,0,0
147228,-100,4,2,1,100,0,0
152228,-100,4,2,2,100,0,0
154841,-100,4,2,1,100,0,0
161432,-100,4,2,1,50,0,0
161887,-100,4,2,2,100,0,0
165750,-100,4,2,1,100,0,0

[Colours]
Combo1 : 0,213,53
Combo2 : 255,255,9
Combo3 : 255,255,255

[HitObjects]
80,48,1888,6,0,L|208:80,1,120
412,104,3024,2,0,L|476:88,2,60
344,124,3706,2,0,B|280:124|248:204|168:204,1,180
80,300,4842,6,0,L|8:292,2,60
152,316,5524,2,0,L|264:252,1,120,0|0,1:0|0:0,0:0:0:0:
400,248,6433,2,0,L|348:376,1,120
260,260,7342,2,0,B|196:260|164:180|84:180,1,180
0,76,8479,6,0,L|0:12,2,60
48,128,9160,2,0,B|167:128|167:128|224:192,1,180,0|0,1:0|0:0,0:0:0:0:
248,312,10297,1,0,0:0:0:0:
248,312,10524,2,0,L|248:248,1,60
316,228,10979,2,0,B|356:182|356:182|338:57,1,180
480,36,12115,5,0,0:0:0:0:
480,36,12342,2,0,L|489:98,1,60
456,160,12797,2,0,B|392:224|408:304|360:320,1,180,0|0,1:0|0:0,0:0:0:0:
252,232,13932,2,0,L|260:296,1,60
208,344,14387,1,0,0:0:0:0:
142,315,14614,2,0,B|104:304|120:224|56:160,1,180,4|2,1:0|0:0,0:0:0:0:
400,192,16433,5,0,0:0:0:0:
256,192,16888,1,2,0:0:0:0:
256,192,17797,1,2,0:0:0:0:
112,192,18250,1,0,0:0:0:0:
92,336,18706,2,0,P|124:340|160:324,1,60,2|0,0:0|0:0,0:0:0:0:
192,192,19388,6,0,L|313:192,1,120,2|0,0:0|0:0,0:0:0:0:
384,192,20070,1,2,0:0:0:0:
468,308,20523,1,0,0:0:0:0:
324,324,20979,1,2,0:0:0:0:
384,192,21433,1,0,0:0:0:0:
468,308,21888,1,2,0:0:0:0:
468,308,22115,2,0,L|468:232,2,60,0|2|0,0:0|0:0|0:0,0:0:0:0:
320,298,23024,6,0,L|320:363,2,60,0|2|0,0:0|0:0|0:0,0:0:0:0:
256,260,23706,2,2,P|176:148|176:84,1,180,2|0,0:0|0:0,0:0:0:0:
312,72,24841,2,0,L|312:7,2,60,0|2|0,0:0|0:0|0:0,0:0:0:0:
377,116,25523,2,2,P|356:202|293:265,1,180,2|0,0:0|0:0,0:0:0:0:
256,192,26660,12,0,29615,0:0:0:0:
106,83,30070,6,0,L|178:49,1,60,0|2,0:0|0:0,0:0:0:0:
229,39,30524,2,0,L|300:38,1,60,0|2,0:0|0:0,0:0:0:0:
359,54,30979,2,2,P|407:118|391:166,1,120,2|8,0:0|0:0,0:0:0:0:
339,190,31660,2,2,P|337:248|379:287,1,120
336,345,32342,1,8,0:0:0:0:
336,345,32570,2,0,P|256:377|161:335,1,180,0|8,0:0|0:0,0:0:0:0:
42,282,33706,6,0,L|18:225,1,60,0|2,0:0|0:0,0:0:0:0:
17,155,34160,2,0,L|40:99,1,60,8|2,0:0|0:0,0:0:0:0:
110,84,34615,2,2,P|174:43|233:38,1,120,0|8,0:0|0:0,0:0:0:0:
281,67,35297,2,2,P|339:54|387:19,1,120,0|0,0:0|0:0,0:0:0:0:
432,76,35979,1,8,0:0:0:0:
380,126,36206,2,0,B|403:151|403:151|377:173|377:173|380:238|431:281,1,180,0|8,0:0|0:0,0:0:0:0:
293,337,37342,5,0,0:0:0:0:
293,337,37570,1,2,0:0:0:0:
221,337,37797,1,8,0:0:0:0:
221,337,38024,1,2,0:0:0:0:
163,293,38251,2,0,P|212:243|216:174,1,120,0|8,0:0|0:0,0:0:0:0:
293,195,38933,2,0,P|306:252|350:292,1,120,0|0,0:0|0:0,0:0:0:0:
422,292,39615,1,8,0:0:0:0:
422,292,39842,2,0,P|479:222|445:124,1,180,0|8,0:0|0:0,0:0:0:0:
421,79,40751,5,0,0:0:0:0:
386,14,40979,2,0,L|326:40,1,60,0|2,0:0|0:0,0:0:0:0:
315,109,41433,2,0,L|378:138,1,60,0|2,0:0|0:0,0:0:0:0:
421,78,41888,5,4,0:0:0:0:
362,209,42342,1,0,0:0:0:0:
257,307,42797,1,2,0:0:0:0:
149,209,43250,1,2,0:0:0:0:
149,209,43478,1,0,0:0:0:0:
91,78,43932,1,2,0:0:0:0:
255,225,44615,6,0,L|255:289,4,60,0|0|0|0|4,0:0|0:0|1:0|1:0|0:0,0:0:0:0:
256,80,45979,1,8,0:0:0:0:
256,80,46206,2,0,B|320:144|384:48|432:96,1,180,0|8,0:0|0:0,0:0:0:0:
466,149,47115,2,0,P|498:229|453:323,1,180,0|8,0:0|0:0,0:0:0:0:
360,205,48251,6,0,L|360:268,4,60,0|2|8|2|4,0:0|0:0|0:0|0:0|0:0,0:0:0:0:
256,304,49615,1,8,0:0:0:0:
256,304,49842,2,0,B|192:240|128:336|80:288,1,180,0|8,0:0|0:0,0:0:0:0:
45,234,50750,2,0,P|13:154|58:60,1,180,0|8,0:0|0:0,0:0:0:0:
187,117,51888,6,0,L|230:54,1,60,0|2,0:0|0:0,0:0:0:0:
292,65,52342,2,0,L|325:114,1,60,0|2,0:0|0:0,0:0:0:0:
338,187,52797,2,0,P|352:250|404:290,1,120,4|0,0:0|0:0,0:0:0:0:
341,337,53479,2,0,P|255:358|168:336,1,180,0|8,0:0|0:0,0:0:0:0:
174,187,54615,2,0,P|160:250|108:290,1,120,4|0,0:0|0:0,0:0:0:0:
168,336,55297,2,0,P|254:357|341:337,1,180,0|8,0:0|0:0,0:0:0:0:
256,220,56433,5,4,0:0:0:0:
154,118,56888,1,0,0:0:0:0:
255,219,57342,1,4,0:0:0:0:
356,117,57797,1,0,0:0:0:0:
256,192,58251,12,4,60070,0:0:0:0:
256,92,70978,5,0,0:0:0:0:
357,193,71432,1,8,0:0:0:0:
256,296,71887,1,0,0:0:0:0:
153,192,72341,1,8,0:0:0:0:
256,296,72796,5,4,0:0:0:0:
357,194,73250,1,0,0:0:0:0:
357,194,73478,1,0,0:0:0:0:
492,335,74159,1,8,0:0:0:0:
372,250,74615,6,0,P|342:301|291:332,1,120,0|8,0:0|0:0,0:0:0:0:
221,332,75297,2,0,P|159:289|135:226,1,120
97,192,75979,1,8,0:0:0:0:
139,133,76206,1,0,0:0:0:0:
139,133,76433,2,0,P|169:82|221:52,1,120,0|8,0:0|0:0,0:0:0:0:
292,52,77115,2,0,P|343:82|373:133,1,120
398,200,77797,1,8,0:0:0:0:
435,338,78251,6,0,P|384:308|354:256,1,120,0|8,0:0|0:0,0:0:0:0:
398,200,78933,2,0,P|368:149|317:119,1,120
255,88,79615,1,8,0:0:0:0:
191,120,79842,1,0,0:0:0:0:
191,120,80070,2,8,P|139:149|109:201,1,120,0|8,0:0|0:0,0:0:0:0:
153,257,80750,2,0,P|123:308|72:338,1,120,0|0,0:0|0:0,0:0:0:0:
72,338,81433,1,8,0:0:0:0:
72,194,81888,6,0,L|17:144,2,60,0|0|8,0:0|0:0|0:0,0:0:0:0:
126,241,82570,2,0,B|216:245|235:305|298:302,1,180,0|8,0:0|0:0,0:0:0:0:
435,281,83706,2,0,P|455:225|436:169,1,120,0|8,0:0|0:0,0:0:0:0:
369,196,84388,2,0,P|349:140|441:46,1,180,0|8,0:0|0:0,0:0:0:0:
440,194,85524,6,0,L|495:144,2,60,4|0|8,0:0|0:0|0:0,0:0:0:0:
386,241,86206,2,0,B|296:245|277:305|214:302,1,180,0|8,0:0|0:0,0:0:0:0:
77,281,87342,2,0,P|57:225|76:169,1,120,0|8,0:0|0:0,0:0:0:0:
143,196,88024,2,0,P|163:140|71:46,1,180,0|8,0:0|0:0,0:0:0:0:
220,125,89160,5,4,0:0:0:0:
292,125,89388,1,0,0:0:0:0:
352,160,89615,1,8,0:0:0:0:
352,160,89842,2,0,P|332:216|424:310,1,180,0|8,0:0|0:0,0:0:0:0:
256,273,90979,1,2,0:0:0:0:
114,306,91433,1,8,0:0:0:0:
114,306,91660,2,0,P|175:245|160:160,1,180,0|8,0:0|0:0,0:0:0:0:
256,48,92797,6,0,L|256:125,3,60,2|0|8|0,0:0|0:0|0:0|0:0,0:0:0:0:
256,256,93933,1,0,0:0:0:0:
256,256,94160,1,2,0:0:0:0:
256,108,94615,2,0,L|256:48,2,60,2|0|8,0:0|0:0|0:0,0:0:0:0:
310,155,95297,2,0,B|381:182|358:282|429:311,1,180,0|8,0:0|0:0,0:0:0:0:
265,310,96433,6,0,L|200:310,1,60,4|0,0:0|0:0,0:0:0:0:
147,265,96888,2,0,L|92:214,1,60,8|0,0:0|0:0,0:0:0:0:
147,87,97570,2,0,L|92:36,2,60,0|8|0,0:0|0:0|0:0,0:0:0:0:
216,64,98251,2,0,P|277:44|333:51,1,120,2|8,0:0|0:0,0:0:0:0:
328,120,98933,2,0,P|415:142|502:121,1,180,0|8,0:0|0:0,0:0:0:0:
501,262,100070,6,0,P|414:242|328:264,1,180,4|0,0:0|0:0,0:0:0:0:
256,144,101206,2,0,L|256:64,2,60,0|8|0,0:0|0:0|0:0,0:0:0:0:
308,194,101888,2,0,P|255:219|200:191,1,120,2|8,0:0|0:0,0:0:0:0:
183,263,102570,2,0,P|97:242|10:262,1,180,0|8,0:0|0:0,0:0:0:0:
10,262,103706,5,4,0:0:0:0:
256,192,114615,12,2,116433,0:0:0:0:
363,92,118250,6,0,P|387:162|418:202,1,120,4|8,0:0|0:0,0:0:0:0:
448,262,118932,2,0,P|408:296|342:301,1,120,0|0,0:0|0:0,0:0:0:0:
287,256,119614,2,0,L|203:256,1,60,8|0,0:0|0:0,0:0:0:0:
170,301,120069,2,0,P|111:299|65:262,1,120,0|8,0:0|0:0,0:0:0:0:
98,198,120751,2,0,P|132:149|149:92,1,120
220,81,121432,6,0,P|240:117|281:134,1,60,8|0,0:0|0:0,0:0:0:0:
320,156,121887,1,4,0:0:0:0:
448,221,122341,1,8,0:0:0:0:
382,349,122796,1,0,0:0:0:0:
254,284,123250,1,8,0:0:0:0:
192,156,123705,1,2,0:0:0:0:
192,156,123932,2,0,L|156:88,2,60,0|10|0,0:0|0:0|0:0,0:0:0:0:
200,300,124841,5,0,0:0:0:0:
200,300,125069,2,0,P|256:320|316:296,1,120,8|4,0:0|0:0,0:0:0:0:
452,280,125978,1,8,0:0:0:0:
452,280,126206,2,0,P|439:221|387:183,1,120
324,168,126887,2,0,P|306:111|328:57,1,120,8|0,0:0|0:0,0:0:0:0:
183,57,127796,1,8,0:0:0:0:
183,57,128023,2,0,P|205:111|188:168,1,120,0|0,0:0|0:0,0:0:0:0:
118,185,128705,6,0,P|85:206|64:246,1,60,8|0,0:0|0:0,0:0:0:0:
76,296,129159,1,4,0:0:0:0:
76,296,129387,2,0,P|96:329|136:350,2,60,0|10|0,0:0|0:0|0:0,0:0:0:0:
209,240,130296,1,0,0:0:0:0:
209,240,130523,2,0,L|283:241,1,60,10|0,0:0|0:0,0:0:0:0:
341,241,130978,2,4,L|405:241,2,60,4|0|8,0:0|0:0|0:0,0:0:0:0:
341,241,131659,1,0,0:0:0:0:
8,144,132796,6,0,B|40:168|80:92|72:60,1,120,4|8,0:0|0:0,0:0:0:0:
124,16,133478,2,0,P|158:68|218:84,1,120,2|2,0:0|0:0,0:0:0:0:
284,96,134159,2,0,L|340:60,1,60,8|0,0:0|0:0,0:0:0:0:
396,24,134614,2,0,B|428:0|468:76|460:108,1,120,0|8,0:0|0:0,0:0:0:0:
404,148,135296,1,2,0:0:0:0:
404,148,135750,6,0,P|427:205|483:233,1,120,2|0,0:0|0:0,0:0:0:0:
476,232,136432,1,4,0:0:0:0:
357,312,136887,1,8,0:0:0:0:
256,212,137341,1,0,0:0:0:0:
154,312,137796,1,8,0:0:0:0:
35,232,138250,1,2,0:0:0:0:
35,232,138478,2,0,P|23:204|0:185,2,60,0|10|0,0:0|0:0|0:0,0:0:0:0:
148,312,139387,6,0,B|136:232|208:220|184:140,1,180,2|4,0:0|0:0,0:0:0:0:
228,80,140296,2,0,P|248:72|286:82,1,60,0|8,0:0|0:0,0:0:0:0:
327,140,140750,2,0,B|304:219|376:231|364:312,1,180,2|8,0:0|0:0,0:0:0:0:
308,360,141659,2,0,P|264:376|232:364,1,60,0|4,0:0|0:0,0:0:0:0:
184,348,142114,2,0,P|148:340|100:344,2,60,0|8|2,0:0|0:0|0:0,0:0:0:0:
256,192,143023,12,0,145978,0:0:0:0:
328,96,146432,6,0,L|372:152,1,60,2|2,0:0|0:0,0:0:0:0:
440,152,146887,2,0,L|450:222,1,60,0|2,0:0|0:0,0:0:0:0:
508,256,147341,2,0,B|486:312|486:312|436:320|412:352,1,120,4|8,0:0|0:0,0:0:0:0:
358,333,148023,2,0,B|353:320|303:312|303:312|280:256,1,120
256,188,148705,1,8,0:0:0:0:
256,188,149159,6,0,L|227:124,1,60,0|2,0:0|0:0,0:0:0:0:
202,64,149614,1,8,0:0:0:0:
202,64,150069,2,0,L|138:92,1,60,0|2,0:0|0:0,0:0:0:0:
79,117,150523,1,8,0:0:0:0:
79,117,150978,2,0,B|68:173|68:173|90:220|85:259,1,120,4|8,0:0|0:0,0:0:0:0:
157,232,151659,2,0,B|153:246|175:293|175:293|164:348,1,120
235,354,152341,1,8,0:0:0:0:
235,354,152796,5,0,0:0:0:0:
356,278,153250,1,8,0:0:0:0:
279,156,153705,1,0,0:0:0:0:
157,232,154159,1,8,0:0:0:0:
120,92,154614,5,4,0:0:0:0:
120,92,155069,1,8,0:0:0:0:
120,92,155296,2,0,B|176:88|200:68|200:68|240:84,1,120
296,120,155978,1,8,0:0:0:0:
296,120,156432,6,0,L|368:163,1,60,0|2,0:0|0:0,0:0:0:0:
408,191,156887,1,8,0:0:0:0:
408,191,157341,2,0,L|374:247,1,60,0|2,0:0|0:0,0:0:0:0:
406,309,157795,2,0,L|464:298,1,60,8|2,0:0|0:0,0:0:0:0:
471,225,158250,5,4,0:0:0:0:
376,116,158705,1,0,0:0:0:0:
256,192,159159,1,2,0:0:0:0:
136,116,159614,1,2,0:0:0:0:
136,116,159841,1,0,0:0:0:0:
41,225,160296,1,2,0:0:0:0:
255,225,160978,6,0,L|255:289,4,60,0|0|0|0|4,0:0|0:0|1:0|1:0|0:0,0:0:0:0:
256,80,162342,1,8,0:0:0:0:
256,80,162569,2,0,B|320:144|384:48|432:96,1,180,0|8,0:0|0:0,0:0:0:0:
464,144,163478,2,0,P|496:224|451:318,1,180,0|8,0:0|0:0,0:0:0:0:
360,205,164614,6,0,L|360:268,4,60,0|2|8|2|4,0:0|0:0|0:0|0:0|0:0,0:0:0:0:
256,304,165978,1,8,0:0:0:0:
256,304,166205,2,0,B|192:240|128:336|80:288,1,180,0|8,0:0|0:0,0:0:0:0:
48,240,167114,2,0,P|16:160|61:66,1,180,0|8,0:0|0:0,0:0:0:0:
187,117,168251,6,0,L|230:54,1,60,0|2,0:0|0:0,0:0:0:0:
292,65,168705,2,0,L|325:114,1,60,8|2,0:0|0:0,0:0:0:0:
338,187,169160,2,0,P|352:250|404:290,1,120,4|0,0:0|0:0,0:0:0:0:
341,337,169842,2,0,P|255:358|168:336,1,180,0|8,0:0|0:0,0:0:0:0:
174,187,170978,2,0,P|160:250|108:290,1,120,4|0,0:0|0:0,0:0:0:0:
168,336,171660,2,0,P|254:357|341:337,1,180,0|8,0:0|0:0,0:0:0:0:
256,220,172796,5,4,0:0:0:0:
154,118,173251,1,0,0:0:0:0:
255,219,173705,1,4,0:0:0:0:
356,117,174160,1,0,0:0:0:0:
256,192,174614,12,4,176433,0:0:0:0:
