osu file format v13

[General]
AudioFilename: Perfume - MY COLOR - JPN.mp3
AudioLeadIn: 0
PreviewTime: 116887
Countdown: 0
SampleSet: Soft
StackLeniency: 0.3
Mode: 0
LetterboxInBreaks: 1
WidescreenStoryboard: 1

[Editor]
Bookmarks: 62767,70040
DistanceSpacing: 1.2
BeatDivisor: 4
GridSize: 4
TimelineZoom: 1.7

[Metadata]
Title:MY COLOR
TitleUnicode:MY COLOR
Artist:Perfume
ArtistUnicode:Perfume
Creator:fm4a93au04
Version:Colorful
Source:
Tags:JPN Japanese Perfume
BeatmapID:306094
BeatmapSetID:117078

[Difficulty]
HPDrainRate:6
CircleSize:4
OverallDifficulty:6
ApproachRate:7
SliderMultiplier:1.4
SliderTickRate:2

[Events]
//Background and Video events
0,0,"zzz_cr_cr.png",0,0
//Break Periods
2,62087,70078
2,103905,113714
//Storyboard Layer 0 (Background)
//Storyboard Layer 1 (Fail)
//Storyboard Layer 2 (Pass)
//Storyboard Layer 3 (Foreground)
//Storyboard Sound Samples
//Background Colour Transformations
3,100,163,162,255

[TimingPoints]
69,454.545454545455,4,2,1,100,1,0
5409,-100,4,2,1,80,0,0
5637,-100,4,2,1,100,0,0
26773,-100,4,2,1,70,0,0
27682,-100,4,2,1,55,0,0
28023,-117.647058823529,4,2,1,55,0,0
28591,-100,4,2,1,30,0,0
28819,-200,4,2,1,5,0,0
29955,-100,4,2,1,50,0,0
30409,-100,4,2,2,75,0,0
30864,-100,4,2,2,100,0,0
32569,-100,4,2,1,100,0,0
34500,-100,4,2,2,100,0,0
36205,-100,4,2,1,100,0,0
38137,-100,4,2,2,100,0,0
39728,-100,4,2,1,100,0,0
44955,-100,4,2,1,50,0,0
45409,-100,4,2,2,100,0,0
49387,-100,4,2,1,100,0,0
56659,-100,4,2,1,50,0,0
57114,-100,4,2,1,100,0,0
57569,-100,4,2,1,50,0,0
58023,-100,4,2,1,50,0,0
58478,-100,4,2,1,100,0,0
58591,-100,4,2,1,50,0,0
58932,-100,4,2,1,100,0,0
59046,-100,4,2,1,50,0,0
59273,-100,4,2,1,100,0,0
59614,-100,4,2,1,50,0,0
61887,-100,4,2,1,5,0,0
70750,-100,4,2,1,100,0,0
73137,-100,4,2,1,50,0,0
73591,-100,4,2,2,100,0,0
74500,-100,4,2,1,100,0,0
116887,-200,4,2,1,70,0,0
117341,-117.647058823529,4,2,1,80,0,0
117796,-83.3333333333333,4,2,1,90,0,0
118137,-83.3333333333333,4,2,2,100,0,0
118250,-83.3333333333333,4,2,2,100,0,1
128478,-117.647058823529,4,2,2,80,0,1
129159,-83.3333333333333,4,2,2,100,0,1
132114,-83.3333333333333,4,2,2,100,0,0
132228,-83.3333333333333,4,2,1,100,0,0
132796,-83.3333333333333,4,2,1,100,0,1
135750,-117.647058823529,4,2,1,80,0,1
136319,-83.3333333333333,4,2,1,100,0,1
145978,-83.3333333333333,4,2,1,5,0,0
146205,-83.3333333333333,4,2,1,100,0,0
146546,-83.3333333333333,4,2,1,80,0,0
146773,-83.3333333333333,4,2,1,60,0,0
147000,-83.3333333333333,4,2,1,40,0,0
147228,-100,4,2,1,100,0,0
152228,-100,4,2,2,100,0,0
154500,-100,4,2,1,100,0,0
160750,-100,4,2,2,100,0,0
165750,-100,4,2,1,100,0,0
173023,-100,4,2,1,50,0,0
173478,-100,4,2,1,100,0,0
173932,-100,4,2,1,50,0,0
174841,-100,4,2,1,100,0,0
174955,-100,4,2,1,50,0,0
175296,-100,4,2,1,100,0,0
175409,-100,4,2,1,50,0,0
175637,-100,4,2,1,100,0,0
175978,-100,4,2,1,50,0,0
176432,-100,4,2,1,100,0,0
178250,-100,4,2,1,70,0,0

[Colours]
Combo1 : 0,213,53
Combo2 : 255,255,9
Combo3 : 255,255,255

[HitObjects]
92,104,1887,6,0,B|148:104|152:128|160:152|218:151,1,140,4|0,0:1|0:0,0:0:0:0:
356,152,2569,1,0,0:0:0:0:
356,152,3023,2,0,L|447:152,2,70,0|0|0,0:0|0:0|0:0,0:0:0:0:
200,108,3705,1,0,0:0:0:0:
268,160,3932,2,0,B|228:204|180:192|180:192|160:244,1,140
165,230,4841,6,0,L|136:296,2,70,0|0|0,0:0|0:0|0:0,0:0:0:0:
200,156,5523,2,0,L|228:91,1,70,0|0,1:0|0:0,0:0:0:0:
304,128,5978,2,0,L|275:192,1,70,0|0,0:0|0:0,0:0:0:0:
200,156,6432,2,0,L|116:116,1,70,0|2,0:0|0:0,0:0:0:0:
304,128,6887,2,0,L|367:158,1,70,2|0,0:0|0:0,0:0:0:0:
456,251,7341,2,0,P|430:275|419:308,1,70,2|0,0:0|0:0,0:0:0:0:
344,348,7796,1,0,0:0:0:0:
267,308,8023,2,0,P|243:244|181:217,1,140,2|2,0:0|0:0,0:0:0:0:
182,302,8705,5,0,0:0:0:0:
181,217,8932,2,0,L|176:144,1,70,0|0,0:0|1:0,0:0:0:0:
252,65,9387,2,0,L|256:134,1,70
338,124,9841,1,2,0:0:0:0:
338,124,10296,2,0,L|426:111,2,70,2|0|2,0:0|0:0|0:0,0:0:0:0:
208,54,10978,2,0,L|197:123,1,70,0|2,0:0|0:0,0:0:0:0:
276,237,11432,2,0,L|267:168,1,70,2|2,0:0|0:0,0:0:0:0:
284,86,11887,2,0,P|312:94|340:134,1,70,0|2,0:0|0:0,0:0:0:0:
176,202,12341,2,0,P|148:194|124:154,1,70,2|2,0:0|0:0,0:0:0:0:
44,190,12796,6,0,P|51:218|28:259,1,70,2|0,0:0|0:0,0:0:0:0:
99,313,13250,1,2,0:0:0:0:
99,313,13478,2,0,P|116:296|231:337,1,140
381,323,14159,6,0,P|347:332|314:322,1,70,2|0,0:0|0:0,0:0:0:0:
348,234,14614,2,0,P|314:224|290:199,1,70,4|0,1:0|0:0,0:0:0:0:
369,142,15069,2,0,P|345:118|336:85,1,70,0|2,0:0|0:0,0:0:0:0:
337,85,15750,6,0,L|328:8,2,70,2|2|2,0:0|0:0|0:0,0:0:0:0:
350,170,16432,2,2,B|360:237|360:237|365:268|372:287|407:302,1,140,4|8,0:0|0:0,0:0:0:0:
447,230,17114,1,0,0:0:0:0:
447,230,17569,2,0,L|433:154,2,70,2|8|0,0:0|0:0|0:0,0:0:0:0:
445,314,18250,2,2,B|391:309|370:264|370:264|326:276,1,140,2|8,0:0|0:0,0:0:0:0:
244,296,18932,1,0,0:0:0:0:
244,296,19387,5,0,0:0:0:0:
181,240,19614,1,10,0:0:0:0:
98,234,19841,1,0,0:0:0:0:
181,240,20069,2,0,L|223:163,1,70,0|0,1:0|0:0,0:0:0:0:
330,143,20523,2,0,L|289:221,1,70,8|0,0:0|0:0,0:0:0:0:
182,241,20978,2,0,L|104:199,1,70,2|0,0:0|0:0,0:0:0:0:
330,143,21432,2,0,L|391:175,1,70,8|2,0:0|0:0,0:0:0:0:
470,214,21887,5,0,0:0:0:0:
330,143,22114,1,2,0:0:0:0:
259,281,22341,1,10,0:0:0:0:
399,353,22569,1,0,0:0:0:0:
399,353,23023,6,2,B|405:304|386:290|369:282|352:260|368:214,1,140
306,333,23705,2,0,L|256:387,1,70,4|0,1:0|0:0,0:0:0:0:
463,248,24159,2,0,L|513:194,1,70,8|2,0:0|0:0,0:0:0:0:
364,224,24841,5,0,0:0:0:0:
287,188,25069,1,10,0:0:0:0:
244,116,25296,1,0,0:0:0:0:
363,224,25523,2,0,L|306:285,1,70,2|0,0:0|0:0,0:0:0:0:
244,116,25978,2,0,L|301:55,1,70,8|2,0:0|0:0,0:0:0:0:
403,179,26659,6,0,P|416:212|440:237,1,70,0|8,0:0|0:0,0:0:0:0:
504,292,27114,2,0,P|444:284|368:320,1,140,2|0,0:0|0:0,0:0:0:0:
296,280,27796,5,8,0:0:0:0:
222,230,28023,2,0,P|168:255|109:249,1,119.000002269745,2|0,0:0|0:0,0:0:0:0:
41,204,28705,5,8,0:0:0:0:
64,120,28932,2,0,P|124:84|224:100,1,175,0|0,0:0|0:0,0:0:0:0:
304,128,30296,5,2,0:0:0:0:
253,194,30524,1,0,0:0:0:0:
173,169,30751,1,2,0:0:0:0:
171,85,30978,2,0,P|165:45|181:14,1,70,4|0,0:0|0:0,0:0:0:0:
251,59,31432,1,8,0:0:0:0:
251,59,31659,2,0,P|317:43|374:82,1,140,0|0,0:0|0:0,0:0:0:0:
423,150,32341,2,0,P|358:167|303:127,1,140,8|0,0:0|0:0,0:0:0:0:
208,129,33023,5,0,0:0:0:0:
208,129,33250,2,0,P|161:166|136:169,1,70,8|0,0:0|0:0,0:0:0:0:
81,127,33705,1,0,0:0:0:0:
81,210,33932,1,0,0:0:0:0:
154,250,34159,1,8,0:0:0:0:
227,208,34387,1,0,0:0:0:0:
227,208,34614,6,0,P|230:139|184:89,1,140,2|8,0:0|0:0,0:0:0:0:
138,175,35296,2,0,P|131:242|177:292,1,140,0|0,0:0|0:0,0:0:0:0:
330,191,35978,2,0,P|336:123|290:73,1,140,8|0,0:0|0:0,0:0:0:0:
198,52,36659,5,2,0:0:0:0:
128,116,36887,2,0,P|107:141|64:152,1,70,8|0,0:0|0:0,0:0:0:0:
47,232,37341,2,0,P|72:252|83:296,1,70,0|2,0:0|0:0,0:0:0:0:
165,304,37796,2,0,P|186:277|219:268,1,70,8|0,0:0|0:0,0:0:0:0:
276,329,38250,6,0,P|303:262|261:196,1,140,2|8,0:0|0:0,0:0:0:0:
219,268,38932,2,0,L|376:270,1,140
456,160,39614,2,0,L|316:158,1,140,8|0,0:0|0:0,0:0:0:0:
188,240,40296,5,2,0:0:0:0:
188,240,40523,2,0,P|237:211|247:180,1,70,8|0,0:0|0:0,0:0:0:0:
247,107,40978,1,2,0:0:0:0:
325,75,41205,1,2,0:0:0:0:
380,138,41432,1,8,0:0:0:0:
337,210,41659,1,2,0:0:0:0:
256,192,41887,5,4,0:0:0:0:
256,160,42341,1,0,0:0:0:0:
256,128,42796,1,2,0:0:0:0:
256,96,43250,1,2,0:0:0:0:
256,96,43478,1,0,0:0:0:0:
256,64,43932,1,2,0:0:0:0:
128,192,44614,5,0,0:0:0:0:
192,280,44841,1,2,0:0:0:0:
256,192,45069,1,8,1:0:0:0:
320,280,45296,1,0,1:0:0:0:
384,192,45523,5,4,0:0:0:0:
195,133,45978,1,8,0:0:0:0:
195,133,46205,2,0,P|231:109|325:143,1,140,0|0,0:0|0:0,0:0:0:0:
256,192,46887,1,8,0:0:0:0:
197,251,47114,2,0,B|223:285|291:285|319:244|319:244|348:285|415:285|442:251,1,280,0|2,0:0|0:0,0:0:0:0:
384,192,48250,5,0,0:0:0:0:
320,104,48478,1,2,0:0:0:0:
256,192,48705,1,8,0:0:0:0:
192,104,48932,1,2,0:0:0:0:
128,192,49159,5,4,0:0:0:0:
317,251,49614,1,8,0:0:0:0:
317,251,49841,2,0,P|281:275|187:241,1,140,0|0,0:0|0:0,0:0:0:0:
256,192,50523,1,8,0:0:0:0:
315,133,50750,2,0,B|288:98|220:98|192:139|192:139|163:98|96:98|69:131,1,280,0|0,0:0|0:0,0:0:0:0:
129,192,51887,6,0,L|148:260,1,70,0|2,0:0|0:0,0:0:0:0:
248,261,52341,2,0,L|256:192,1,70,8|2,0:0|0:0,0:0:0:0:
447,190,52796,2,0,P|419:252|355:275,1,140,4|8,0:0|0:0,0:0:0:0:
364,192,53478,1,2,0:0:0:0:
257,62,53932,1,0,0:0:0:0:
150,192,54387,1,2,0:0:0:0:
65,190,54614,2,0,P|93:252|157:274,1,140,4|8,0:0|0:0,0:0:0:0:
150,192,55296,1,0,0:0:0:0:
257,322,55750,1,2,0:0:0:0:
257,322,55978,1,0,0:0:0:0:
257,62,56432,5,4,0:0:0:0:
400,192,56887,5,4,3:0:0:0:
257,322,57341,5,4,0:0:0:0:
112,192,57796,5,4,3:0:0:0:
400,192,58250,2,0,L|368:128,1,70,4|0,3:0|0:0,0:0:0:0:
256,192,58705,2,0,L|256:264,1,70,4|0,3:0|0:0,0:0:0:0:
112,192,59159,1,4,3:0:0:0:
112,192,59387,2,0,L|127:160,2,35,0|0|4,0:0|0:0|3:0,0:0:0:0:
256,192,59841,5,4,3:0:0:0:
256,192,60069,12,0,61887,0:0:0:0:
355,307,70978,5,2,0:0:0:0:
355,307,71205,1,0,0:0:0:0:
248,296,71432,1,8,0:0:0:0:
248,296,71659,1,0,0:0:0:0:
168,226,71887,1,0,0:0:0:0:
168,226,72114,1,0,0:0:0:0:
142,127,72341,1,8,0:0:0:0:
142,127,72569,1,0,0:0:0:0:
142,127,72796,6,0,L|70:175,1,70,4|0,0:0|0:0,0:0:0:0:
168,226,73250,2,0,L|137:307,1,70,0|0,1:0|1:0,0:0:0:0:
248,296,73705,2,0,L|271:379,1,70,2|0,0:0|0:0,0:0:0:0:
355,307,74159,2,0,L|422:360,1,70,8|0,0:0|0:0,0:0:0:0:
460,260,74614,6,0,P|420:240|408:204,1,70
364,148,75069,1,8,0:0:0:0:
452,144,75296,2,0,P|376:60|336:64,1,140
277,81,75978,1,8,0:0:0:0:
218,144,76205,1,0,0:0:0:0:
230,224,76432,6,0,L|272:280,1,70,0|0,0:0|0:0,0:0:0:0:
304,357,76887,2,0,L|360:315,1,70,8|0,0:0|0:0,0:0:0:0:
438,283,77341,2,0,L|396:227,1,70,0|0,0:0|0:0,0:0:0:0:
363,150,77796,2,0,L|307:192,1,70,8|0,0:0|0:0,0:0:0:0:
229,224,78250,6,0,L|156:245,1,70,0|0,0:0|0:0,0:0:0:0:
132,324,78705,1,8,0:0:0:0:
214,315,78932,2,0,B|268:298|268:298|311:275|317:226,1,140
230,224,79614,2,0,L|178:172,1,70,8|0,0:0|0:0,0:0:0:0:
113,224,80069,6,0,P|85:240|77:288,1,70,0|0,0:0|0:0,0:0:0:0:
252,264,80523,2,0,P|280:248|288:200,1,70,0|0,0:0|0:0,0:0:0:0:
160,296,80978,2,0,L|219:351,1,70,0|0,0:0|0:0,0:0:0:0:
211,187,81432,2,8,L|152:132,1,70,8|0,0:0|0:0,0:0:0:0:
273,29,81887,6,8,P|308:42|337:74,1,70,0|0,0:0|0:0,0:0:0:0:
384,136,82341,1,8,0:0:0:0:
376,216,82569,2,0,P|303:258|241:244,1,140
278,105,83250,2,0,P|295:147|290:189,1,70,8|0,0:0|0:0,0:0:0:0:
296,260,83705,6,0,P|340:312|425:303,1,140,0|8,0:0|0:0,0:0:0:0:
376,236,84387,2,0,P|424:188|408:93,1,140,0|0,0:0|0:0,0:0:0:0:
348,156,85069,1,8,0:0:0:0:
163,155,85523,6,0,P|160:190|137:215,1,70,4|0,0:0|0:0,0:0:0:0:
84,155,85978,1,8,0:0:0:0:
252,156,86205,2,0,P|244:224|192:284,1,140
136,216,86887,5,8,0:0:0:0:
256,340,87114,1,0,0:0:0:0:
376,216,87341,2,2,P|435:158|503:165,1,140,0|8,0:0|0:0,0:0:0:0:
455,234,88023,2,2,L|380:96,1,140
388,110,88705,1,8,0:0:0:0:
151,60,89159,5,4,0:0:0:0:
93,170,89387,1,2,0:0:0:0:
85,181,89500,1,2,0:0:0:0:
76,192,89614,2,0,L|129:238,1,70,8|2,0:0|0:0,0:0:0:0:
299,192,90296,2,0,L|325:127,2,70,2|8|2,0:0|0:0|0:0,0:0:0:0:
215,192,90978,2,0,L|189:127,2,70,2|0|8,0:0|0:0|0:0,0:0:0:0:
383,238,91659,1,0,0:0:0:0:
383,238,91773,1,2,0:0:0:0:
383,238,92114,6,0,L|436:192,2,70,2|8|2,0:0|0:0|0:0,0:0:0:0:
256,296,92796,1,2,0:0:0:0:
153,253,93023,1,0,0:0:0:0:
141,245,93137,1,0,0:0:0:0:
129,238,93250,2,0,P|116:202|128:175,1,70,8|2,0:0|0:0,0:0:0:0:
368,264,93932,2,0,P|317:309|249:302,2,140,2|2|2,0:0|0:0|0:0,0:0:0:0:
292,230,95069,2,0,L|260:168,1,70,8|0,0:0|0:0,0:0:0:0:
260,168,95409,2,0,P|240:112|200:85,1,105,2|0,0:0|0:0,0:0:0:0:
174,166,95978,2,0,L|122:213,1,70,8|2,0:0|0:0,0:0:0:0:
256,192,96432,5,4,0:0:0:0:
354,124,96659,1,2,0:0:0:0:
363,115,96773,1,2,0:0:0:0:
372,108,96887,2,0,L|424:61,1,70,8|2,0:0|0:0,0:0:0:0:
140,108,97569,2,0,L|88:61,2,70,2|0|2,0:0|0:0|0:0,0:0:0:0:
256,192,98250,2,0,L|256:268,2,70,2|0|8,0:0|0:0|0:0,0:0:0:0:
392,120,98932,5,0,0:0:0:0:
392,120,99046,1,2,0:0:0:0:
392,120,99387,2,0,P|407:89|435:69,2,70,2|8|2,0:0|0:0|0:0,0:0:0:0:
461,197,100069,1,4,0:0:0:0:
383,252,100296,5,2,0:0:0:0:
383,252,100409,1,2,0:0:0:0:
383,252,100523,2,0,P|368:283|340:303,1,70,8|2,0:0|0:0,0:0:0:0:
171,303,101205,2,0,P|142:282|127:251,2,70,0|8|0,0:0|0:0|0:0,0:0:0:0:
256,191,101887,2,0,P|241:160|212:140,2,70,2|2|8,0:0|0:0|0:0,0:0:0:0:
256,336,102569,5,0,0:0:0:0:
256,336,102682,1,2,0:0:0:0:
328,192,103023,1,0,0:0:0:0:
256,112,103250,1,8,0:0:0:0:
184,192,103478,1,0,0:0:0:0:
328,192,103705,1,4,0:0:0:0:
256,192,114614,12,2,116432,0:0:0:0:
60,76,116887,6,0,L|104:76,1,35,0|0,0:0|0:0,0:0:0:0:
60,176,117341,6,0,L|128:176,1,59.5000011348725,0|2,0:0|0:0,0:0:0:0:
60,272,117796,6,0,L|144:272,1,83.9999974365235,2|0,0:0|0:0,0:0:0:0:
205,210,118250,6,0,P|233:250|211:311,1,83.9999974365235,4|0,0:0|0:0,0:0:0:0:
291,344,118705,1,8,0:0:0:0:
144,272,118932,2,0,P|113:207|166:133,1,167.999994873047
205,211,119614,2,0,P|245:219|282:201,1,83.9999974365235,8|0,0:0|0:0,0:0:0:0:
367,193,120069,6,0,P|366:234|339:266,1,83.9999974365235
282,202,120523,1,8,0:0:0:0:
408,328,120750,2,0,P|452:274|460:176,1,167.999994873047
368,193,121432,1,8,0:0:0:0:
282,202,121659,1,0,0:0:0:0:
195,211,121887,6,0,L|163:129,1,83.9999974365235,4|0,0:0|0:0,0:0:0:0:
282,202,122341,2,0,L|314:284,1,83.9999974365235,8|0,0:0|0:0,0:0:0:0:
430,349,122796,2,0,L|399:271,1,83.9999974365235,0|0,0:0|0:0,0:0:0:0:
396,101,123250,2,0,L|426:179,1,83.9999974365235,8|0,0:0|0:0,0:0:0:0:
295,338,123705,2,0,L|263:256,1,83.9999974365235,0|0,0:0|0:0,0:0:0:0:
196,210,124159,1,8,0:0:0:0:
184,295,124387,2,0,B|123:281|116:229|116:229|47:203,1,167.999994873047
213,129,125069,6,0,B|266:141|281:195|281:195|350:221,1,167.999994873047,8|4,0:0|0:0,0:0:0:0:
422,175,125750,1,0,0:0:0:0:
348,132,125978,1,8,0:0:0:0:
498,130,126205,2,0,P|499:213|436:259,1,167.999994873047
422,175,126887,5,8,0:0:0:0:
344,218,127114,1,0,0:0:0:0:
340,300,127341,1,0,0:0:0:0:
422,175,127569,2,0,P|367:132|274:164,1,167.999994873047,2|2,0:0|0:0,0:0:0:0:
279,157,128478,2,0,P|236:194|176:180,1,119.000002269745,2|2,0:0|0:0,0:0:0:0:
136,113,129159,6,0,P|100:154|106:202,1,83.9999974365235,4|0,0:0|0:0,0:0:0:0:
180,184,129614,1,8,0:0:0:0:
180,183,129841,2,0,P|140:252|48:248,1,167.999994873047
136,112,130523,1,8,0:0:0:0:
220,112,130750,1,0,0:0:0:0:
270,178,130978,2,0,P|265:218|240:252,1,83.9999974365235,4|0,0:0|0:0,0:0:0:0:
180,184,131432,1,8,0:0:0:0:
254,37,131659,2,0,P|331:22|387:90,1,167.999994873047,0|2,0:0|0:0,0:0:0:0:
400,236,132341,5,2,0:0:0:0:
368,312,132569,1,2,0:0:0:0:
256,320,132796,2,0,L|256:236,1,83.9999974365235,4|0,0:0|0:0,0:0:0:0:
141,310,133250,2,0,P|137:268|112:236,1,83.9999974365235,8|2,0:0|0:0,0:0:0:0:
140,72,133932,6,0,P|137:114|112:147,1,83.9999974365235,0|8,0:0|0:0,0:0:0:0:
256,64,134387,1,0,0:0:0:0:
256,64,134614,2,0,L|256:148,1,83.9999974365235,4|0,0:0|0:0,0:0:0:0:
370,73,135068,2,0,P|374:115|400:148,1,83.9999974365235,8|0,0:0|0:0,0:0:0:0:
166,211,135750,2,0,P|199:163|256:148,1,119.000002269745,2|0,0:0|0:0,0:0:0:0:
257,244,136432,6,0,L|311:308,1,83.9999974365235,4|0,0:0|0:0,0:0:0:0:
445,332,136887,2,0,L|390:267,1,83.9999974365235,8|0,0:0|0:0,0:0:0:0:
257,244,137341,2,0,L|311:308,1,83.9999974365235,2|0,0:0|0:0,0:0:0:0:
447,196,137796,2,0,L|393:132,1,83.9999974365235,8|0,0:0|0:0,0:0:0:0:
186,111,138251,2,0,L|240:175,1,83.9999974365235,4|0,0:0|0:0,0:0:0:0:
339,196,138705,1,2,0:0:0:0:
395,286,138932,2,0,P|446:222|430:144,1,167.999994873047,0|0,0:0|0:0,0:0:0:0:
317,104,139614,6,0,P|271:118|248:155,1,83.9999974365235,8|0,0:0|0:0,0:0:0:0:
326,191,140069,2,0,P|299:231|305:274,1,83.9999974365235,4|0,0:0|0:0,0:0:0:0:
388,258,140523,2,0,P|393:305|426:334,1,83.9999974365235,8|2,0:0|0:0,0:0:0:0:
102,258,141205,6,0,P|99:299|72:330,1,83.9999974365235,0|10,0:0|0:0,0:0:0:0:
164,191,141659,2,0,P|188:224|187:265,1,83.9999974365235,0|4,0:0|0:0,0:0:0:0:
173,103,142114,2,0,P|213:113|239:145,2,83.9999974365235,0|8|2,0:0|0:0|0:0,0:0:0:0:
256,192,143250,12,0,145978,0:0:0:0:
107,70,146432,5,2,0:0:0:0:
155,81,146659,1,2,0:0:0:0:
205,89,146887,1,2,0:0:0:0:
256,101,147114,1,2,0:0:0:0:
304,112,147341,2,0,P|276:171|205:190,1,140,4|8,0:0|0:0,0:0:0:0:
231,273,148023,2,0,P|296:267|348:319,1,140,0|0,0:0|0:0,0:0:0:0:
405,254,148705,2,0,P|367:200|386:129,1,140,8|2,0:0|0:0,0:0:0:0:
429,61,149387,5,2,0:0:0:0:
384,132,149614,2,0,P|353:168|305:178,1,70,8|0,0:0|0:0,0:0:0:0:
253,205,150069,1,2,0:0:0:0:
260,122,150296,1,2,0:0:0:0:
325,255,150523,2,0,P|350:280|383:293,1,70,8|0,0:0|0:0,0:0:0:0:
459,261,150978,6,0,P|461:322|398:376,1,140,4|8,0:0|0:0,0:0:0:0:
382,293,151659,2,0,P|323:275|255:322,1,140
176,335,152341,2,0,P|108:339|59:292,1,140,8|2,0:0|0:0,0:0:0:0:
4,229,153023,5,0,0:0:0:0:
47,157,153251,1,8,0:0:0:0:
129,176,153478,1,0,0:0:0:0:
136,259,153705,1,2,0:0:0:0:
218,280,153932,1,0,0:0:0:0:
262,208,154159,1,8,0:0:0:0:
208,144,154387,1,0,0:0:0:0:
262,208,154614,6,0,P|331:243|405:201,1,140,2|8,0:0|0:0,0:0:0:0:
332,161,155296,2,0,L|316:311,1,140
168,321,155978,2,0,L|182:181,1,140,8|0,0:0|0:0,0:0:0:0:
191,98,156659,5,2,0:0:0:0:
277,107,156887,2,0,L|285:33,1,70,8|2,0:0|0:0,0:0:0:0:
359,116,157341,2,0,L|351:185,1,70,0|2,0:0|0:0,0:0:0:0:
441,121,157796,2,0,L|448:51,1,70,8|2,0:0|0:0,0:0:0:0:
433,208,158250,5,4,0:0:0:0:
429,242,158705,1,0,0:0:0:0:
426,277,159159,1,2,0:0:0:0:
422,312,159614,1,2,0:0:0:0:
422,312,159841,1,0,0:0:0:0:
419,347,160296,1,2,0:0:0:0:
384,192,160978,5,0,0:0:0:0:
320,104,161205,1,2,0:0:0:0:
256,192,161433,1,8,0:0:0:0:
192,104,161660,1,0,0:0:0:0:
128,192,161887,5,4,0:0:0:0:
317,251,162341,1,8,0:0:0:0:
317,251,162568,2,0,P|281:275|187:241,1,140,0|0,0:0|0:0,0:0:0:0:
256,192,163251,1,8,0:0:0:0:
315,133,163478,2,0,B|289:99|221:99|193:140|193:140|164:99|97:99|70:133,1,280
128,192,164614,5,0,0:0:0:0:
192,280,164842,1,0,0:0:0:0:
256,192,165069,1,8,0:0:0:0:
320,280,165296,1,0,0:0:0:0:
384,192,165523,5,4,0:0:0:0:
195,133,165978,1,8,0:0:0:0:
195,133,166205,2,0,P|231:109|325:143,1,140,0|0,0:0|0:0,0:0:0:0:
256,192,166887,1,8,0:0:0:0:
197,251,167114,2,0,B|224:286|292:286|320:245|320:245|349:286|416:286|443:253,1,280,0|2,0:0|0:0,0:0:0:0:
383,192,168251,6,0,L|364:124,1,70,0|2,0:0|0:0,0:0:0:0:
264,123,168705,2,0,L|256:192,1,70,8|2,0:0|0:0,0:0:0:0:
65,194,169160,2,0,P|93:132|157:109,1,140,4|0,0:0|0:0,0:0:0:0:
148,192,169842,1,2,0:0:0:0:
255,322,170296,1,0,0:0:0:0:
362,192,170751,1,2,0:0:0:0:
447,194,170978,2,0,P|419:132|355:110,1,140,4|0,0:0|0:0,0:0:0:0:
362,192,171660,1,0,0:0:0:0:
255,62,172114,1,2,0:0:0:0:
255,62,172342,1,0,0:0:0:0:
255,322,172796,5,4,0:0:0:0:
112,192,173251,5,4,3:0:0:0:
255,62,173705,5,4,0:0:0:0:
400,192,174160,5,4,3:0:0:0:
112,192,174614,2,0,L|144:256,1,70,0|0,1:0|0:0,0:0:0:0:
256,192,175069,2,0,L|256:120,1,70,0|0,1:0|0:0,0:0:0:0:
400,192,175523,1,0,1:0:0:0:
400,192,175751,2,0,L|385:224,2,35,0|0|0,0:0|0:0|1:0,0:0:0:0:
256,192,176205,5,0,0:0:0:0:
256,192,176433,12,4,178251,0:1:0:0:
