osu file format v12

[General]
AudioFilename: Perfume - My Color.mp3
AudioLeadIn: 0
PreviewTime: -1
Countdown: 0
SampleSet: None
StackLeniency: 0.7
Mode: 0
LetterboxInBreaks: 1
WidescreenStoryboard: 0

[Editor]
DistanceSpacing: 2
BeatDivisor: 4
GridSize: 4

[Metadata]
Title:MY COLOR
TitleUnicode:MY COLOR
Artist:Perfume
ArtistUnicode:Perfume
Creator:BluOxy
Version:Extra
Source:perfume
Tags:j-pop
BeatmapID:315660
BeatmapSetID:123654

[Difficulty]
HPDrainRate:6
CircleSize:4
OverallDifficulty:8
ApproachRate:8
SliderMultiplier:2.49999990463257
SliderTickRate:1

[Events]
//Background and Video events
0,0,"c3595c512cf31b75294fc8893e3a0beb.jpg",0,0
//Break Periods
2,107943,114125
2,178852,183102
//Storyboard Layer 0 (Background)
//Storyboard Layer 1 (Fail)
//Storyboard Layer 2 (Pass)
//Storyboard Layer 3 (Foreground)
//Storyboard Sound Samples
//Background Colour Transformations
3,100,163,162,255

[TimingPoints]
217,454.545454545455,4,1,0,80,1,0
217,-133.333333333333,4,1,0,55,0,0
16580,-111.111111111111,4,1,0,60,0,0
29080,909.090909090909,4,1,0,65,1,0
29080,-200,4,1,0,65,0,0
30216,454.545454545455,4,1,0,70,1,0
30217,-111.111111111111,4,1,0,70,0,0
31126,-86.9565217391304,4,1,0,75,0,1
60216,-100,4,1,0,65,0,0
74761,-100,4,1,0,60,0,0
103852,-100,4,1,0,55,0,0
103952,-100,4,1,0,45,0,0
114875,-100,4,1,0,60,0,0
117034,-111.111111111111,4,1,0,67,0,0
118397,-86.9565217391304,4,1,0,75,0,1
146579,-76.9230769230769,4,1,0,65,0,1
147488,-76.9230769230769,4,1,0,75,0,1
176579,-76.9230769230769,4,1,0,65,0,0
183852,-76.9230769230769,4,1,0,60,0,0
187488,-76.9230769230769,4,1,0,45,0,0
187943,-76.9230769230769,4,1,0,50,0,0
188397,-76.9230769230769,4,1,0,65,0,0
188852,-76.9230769230769,4,1,0,70,0,0
189306,454.545454545455,4,1,0,75,1,0
189761,-111.111111111111,4,1,0,65,0,0
190216,-86.9565217391304,4,1,0,70,0,1
190670,-76.9230769230769,4,1,0,75,0,1
191124,-76.9230769230769,4,1,0,80,0,1
219306,-111.111111111111,4,1,0,65,0,0
220215,-76.9230769230769,4,1,0,80,0,1
249306,-100,4,1,0,75,0,0
262033,-100,4,1,0,55,0,0
262487,-100,4,1,0,65,0,0
262942,-100,4,1,0,70,0,0
263396,-100,4,1,0,75,0,0
276578,-100,4,1,0,55,0,0
277033,-100,4,1,0,65,0,0
277487,-100,4,1,0,70,0,0
277942,-100,4,1,0,75,0,0
278396,-100,4,1,0,65,0,0
280215,-100,4,1,0,60,0,0
291124,-100,4,1,0,55,0,0
292033,-100,4,1,0,45,0,0
292942,-100,4,1,0,35,0,0

[HitObjects]
128,144,2035,2,0,P|176:132|240:140,1,93.7500000000001,8|0,0:0|0:0,0:0:0:0:
204,228,2489,2,0,P|249:239|295:237,1,93.7500000000001
378,278,2944,2,0,P|339:251|294:237,1,93.7500000000001
136,96,3398,2,0,P|174:122|219:136,1,93.7500000000001
288,200,3853,5,8,0:0:0:0:
196,224,4080,1,0,0:0:0:0:
168,312,4307,1,0,0:0:0:0:
260,292,4535,1,0,0:0:0:0:
379,277,4762,2,0,P|423:290|462:317,1,93.7500000000001
219,136,5217,2,0,P|162:186|150:232,1,93.7500000000001
332,140,5671,5,8,0:0:0:0:
184,256,5898,1,0,0:0:0:0:
360,320,6126,1,0,0:0:0:0:
504,200,6353,1,0,0:0:0:0:
464,64,6580,1,8,0:0:0:0:
332,196,6807,1,0,0:0:0:0:
312,8,7035,1,0,0:0:0:0:
176,136,7262,1,0,0:0:0:0:
44,188,7489,5,8,0:0:0:0:
188,308,7717,1,0,0:0:0:0:
364,244,7944,1,8,0:0:0:0:
216,128,8171,1,0,0:0:0:0:
184,256,8398,2,2,P|244:296|288:300,1,93.7500000000001
504,200,8853,2,2,P|432:164|388:168,1,93.7500000000001
284,124,9307,6,0,L|168:152,1,93.7500000000001,8|0,0:0|0:0,0:0:0:0:
116,264,9762,2,0,L|207:242,1,93.7500000000001
316,332,10217,2,0,P|376:308|408:272,1,93.7500000000001,0|0,0:0|0:0,0:0:0:0:
324,232,10671,2,0,P|336:176|304:124,1,93.7500000000001
240,100,11126,5,8,0:0:0:0:
116,168,11353,1,0,0:0:0:0:
300,128,11580,1,0,0:0:0:0:
52,128,11807,1,0,0:0:0:0:
240,188,12035,2,0,P|288:228|288:264,1,93.7500000000001
384,216,12489,2,0,P|397:274|379:305,1,93.7500000000001
196,332,12944,5,8,0:0:0:0:
316,52,13398,1,0,0:0:0:0:
196,332,13853,1,8,0:0:0:0:
316,52,14307,1,0,0:0:0:0:
256,192,14762,12,4,16126,0:0:0:0:
80,104,16580,6,0,P|120:64|280:96,1,224.999984550477,8|0,0:0|0:0,0:0:0:0:
432,280,17489,2,0,P|392:320|232:288,1,224.999984550477
256,192,18171,1,0,0:0:0:0:
372,72,18398,6,0,B|412:88|412:88|456:168|396:224|396:224|376:288,1,224.999984550477,8|0,0:0|0:0,0:0:0:0:
256,192,19080,1,0,0:0:0:0:
140,312,19307,2,0,B|96:296|96:296|60:232,1,112.499992275238
120,80,19762,2,0,B|164:96|164:96|196:153,1,112.499992275238
272,236,20217,5,8,0:0:0:0:
348,320,20444,1,0,0:0:0:0:
436,248,20671,1,0,0:0:0:0:
360,164,20898,1,0,0:0:0:0:
296,320,21126,5,8,0:0:0:0:
436,248,21353,1,0,0:0:0:0:
392,96,21580,1,0,0:0:0:0:
240,60,21807,1,0,0:0:0:0:
96,124,22035,6,0,P|48:164|24:216,1,112.499992275238,8|0,0:0|0:0,0:0:0:0:
184,216,22489,2,0,P|256:184|320:196,1,112.499992275238,8|0,0:0|0:0,0:0:0:0:
412,284,22944,1,2,0:0:0:0:
260,320,23171,1,2,0:0:0:0:
112,264,23398,1,2,0:0:0:0:
68,112,23626,1,2,0:0:0:0:
432,104,23853,6,0,P|392:64|232:96,1,224.999984550477,8|0,0:0|0:0,0:0:0:0:
356,192,24535,1,0,0:0:0:0:
80,280,24762,2,0,P|120:320|280:288,1,224.999984550477
156,192,25444,1,0,0:0:0:0:
372,72,25671,6,0,B|416:88|416:88|452:152,1,112.499992275238,8|0,0:0|0:0,0:0:0:0:
392,304,26126,2,0,B|348:288|348:288|315:230,1,112.499992275238
180,244,26580,1,0,0:0:0:0:
328,128,26807,1,0,0:0:0:0:
152,64,27035,1,0,0:0:0:0:
8,184,27262,1,0,0:0:0:0:
48,320,27489,5,8,0:0:0:0:
180,188,27716,1,0,0:0:0:0:
200,376,27944,1,0,0:0:0:0:
336,248,28171,1,0,0:0:0:0:
468,196,28398,5,8,0:0:0:0:
324,76,28626,1,0,0:0:0:0:
148,140,28853,1,0,0:0:0:0:
296,256,29080,2,2,B|328:272|368:240|416:264,1,93.7499964237214
80,192,30217,6,2,B|107:239|107:239|168:256,1,112.499992275238
308,192,30671,2,2,B|280:145|280:145|224:129,1,112.499992275238
224,336,31125,6,0,P|296:280|348:264,1,112.499992275238,8|0,0:0|0:0,0:0:0:0:
432,192,31579,2,0,P|416:120|352:60,1,143.749997258186
224,80,32034,2,0,P|296:120|336:176,1,143.749997258186,8|0,0:0|0:0,0:0:0:0:
192,200,32488,2,0,P|136:156|44:144,1,143.749997258186
40,284,32943,5,10,0:0:0:0:
168,352,33170,1,2,0:0:0:0:
472,216,33397,1,2,0:0:0:0:
344,284,33624,1,2,0:0:0:0:
48,148,33852,5,8,0:0:0:0:
176,216,34079,1,0,0:0:0:0:
476,128,34306,1,0,0:0:0:0:
348,60,34533,1,0,0:0:0:0:
48,148,34761,2,0,P|92:224|140:268,1,143.749997258186,8|0,0:0|0:0,0:0:0:0:
379,121,35216,2,0,P|430:172|464:236,1,143.749997258186
176,216,35670,5,8,0:0:0:0:
348,60,35897,1,0,0:0:0:0:
176,216,36125,1,0,0:0:0:0:
476,128,36352,1,0,0:0:0:0:
176,216,36579,6,2,P|96:264|72:320,1,143.749997258186,8|0,0:0|0:0,0:0:0:0:
420,248,37034,1,2,0:0:0:0:
176,216,37261,1,2,0:0:0:0:
164,60,37488,1,8,0:0:0:0:
336,216,37716,1,0,0:0:0:0:
36,128,37943,1,8,0:0:0:0:
92,248,38170,1,0,0:0:0:0:
432,192,38397,6,0,P|416:264|352:324,1,143.749997258186,8|0,0:0|0:0,0:0:0:0:
224,304,38852,2,0,P|296:264|336:208,1,143.749997258186
192,184,39306,2,0,P|136:228|44:240,1,143.749997258186,8|0,0:0|0:0,0:0:0:0:
40,100,39761,1,0,0:0:0:0:
168,32,39988,1,0,0:0:0:0:
100,100,40216,5,10,0:0:0:0:
252,64,40443,1,2,0:0:0:0:
400,120,40670,1,2,0:0:0:0:
444,272,40898,1,2,0:0:0:0:
208,80,41125,1,8,0:0:0:0:
364,148,41352,1,0,0:0:0:0:
296,308,41579,1,0,0:0:0:0:
140,240,41806,1,0,0:0:0:0:
444,80,42034,6,2,P|488:156|472:224,1,143.749997258186,10|0,0:0|0:0,0:0:0:0:
256,344,42488,6,2,P|200:284|120:260,1,143.749997258186
68,80,42943,6,2,P|160:40|232:52,1,143.749997258186,10|2,0:0|0:0,0:0:0:0:
272,284,43397,1,0,0:0:0:0:
396,216,43624,1,0,0:0:0:0:
212,256,43851,5,8,0:0:0:0:
460,256,44078,1,0,0:0:0:0:
252,200,44306,2,2,P|204:160|208:64,1,143.749997258186
316,52,44761,1,8,0:0:0:0:
196,332,44988,1,0,0:0:0:0:
316,52,45216,1,8,0:0:0:0:
196,332,45443,1,0,0:0:0:0:
92,144,45670,6,0,P|108:72|180:32,1,143.749997258186,8|0,0:0|0:0,0:0:0:0:
220,168,46125,2,0,P|276:104|356:104,1,143.749997258186
460,216,46579,2,0,P|352:208|308:252,1,143.749997258186,8|0,0:0|0:0,0:0:0:0:
128,308,47034,2,0,P|236:316|280:272,1,143.749997258186
380,120,47488,5,10,0:0:0:0:
172,176,47716,1,2,0:0:0:0:
240,48,47943,1,2,0:0:0:0:
304,252,48170,1,2,0:0:0:0:
316,8,48397,1,8,0:0:0:0:
216,280,48625,1,0,0:0:0:0:
380,120,48852,1,0,0:0:0:0:
172,176,49079,1,0,0:0:0:0:
380,236,49306,6,0,P|424:292|376:324,1,143.749997258186,8|0,0:0|0:0,0:0:0:0:
132,148,49761,2,0,P|88:92|136:60,1,143.749997258186
308,192,50216,1,8,0:0:0:0:
204,192,50443,1,0,0:0:0:0:
256,136,50670,1,0,0:0:0:0:
256,244,50897,1,0,0:0:0:0:
320,236,51125,5,10,0:0:0:0:
188,152,51352,1,2,0:0:0:0:
300,124,51579,1,2,0:0:0:0:
216,260,51806,1,2,0:0:0:0:
103,231,52034,5,8,0:0:0:0:
216,39,52261,1,0,0:0:0:0:
414,158,52488,1,0,0:0:0:0:
292,352,52716,1,0,0:0:0:0:
103,231,52943,6,0,P|112:148|172:88,1,143.749997258186,8|0,0:0|0:0,0:0:0:0:
292,104,53397,2,0,P|368:108|428:144,1,143.749997258186
360,320,53852,5,10,0:0:0:0:
96,216,54079,1,2,0:0:0:0:
336,56,54306,1,2,0:0:0:0:
176,327,54534,1,2,0:0:0:0:
416,168,54761,5,8,0:0:0:0:
160,60,54988,1,0,0:0:0:0:
416,168,55216,1,0,0:0:0:0:
176,327,55443,1,0,0:0:0:0:
336,56,55670,5,10,0:0:0:0:
96,216,55898,1,2,0:0:0:0:
360,320,56125,1,2,0:0:0:0:
96,216,56352,1,2,0:0:0:0:
218,22,56579,5,10,0:0:0:0:
96,216,56807,1,0,0:0:0:0:
293,334,57034,1,2,0:0:0:0:
407,142,57261,1,0,0:0:0:0:
294,114,57489,5,10,0:0:0:0:
210,250,57716,1,0,0:0:0:0:
322,222,57943,1,2,0:0:0:0:
190,138,58170,1,0,0:0:0:0:
254,254,58398,5,2,0:0:0:0:
468,192,59079,1,2,0:0:0:0:
468,192,59306,1,2,0:0:0:0:
44,192,59988,1,2,0:0:0:0:
44,192,60216,6,0,B|80:256|80:256|80:312,1,124.999995231629,12|0,0:0|0:0,0:0:0:0:
204,280,60670,2,0,B|256:320|256:320|304:280,1,124.999995231629
468,192,61125,2,0,B|432:128|432:128|432:72,1,124.999995231629
308,104,61579,2,0,B|256:64|256:64|208:104,1,124.999995231629
204,280,62034,6,0,B|256:320|256:320|304:280,1,124.999995231629,8|0,0:0|0:0,0:0:0:0:
308,104,62488,2,0,B|256:64|256:64|208:104,1,124.999995231629
44,192,62943,2,0,B|80:256|80:256|80:312,1,124.999995231629
468,192,63397,2,0,B|432:128|432:128|432:72,1,124.999995231629
196,216,63852,5,8,0:0:0:0:
316,176,64079,1,0,0:0:0:0:
168,168,64306,1,0,0:0:0:0:
336,224,64534,1,0,0:0:0:0:
172,108,64761,1,8,0:0:0:0:
332,280,64988,1,0,0:0:0:0:
200,64,65216,1,0,0:0:0:0:
296,328,65443,1,0,0:0:0:0:
392,152,65670,5,8,0:0:0:0:
120,248,65897,1,0,0:0:0:0:
436,192,66125,1,8,0:0:0:0:
90,191,66352,1,0,0:0:0:0:
256,8,66579,1,2,0:0:0:0:
256,354,66806,1,2,0:0:0:0:
436,192,67034,1,2,0:0:0:0:
90,191,67261,1,2,0:0:0:0:
256,354,67488,6,0,P|320:316|388:320,1,124.999995231629,8|0,0:0|0:0,0:0:0:0:
332,196,67943,2,0,P|420:224|452:256,1,124.999995231629
332,196,68397,2,0,P|270:200|218:235,1,124.999995231629
204,112,68852,2,0,P|153:75|93:63,1,124.999995231629
308,272,69306,6,8,P|358:308|418:320,1,124.999995231629
142,69,69761,2,0,P|204:64|256:30,1,124.999995231629
69,139,70216,2,0,P|119:175|180:187,1,124.999995231629
293,148,70671,2,0,P|241:183|180:188,1,124.999995231629,0|0,0:0|0:0,0:0:0:0:
132,304,71125,5,8,0:0:0:0:
252,268,71352,1,0,0:0:0:0:
372,232,71579,1,0,0:0:0:0:
492,196,71806,1,0,0:0:0:0:
380,80,72034,5,8,0:0:0:0:
260,116,72261,1,0,0:0:0:0:
140,152,72488,1,0,0:0:0:0:
20,188,72715,1,0,0:0:0:0:
380,80,72943,5,8,0:0:0:0:
132,304,73170,1,0,0:0:0:0:
260,116,73397,1,8,0:0:0:0:
252,268,73625,1,0,0:0:0:0:
140,152,73852,1,2,0:0:0:0:
372,232,74079,1,2,0:0:0:0:
20,188,74306,1,2,0:0:0:0:
492,196,74534,1,2,0:0:0:0:
276,72,74761,6,0,P|200:64|124:96,1,124.999995231629,8|0,0:0|0:0,0:0:0:0:
236,312,75216,2,0,P|312:320|388:288,1,124.999995231629
114,161,75670,2,0,P|81:239|96:320,1,124.999995231629,8|0,0:0|0:0,0:0:0:0:
397,222,76125,2,0,P|430:144|415:63,1,124.999995231629
236,312,76580,6,0,P|312:320|388:288,1,124.999995231629,8|0,0:0|0:0,0:0:0:0:
114,161,77034,2,0,P|81:239|96:320,1,124.999995231629
276,72,77488,1,10,0:0:0:0:
236,312,77716,1,2,0:0:0:0:
276,72,77943,1,2,0:0:0:0:
236,312,78171,1,2,0:0:0:0:
154,77,78397,6,0,P|214:62|276:72,1,124.999995231629,8|0,0:0|0:0,0:0:0:0:
357,306,78852,2,0,P|297:321|236:312,1,124.999995231629
82,277,79306,2,0,P|85:215|114:161,1,124.999995231629,8|0,0:0|0:0,0:0:0:0:
429,106,79761,2,0,P|426:168|397:222,1,124.999995231629
154,77,80215,6,0,P|214:62|276:72,1,124.999995231629,8|0,0:0|0:0,0:0:0:0:
357,306,80670,2,0,P|297:321|236:312,1,124.999995231629
82,277,81125,1,10,0:0:0:0:
429,106,81352,1,2,0:0:0:0:
82,106,81579,1,2,0:0:0:0:
429,277,81806,1,2,0:0:0:0:
82,277,82034,5,8,0:0:0:0:
429,106,82261,1,0,0:0:0:0:
236,312,82488,1,0,0:0:0:0:
276,72,82716,1,0,0:0:0:0:
429,277,82943,5,8,0:0:0:0:
82,106,83170,1,0,0:0:0:0:
224,352,83397,1,0,0:0:0:0:
288,40,83625,1,0,0:0:0:0:
360,220,83852,6,0,P|412:264|432:320,1,124.999995231629,8|0,0:0|0:0,0:0:0:0:
152,164,84306,2,0,P|100:120|80:64,1,124.999995231629
82,277,84761,1,10,0:0:0:0:
429,106,84988,1,2,0:0:0:0:
82,106,85216,1,2,0:0:0:0:
429,277,85443,1,2,0:0:0:0:
256,32,85670,5,8,0:0:0:0:
256,352,85897,1,0,0:0:0:0:
429,106,86125,1,0,0:0:0:0:
82,106,86352,1,0,0:0:0:0:
256,32,86579,5,8,0:0:0:0:
429,277,86806,1,0,0:0:0:0:
82,277,87034,1,0,0:0:0:0:
429,277,87261,1,0,0:0:0:0:
82,106,87488,5,8,0:0:0:0:
429,106,87716,1,0,0:0:0:0:
82,277,87943,1,8,0:0:0:0:
256,32,88170,1,0,0:0:0:0:
429,277,88397,5,2,0:0:0:0:
256,32,88625,1,2,0:0:0:0:
82,277,88852,1,2,0:0:0:0:
256,32,89079,1,2,0:0:0:0:
276,312,89306,6,0,P|200:320|124:288,1,124.999995231629,8|0,0:0|0:0,0:0:0:0:
236,72,89761,2,0,P|312:64|388:96,1,124.999995231629
460,308,90216,1,8,0:0:0:0:
236,200,90443,1,0,0:0:0:0:
360,212,90670,1,8,0:0:0:0:
120,276,90897,1,0,0:0:0:0:
368,120,91125,6,0,P|424:84|492:100,1,124.999995231629,8|0,0:0|0:0,0:0:0:0:
144,120,91579,2,0,P|88:84|20:100,1,124.999995231629
368,264,92035,2,2,P|424:300|492:284,1,124.999995231629,8|0,0:0|0:0,0:0:0:0:
144,264,92488,2,0,P|88:300|20:284,2,124.999995231629,2|2|8,0:0|0:0|0:0,0:0:0:0:
256,192,93170,1,0,0:0:0:0:
432,132,93397,1,0,0:0:0:0:
376,312,93625,1,0,0:0:0:0:
256,192,93852,5,8,0:0:0:0:
136,72,94079,1,0,0:0:0:0:
80,252,94307,1,0,0:0:0:0:
256,192,94534,1,0,0:0:0:0:
432,132,94761,6,0,L|432:256,1,124.999995231629,8|0,0:0|0:0,0:0:0:0:
80,252,95216,2,0,L|80:128,1,124.999995231629,8|0,0:0|0:0,0:0:0:0:
432,216,95670,2,2,L|432:340,1,124.999995231629
80,168,96125,2,2,L|80:44,1,124.999995231629
256,100,96579,5,8,0:0:0:0:
252,288,96806,1,0,0:0:0:0:
324,128,97034,1,0,0:0:0:0:
184,252,97261,1,0,0:0:0:0:
428,196,97488,1,8,0:0:0:0:
84,196,97716,1,0,0:0:0:0:
392,319,97943,1,0,0:0:0:0:
112,72,98170,1,0,0:0:0:0:
360,64,98397,5,8,0:0:0:0:
216,184,98625,1,0,0:0:0:0:
392,244,98852,1,0,0:0:0:0:
236,344,99079,1,0,0:0:0:0:
136,116,99306,1,10,0:0:0:0:
384,148,99534,1,2,0:0:0:0:
168,272,99761,1,2,0:0:0:0:
416,304,99988,1,2,0:0:0:0:
136,116,100216,6,0,P|208:68|264:72,1,124.999995231629,8|0,0:0|0:0,0:0:0:0:
416,304,100670,2,0,P|344:352|288:348,1,124.999995231629
168,272,101125,2,0,P|106:280|60:320,1,124.999995231629,8|0,0:0|0:0,0:0:0:0:
384,148,101579,2,0,P|445:139|491:99,1,124.999995231629
136,116,102034,5,8,0:0:0:0:
168,272,102262,1,0,0:0:0:0:
384,148,102489,1,8,0:0:0:0:
416,304,102716,1,0,0:0:0:0:
60,320,102943,1,2,0:0:0:0:
243,67,103170,1,2,0:0:0:0:
308,352,103397,1,2,0:0:0:0:
491,99,103625,1,2,0:0:0:0:
308,352,103852,5,8,0:0:0:0:
243,67,104306,2,0,P|160:68|108:108,1,124.999995231629
308,352,105670,5,8,0:0:0:0:
101,162,106124,2,0,P|37:216|23:280,1,124.999995231629
256,192,114875,12,4,116579,0:0:0:0:
432,192,117034,6,2,B|405:145|405:145|349:129,1,112.499992275238
204,192,117488,2,2,B|232:239|232:239|288:255,1,112.499992275238
432,192,117943,2,2,B|405:145|405:145|349:129,1,112.499992275238
288,48,118397,6,0,P|216:104|152:120,1,143.749997258186,8|0,0:0|0:0,0:0:0:0:
80,192,118851,2,0,P|96:264|160:324,1,143.749997258186
288,304,119306,2,0,P|216:264|176:208,1,143.749997258186,8|0,0:0|0:0,0:0:0:0:
320,184,119760,2,0,P|376:228|468:240,1,143.749997258186
472,100,120215,1,8,0:0:0:0:
344,32,120442,1,0,0:0:0:0:
40,168,120669,1,0,0:0:0:0:
168,100,120896,1,0,0:0:0:0:
464,236,121126,5,8,0:0:0:0:
336,168,121351,1,0,0:0:0:0:
36,256,121578,1,0,0:0:0:0:
164,324,121805,1,0,0:0:0:0:
464,236,122033,2,0,P|420:160|372:116,1,143.749997258186,8|0,0:0|0:0,0:0:0:0:
133,263,122488,2,0,P|82:212|48:148,1,143.749997258186
336,168,122942,5,8,0:0:0:0:
164,324,123169,1,0,0:0:0:0:
336,168,123397,1,0,0:0:0:0:
36,256,123624,1,0,0:0:0:0:
336,168,123851,6,0,P|416:120|440:64,1,143.749997258186,8|0,0:0|0:0,0:0:0:0:
92,136,124306,1,0,0:0:0:0:
336,168,124533,1,0,0:0:0:0:
348,324,124760,1,2,0:0:0:0:
176,168,124988,1,2,0:0:0:0:
476,256,125215,1,2,0:0:0:0:
420,136,125442,1,2,0:0:0:0:
80,192,125669,6,0,P|96:120|160:60,1,143.749997258186,8|0,0:0|0:0,0:0:0:0:
288,80,126124,2,0,P|216:120|176:176,1,143.749997258186
320,200,126578,2,0,P|376:156|468:144,1,143.749997258186,8|0,0:0|0:0,0:0:0:0:
472,284,127033,1,0,0:0:0:0:
344,352,127260,1,0,0:0:0:0:
412,284,127488,5,8,0:0:0:0:
260,320,127715,1,0,0:0:0:0:
112,264,127942,1,0,0:0:0:0:
68,112,128170,1,0,0:0:0:0:
304,304,128398,5,10,0:0:0:0:
148,236,128624,1,2,0:0:0:0:
216,76,128851,1,2,0:0:0:0:
372,144,129078,1,2,0:0:0:0:
68,304,129306,6,2,P|24:228|40:160,1,143.749997258186,8|0,0:0|0:0,0:0:0:0:
256,40,129760,6,2,P|312:100|392:124,1,143.749997258186
444,304,130215,6,2,P|352:344|280:332,1,143.749997258186,8|0,0:0|0:0,0:0:0:0:
240,100,130669,1,0,0:0:0:0:
116,168,130896,1,0,0:0:0:0:
300,128,131123,5,8,0:0:0:0:
52,128,131350,1,0,0:0:0:0:
260,184,131578,2,0,P|308:224|304:320,1,143.749997258186
196,332,132033,1,10,0:0:0:0:
316,52,132260,1,2,0:0:0:0:
196,332,132488,1,2,0:0:0:0:
316,52,132715,1,2,0:0:0:0:
420,240,132942,6,0,P|404:312|332:352,1,143.749997258186,8|0,0:0|0:0,0:0:0:0:
292,216,133397,2,0,P|236:280|156:280,1,143.749997258186
52,168,133851,2,2,P|160:176|204:132,1,143.749997258186
384,76,134306,2,2,P|276:68|232:112,1,143.749997258186
132,264,134760,5,8,0:0:0:0:
340,208,134988,1,0,0:0:0:0:
272,336,135215,1,0,0:0:0:0:
208,132,135442,1,0,0:0:0:0:
196,376,135669,1,10,0:0:0:0:
296,104,135897,1,2,0:0:0:0:
132,264,136124,1,2,0:0:0:0:
340,208,136351,1,2,0:0:0:0:
132,148,136578,6,0,P|88:92|136:60,1,143.749997258186,8|0,0:0|0:0,0:0:0:0:
380,236,137033,2,0,P|424:292|376:324,1,143.749997258186
204,192,137489,1,8,0:0:0:0:
308,192,137715,1,0,0:0:0:0:
256,248,137942,1,0,0:0:0:0:
256,140,138169,1,0,0:0:0:0:
192,148,138397,5,8,0:0:0:0:
324,232,138624,1,0,0:0:0:0:
212,260,138851,1,0,0:0:0:0:
296,124,139078,1,0,0:0:0:0:
409,153,139306,1,10,0:0:0:0:
296,345,139533,1,2,0:0:0:0:
98,226,139760,1,2,0:0:0:0:
220,32,139988,1,2,0:0:0:0:
409,153,140215,6,0,P|400:236|340:296,1,143.749997258186,8|0,0:0|0:0,0:0:0:0:
220,280,140669,2,0,P|144:276|84:240,1,143.749997258186
152,64,141124,1,10,0:0:0:0:
416,168,141351,1,2,0:0:0:0:
176,328,141578,1,0,0:0:0:0:
336,57,141806,1,0,0:0:0:0:
96,216,142033,5,8,0:0:0:0:
352,324,142260,1,0,0:0:0:0:
96,216,142488,1,0,0:0:0:0:
336,57,142715,1,0,0:0:0:0:
176,328,142942,5,10,0:0:0:0:
416,168,143170,1,2,0:0:0:0:
152,64,143397,1,0,0:0:0:0:
416,168,143624,1,0,0:0:0:0:
294,362,143851,5,8,0:0:0:0:
416,168,144079,1,0,0:0:0:0:
219,50,144306,1,0,0:0:0:0:
105,242,144533,1,0,0:0:0:0:
218,270,144762,5,8,0:0:0:0:
302,134,144988,1,0,0:0:0:0:
190,162,145215,1,0,0:0:0:0:
322,246,145442,1,0,0:0:0:0:
258,130,145671,5,8,0:0:0:0:
44,192,145897,1,2,0:0:0:0:
44,192,146124,1,2,0:0:0:0:
256,84,146579,6,2,B|340:72|340:72|388:144,1,162.499986362458
256,300,147034,2,2,B|172:312|172:312|124:240,1,162.499986362458
452,152,147488,6,0,P|444:244|392:312,1,162.499986362458,8|0,0:0|0:0,0:0:0:0:
256,232,147943,2,0,P|168:280|64:280,1,162.499986362458
256,151,148397,2,0,P|324:109|404:97,1,162.499986362458,8|0,0:0|0:0,0:0:0:0:
106,83,148852,2,0,P|63:151|59:231,1,162.499986362458
200,316,149306,5,10,0:0:0:0:
372,144,149534,1,2,0:0:0:0:
336,272,149761,1,2,0:0:0:0:
292,32,149988,1,2,0:0:0:0:
372,144,150216,2,0,P|428:220|424:304,1,162.499986362458,8|0,0:0|0:0,0:0:0:0:
204,52,150670,2,0,P|124:58|62:109,1,162.499986362458
168,340,151126,6,0,P|247:333|309:282,1,162.499986362458,8|0,0:0|0:0,0:0:0:0:
220,144,151579,1,0,0:0:0:0:
80,228,151806,1,0,0:0:0:0:
228,300,152034,1,8,0:0:0:0:
368,220,152261,1,0,0:0:0:0:
176,136,152488,1,0,0:0:0:0:
92,328,152716,1,0,0:0:0:0:
304,340,152943,5,10,0:0:0:0:
400,152,153170,1,2,0:0:0:0:
36,192,153397,1,2,0:0:0:0:
256,344,153625,1,2,0:0:0:0:
476,192,153852,5,8,0:0:0:0:
256,344,154079,1,0,0:0:0:0:
36,192,154306,1,8,0:0:0:0:
256,344,154533,1,0,0:0:0:0:
476,192,154761,6,0,B|448:116|448:116|344:80,1,162.499986362458,8|0,0:0|0:0,0:0:0:0:
188,144,155216,2,0,B|256:192|256:192|324:144,1,162.499986362458
141,89,155670,2,0,B|64:116|64:116|36:192,1,162.499986362458,8|0,0:0|0:0,0:0:0:0:
188,240,156125,2,0,B|256:192|256:192|324:240,1,162.499986362458
191,146,156579,5,10,0:0:0:0:
320,240,156806,1,2,0:0:0:0:
320,146,157033,1,2,0:0:0:0:
188,240,157260,1,2,0:0:0:0:
370,89,157488,1,8,0:0:0:0:
476,192,157716,1,0,0:0:0:0:
141,89,157943,1,8,0:0:0:0:
36,192,158170,1,0,0:0:0:0:
448,280,158397,6,2,P|384:332|292:356,1,162.499986362458,8|0,0:0|0:0,0:0:0:0:
84,332,158852,6,2,P|48:240|56:152,1,162.499986362458
220,32,159306,6,2,P|308:40|376:72,1,162.499986362458,10|2,0:0|0:0,0:0:0:0:
212,276,159761,1,0,0:0:0:0:
212,112,159988,1,0,0:0:0:0:
352,196,160216,5,10,0:0:0:0:
212,276,160443,1,2,0:0:0:0:
212,32,160670,1,2,0:0:0:0:
424,152,160897,1,2,0:0:0:0:
144,144,161125,5,8,0:0:0:0:
360,276,161352,1,0,0:0:0:0:
172,68,161579,1,8,0:0:0:0:
360,276,161806,1,0,0:0:0:0:
460,72,162034,6,0,P|488:152|464:240,1,162.499986362458,8|0,0:0|0:0,0:0:0:0:
316,188,162488,2,0,P|256:260|176:284,1,162.499986362458
52,312,162943,2,0,P|24:232|48:144,1,162.499986362458,8|0,0:0|0:0,0:0:0:0:
196,196,163397,2,0,P|256:124|336:100,1,162.499986362458
316,188,163852,6,2,P|256:260|176:284,1,162.499986362458,10|2,0:0|0:0,0:0:0:0:
52,312,164306,2,2,P|24:232|48:144,1,162.499986362458
193,282,164761,1,8,0:0:0:0:
318,101,164988,1,0,0:0:0:0:
39,157,165216,1,0,0:0:0:0:
472,226,165443,1,0,0:0:0:0:
356,332,165670,6,8,P|272:356|196:344,1,162.499986362458
72,244,166125,2,0,L|52:72,1,162.499986362458
204,140,166579,2,0,P|272:88|360:84,1,162.499986362458,8|0,0:0|0:0,0:0:0:0:
492,152,167034,2,0,L|440:328,1,162.499986362458
72,244,167488,5,10,0:0:0:0:
356,332,167716,1,2,0:0:0:0:
204,140,167943,1,2,0:0:0:0:
492,152,168170,1,2,0:0:0:0:
280,36,168397,2,0,P|188:8|108:32,1,162.499986362458,8|0,0:0|0:0,0:0:0:0:
40,336,168852,2,0,P|132:364|212:340,1,162.499986362458
416,308,169307,5,8,0:0:0:0:
100,232,169534,1,0,0:0:0:0:
328,4,169761,1,0,0:0:0:0:
224,344,169988,1,0,0:0:0:0:
452,116,170215,5,2,0:0:0:0:
136,40,170443,1,2,0:0:0:0:
452,116,170670,1,2,0:0:0:0:
100,232,170897,1,2,0:0:0:0:
328,4,171125,5,0,0:0:0:0:
224,344,171352,1,0,0:0:0:0:
136,40,171579,1,0,0:0:0:0:
416,308,171806,1,0,0:0:0:0:
328,4,172034,5,10,0:0:0:0:
100,232,172261,1,2,0:0:0:0:
328,4,172488,1,2,0:0:0:0:
416,308,172716,1,2,0:0:0:0:
136,40,172943,6,2,P|224:20|304:48,1,162.499986362458,10|2,0:0|0:0,0:0:0:0:
448,116,173397,6,2,P|480:192|452:276,1,162.499986362458
220,343,173852,6,2,P|298:364|376:344,1,162.499986362458,10|2,0:0|0:0,0:0:0:0:
52,117,174306,6,2,P|32:194|64:268,1,162.499986362458
416,308,174761,1,8,0:0:0:0:
136,40,175443,1,0,0:0:0:0:
136,40,175670,1,0,0:0:0:0:
256,192,176352,1,0,0:0:0:0:
256,192,176580,1,0,0:0:0:0:
104,156,183852,6,0,P|152:84|240:72,1,162.499986362458,8|0,0:0|0:0,0:0:0:0:
372,128,184306,1,0,0:0:0:0:
372,128,184534,1,0,0:0:0:0:
104,156,185216,1,2,0:0:0:0:
408,228,185670,6,0,P|360:300|272:312,1,162.499986362458,8|0,0:0|0:0,0:0:0:0:
140,256,186124,1,0,0:0:0:0:
140,256,186352,1,0,0:0:0:0:
256,92,187034,1,2,0:0:0:0:
444,288,187488,6,0,L|368:328,1,81.249993181229,8|0,0:0|0:0,0:0:0:0:
260,289,187716,2,0,L|332:252,1,81.249993181229
220,220,187943,2,0,L|144:260,1,81.249993181229,8|0,0:0|0:0,0:0:0:0:
36,225,188170,2,0,L|108:188,1,81.249993181229,0|0,0:0|0:0,0:0:0:0:
68,96,188397,6,0,L|144:56,1,81.249993181229,8|0,0:0|0:0,0:0:0:0:
251,94,188625,2,0,L|180:132,1,81.249993181229,0|0,0:0|0:0,0:0:0:0:
292,164,188852,2,0,L|368:124,1,81.249993181229,8|0,0:0|0:0,0:0:0:0:
475,158,189079,2,0,L|404:196,1,81.249993181229,0|0,0:0|0:0,0:0:0:0:
312,248,189306,1,4,0:0:0:0:
88,120,189761,6,2,B|112:84|112:84|148:56|196:96,1,112.499992275238
316,44,190216,2,2,B|364:44|364:44|424:76|384:152,1,143.749997258186
464,272,190670,2,2,B|444:308|444:308|376:344|300:280,1,162.499986362458
104,320,191125,6,0,B|72:296|88:264|88:264|168:180,1,162.499986362458,8|0,0:0|0:0,0:0:0:0:
288,96,191578,1,0,0:0:0:0:
416,196,191806,1,0,0:0:0:0:
224,48,192033,1,10,0:0:0:0:
292,280,192260,1,2,0:0:0:0:
364,48,192487,1,2,0:0:0:0:
168,196,192715,1,2,0:0:0:0:
456,236,192942,5,8,0:0:0:0:
116,96,193169,1,0,0:0:0:0:
456,96,193396,1,0,0:0:0:0:
116,236,193623,1,0,0:0:0:0:
364,84,193851,1,10,0:0:0:0:
4,244,194078,1,2,0:0:0:0:
272,84,194306,1,0,0:0:0:0:
64,328,194533,1,0,0:0:0:0:
308,316,194760,5,8,0:0:0:0:
460,256,194987,1,0,0:0:0:0:
400,104,195215,1,0,0:0:0:0:
248,164,195442,1,0,0:0:0:0:
376,264,195669,2,0,P|416:220|368:100,1,162.499986362458,8|0,0:0|0:0,0:0:0:0:
136,120,196124,2,0,P|96:164|144:284,1,162.499986362458
308,316,196578,5,8,0:0:0:0:
460,256,196805,1,0,0:0:0:0:
400,104,197033,1,0,0:0:0:0:
248,164,197260,1,0,0:0:0:0:
308,316,197487,1,10,0:0:0:0:
498,240,197714,1,2,0:0:0:0:
423,50,197942,1,2,0:0:0:0:
232,125,198169,1,2,0:0:0:0:
308,316,198396,6,0,P|408:316|460:272,1,162.499986362458,8|0,0:0|0:0,0:0:0:0:
232,124,198851,2,0,P|152:116|85:160,1,162.499986362458
144,312,199306,1,10,0:0:0:0:
308,316,199533,1,2,0:0:0:0:
444,228,199760,1,0,0:0:0:0:
320,56,199987,1,0,0:0:0:0:
134,162,200215,6,0,P|114:250|154:322,1,162.499986362458,8|0,0:0|0:0,0:0:0:0:
378,222,200669,2,0,P|398:134|358:62,1,162.499986362458
160,116,201124,1,10,0:0:0:0:
24,280,201351,1,2,0:0:0:0:
288,92,201578,1,2,0:0:0:0:
152,256,201805,1,2,0:0:0:0:
384,152,202033,6,0,P|360:240|248:292,1,162.499986362458,8|0,0:0|0:0,0:0:0:0:
80,188,202487,2,0,P|104:100|216:48,1,162.499986362458
356,204,202942,1,8,0:0:0:0:
155,132,203169,1,0,0:0:0:0:
422,316,203396,1,0,0:0:0:0:
221,244,203623,1,0,0:0:0:0:
272,344,203851,6,0,P|164:340|72:256,1,162.499986362458,8|0,0:0|0:0,0:0:0:0:
240,40,204306,2,0,P|348:44|440:128,1,162.499986362458
460,304,204760,1,10,0:0:0:0:
140,252,204987,1,2,0:0:0:0:
444,140,205215,1,10,0:0:0:0:
120,104,205442,1,2,0:0:0:0:
140,252,205669,6,0,P|192:316|296:348,1,162.499986362458,8|0,0:0|0:0,0:0:0:0:
332,196,206124,2,0,P|406:227|456:290,2,162.499986362458,0|0|10,0:0|0:0|0:0,0:0:0:0:
276,44,206806,1,2,0:0:0:0:
116,76,207033,1,2,0:0:0:0:
228,196,207260,1,2,0:0:0:0:
340,316,207487,5,8,0:0:0:0:
180,352,207715,1,0,0:0:0:0:
228,196,207942,1,0,0:0:0:0:
276,44,208169,1,0,0:0:0:0:
116,76,208396,1,10,0:0:0:0:
44,224,208624,1,2,0:0:0:0:
192,292,208851,1,0,0:0:0:0:
276,152,209078,1,0,0:0:0:0:
420,76,209306,6,0,P|484:132|452:244,1,162.499986362458,8|0,0:0|0:0,0:0:0:0:
400,344,209760,2,0,P|336:288|368:176,1,162.499986362458
420,76,210215,1,8,0:0:0:0:
336,216,210442,1,0,0:0:0:0:
180,260,210669,1,0,0:0:0:0:
252,116,210896,1,0,0:0:0:0:
336,216,211124,6,0,P|288:296|204:324,1,162.499986362458,8|0,0:0|0:0,0:0:0:0:
96,160,211578,2,0,P|144:80|228:52,1,162.499986362458
436,132,212033,1,10,0:0:0:0:
344,324,212260,1,2,0:0:0:0:
148,244,212487,1,2,0:0:0:0:
236,52,212715,1,2,0:0:0:0:
436,132,212942,6,0,P|508:192|492:272,1,162.499986362458,8|0,0:0|0:0,0:0:0:0:
344,324,213396,2,0,L|164:324,1,162.499986362458
32,256,213851,2,2,P|97:212|99:134,1,162.499986362458,8|0,0:0|0:0,0:0:0:0:
168,60,214305,2,0,L|348:60,1,162.499986362458
436,132,214760,5,8,0:0:0:0:
344,324,214987,1,0,0:0:0:0:
76,252,215215,1,0,0:0:0:0:
168,60,215442,1,0,0:0:0:0:
76,252,215669,2,2,P|132:312|224:324,1,162.499986362458,8|0,0:0|0:0,0:0:0:0:
452,320,216124,2,0,P|436:236|368:184,1,162.499986362458
216,188,216578,6,0,P|248:104|344:76,1,162.499986362458,8|0,0:0|0:0,0:0:0:0:
112,332,217033,2,0,P|64:272|76:168,1,162.499986362458
296,272,217487,1,8,0:0:0:0:
112,332,217715,1,0,0:0:0:0:
208,164,217942,1,0,0:0:0:0:
396,108,218169,1,0,0:0:0:0:
208,164,218396,6,2,P|264:88|344:72,1,162.499986362458,8|0,0:0|0:0,0:0:0:0:
296,272,218851,2,2,P|240:348|160:364,1,162.499986362458
120,284,219306,6,2,B|80:240|80:240|96:176,1,112.499992275238
392,168,219760,2,2,B|432:212|432:212|416:276,1,112.499992275238
144,120,220215,6,0,B|236:72|236:72|304:72,1,162.499986362458,8|0,0:0|0:0,0:0:0:0:
460,168,220669,2,0,B|376:168|376:168|312:240,1,162.499986362458
184,364,221124,2,0,B|144:328|144:328|144:212,1,162.499986362458,8|0,0:0|0:0,0:0:0:0:
328,20,221578,2,0,B|368:56|368:56|368:172,1,162.499986362458
192,76,222033,5,2,0:0:0:0:
276,304,222260,1,2,0:0:0:0:
396,92,222487,1,2,0:0:0:0:
476,324,222715,1,2,0:0:0:0:
440,164,222942,5,0,0:0:0:0:
296,236,223169,1,0,0:0:0:0:
176,128,223396,1,8,0:0:0:0:
32,204,223624,1,0,0:0:0:0:
152,312,223851,6,2,P|244:344|328:316,1,162.499986362458,8|0,0:0|0:0,0:0:0:0:
360,72,224306,6,0,P|268:40|184:68,1,162.499986362458
64,132,224760,6,2,P|152:156|156:224,1,162.499986362458
448,252,225215,6,0,P|360:228|356:160,1,162.499986362458
160,216,225669,5,10,0:0:0:0:
352,167,225896,1,2,0:0:0:0:
206,54,226124,1,2,0:0:0:0:
305,329,226351,1,2,0:0:0:0:
152,312,226578,1,8,0:0:0:0:
360,72,226806,1,0,0:0:0:0:
64,132,227033,1,8,0:0:0:0:
448,252,227260,1,0,0:0:0:0:
360,72,227487,6,0,P|280:64|208:116,1,162.499986362458,8|0,0:0|0:0,0:0:0:0:
152,312,227942,2,0,P|232:320|304:268,1,162.499986362458
448,320,228396,1,10,0:0:0:0:
424,128,228624,1,2,0:0:0:0:
104,68,228851,1,0,0:0:0:0:
212,364,229078,1,0,0:0:0:0:
388,304,229306,5,10,0:0:0:0:
68,244,229533,1,2,0:0:0:0:
280,12,229760,1,2,0:0:0:0:
388,304,229987,1,2,0:0:0:0:
68,244,230215,2,0,P|36:168|84:108,1,162.499986362458,8|0,0:0|0:0,0:0:0:0:
424,128,230669,2,0,P|468:191|435:262,1,162.499986362458
208,52,231124,6,2,P|276:11|364:39,1,162.499986362458
448,252,231578,6,2,P|402:349|336:354,1,162.499986362458
116,316,232033,6,2,P|50:271|48:190,1,162.499986362458,10|2,0:0|0:0,0:0:0:0:
272,104,232487,1,0,0:0:0:0:
316,260,232715,1,0,0:0:0:0:
160,216,232942,6,2,P|72:192|8:240,1,162.499986362458,8|0,0:0|0:0,0:0:0:0:
352,168,233396,2,2,P|440:192|504:144,1,162.499986362458
160,216,233851,1,8,0:0:0:0:
352,168,234078,1,0,0:0:0:0:
12,160,234306,1,8,0:0:0:0:
500,224,234533,1,0,0:0:0:0:
132,32,234760,5,8,0:0:0:0:
256,360,234987,1,0,0:0:0:0:
380,32,235214,1,0,0:0:0:0:
24,216,235442,1,0,0:0:0:0:
488,216,235669,1,8,0:0:0:0:
132,32,235896,1,0,0:0:0:0:
256,360,236124,1,0,0:0:0:0:
380,32,236351,1,0,0:0:0:0:
256,360,236578,5,10,0:0:0:0:
24,216,236806,1,2,0:0:0:0:
488,216,237033,1,2,0:0:0:0:
40,156,237260,1,2,0:0:0:0:
488,276,237487,1,8,0:0:0:0:
64,100,237715,1,0,0:0:0:0:
465,331,237942,1,0,0:0:0:0:
240,80,238169,1,0,0:0:0:0:
96,308,238396,5,8,0:0:0:0:
412,232,238624,1,0,0:0:0:0:
184,4,238851,1,0,0:0:0:0:
288,344,239078,1,0,0:0:0:0:
60,116,239306,1,8,0:0:0:0:
376,40,239533,1,0,0:0:0:0:
60,116,239760,1,0,0:0:0:0:
412,232,239987,1,0,0:0:0:0:
184,4,240215,5,10,0:0:0:0:
288,344,240442,1,2,0:0:0:0:
376,40,240669,1,2,0:0:0:0:
96,308,240896,1,2,0:0:0:0:
184,4,241124,1,8,0:0:0:0:
412,232,241351,1,0,0:0:0:0:
184,4,241578,1,8,0:0:0:0:
96,308,241806,1,0,0:0:0:0:
360,64,242033,5,8,0:0:0:0:
96,168,242260,1,0,0:0:0:0:
336,328,242487,1,0,0:0:0:0:
176,57,242715,1,0,0:0:0:0:
416,216,242942,5,10,0:0:0:0:
160,324,243169,1,2,0:0:0:0:
416,216,243397,1,2,0:0:0:0:
176,57,243624,1,2,0:0:0:0:
336,328,243851,5,8,0:0:0:0:
96,168,244079,1,0,0:0:0:0:
360,64,244306,1,0,0:0:0:0:
96,168,244533,1,0,0:0:0:0:
218,362,244760,5,10,0:0:0:0:
96,168,244988,1,2,0:0:0:0:
293,50,245215,1,2,0:0:0:0:
407,242,245442,1,2,0:0:0:0:
294,270,245669,5,10,0:0:0:0:
210,134,245897,1,0,0:0:0:0:
322,162,246124,1,2,0:0:0:0:
190,246,246351,1,0,0:0:0:0:
294,22,246578,5,10,0:0:0:0:
416,216,246806,1,0,0:0:0:0:
219,334,247033,1,2,0:0:0:0:
105,142,247260,1,0,0:0:0:0:
445,65,247487,5,10,0:0:0:0:
376,367,247715,1,0,0:0:0:0:
76,292,247942,1,0,0:0:0:0:
150,0,248169,1,2,0:0:0:0:
256,192,248396,5,10,0:0:0:0:
468,192,249078,1,0,0:0:0:0:
468,192,249306,6,0,B|432:256|432:256|432:312,1,124.999995231629,8|0,0:0|0:0,0:0:0:0:
308,280,249760,2,0,B|256:320|256:320|208:280,1,124.999995231629
44,192,250215,2,0,B|80:128|80:128|80:72,1,124.999995231629
204,104,250669,2,0,B|256:64|256:64|304:104,1,124.999995231629
308,280,251124,6,0,B|256:320|256:320|208:280,1,124.999995231629,8|0,0:0|0:0,0:0:0:0:
204,104,251578,2,0,B|256:64|256:64|304:104,1,124.999995231629
468,192,252033,2,2,B|432:256|432:256|432:312,1,124.999995231629
44,192,252487,2,2,B|80:128|80:128|80:72,1,124.999995231629
316,216,252942,5,8,0:0:0:0:
196,176,253169,1,0,0:0:0:0:
344,168,253396,1,0,0:0:0:0:
176,224,253624,1,0,0:0:0:0:
340,108,253851,1,8,0:0:0:0:
180,280,254078,1,0,0:0:0:0:
312,64,254306,1,0,0:0:0:0:
216,328,254533,1,0,0:0:0:0:
120,152,254760,5,0,0:0:0:0:
392,248,254987,1,0,0:0:0:0:
76,192,255215,1,8,0:0:0:0:
422,191,255442,1,0,0:0:0:0:
256,8,255669,1,2,0:0:0:0:
256,354,255896,1,2,0:0:0:0:
76,192,256124,1,2,0:0:0:0:
422,191,256351,1,2,0:0:0:0:
256,354,256578,6,0,P|192:316|124:320,1,124.999995231629,8|0,0:0|0:0,0:0:0:0:
180,196,257033,2,0,P|92:224|60:256,1,124.999995231629
180,196,257487,2,0,P|242:200|294:235,1,124.999995231629
308,112,257942,2,0,P|359:75|419:63,1,124.999995231629
204,272,258396,6,0,P|154:308|94:320,1,124.999995231629,8|0,0:0|0:0,0:0:0:0:
370,69,258851,2,0,P|308:64|256:30,1,124.999995231629
443,139,259306,2,0,P|393:175|332:187,1,124.999995231629
219,148,259761,2,0,P|271:183|332:188,1,124.999995231629
380,304,260215,5,8,0:0:0:0:
260,268,260442,1,0,0:0:0:0:
140,232,260669,1,0,0:0:0:0:
20,196,260896,1,0,0:0:0:0:
132,80,261124,5,8,0:0:0:0:
252,116,261351,1,0,0:0:0:0:
372,152,261578,1,0,0:0:0:0:
492,188,261805,1,0,0:0:0:0:
132,80,262033,5,8,0:0:0:0:
380,304,262260,1,0,0:0:0:0:
252,116,262487,1,8,0:0:0:0:
260,268,262715,1,0,0:0:0:0:
372,152,262942,1,2,0:0:0:0:
140,232,263169,1,2,0:0:0:0:
492,188,263396,1,2,0:0:0:0:
20,196,263624,1,2,0:0:0:0:
236,312,263851,6,0,P|312:320|388:288,1,124.999995231629,8|0,0:0|0:0,0:0:0:0:
276,72,264306,2,0,P|200:64|124:96,1,124.999995231629
398,223,264760,2,0,P|431:145|416:64,1,124.999995231629
115,162,265215,2,0,P|82:240|97:321,1,124.999995231629
276,72,265669,6,0,P|200:64|124:96,1,124.999995231629,8|0,0:0|0:0,0:0:0:0:
398,223,266124,2,0,P|431:145|416:64,1,124.999995231629
236,72,266578,1,0,0:0:0:0:
276,312,266806,1,0,0:0:0:0:
236,72,267033,1,0,0:0:0:0:
276,312,267261,1,0,0:0:0:0:
358,77,267487,6,0,P|298:62|236:72,1,124.999995231629,8|0,0:0|0:0,0:0:0:0:
155,306,267942,2,0,P|215:321|276:312,1,124.999995231629
430,277,268396,2,0,P|427:215|398:161,1,124.999995231629,8|0,0:0|0:0,0:0:0:0:
83,106,268851,2,0,P|86:168|115:222,1,124.999995231629
358,77,269305,6,8,P|298:62|236:72,1,124.999995231629,8|0,0:0|0:0,0:0:0:0:
155,306,269760,2,0,P|215:321|276:312,1,124.999995231629,8|0,0:0|0:0,0:0:0:0:
430,277,270215,1,2,0:0:0:0:
83,106,270442,1,2,0:0:0:0:
430,106,270669,1,2,0:0:0:0:
83,277,270896,1,2,0:0:0:0:
430,277,271124,5,8,0:0:0:0:
83,106,271351,1,0,0:0:0:0:
276,312,271578,1,0,0:0:0:0:
236,72,271806,1,0,0:0:0:0:
83,277,272033,1,0,0:0:0:0:
430,106,272260,1,0,0:0:0:0:
288,352,272487,1,0,0:0:0:0:
224,40,272715,1,0,0:0:0:0:
152,220,272942,6,0,P|100:264|80:320,1,124.999995231629,8|0,0:0|0:0,0:0:0:0:
360,164,273396,2,0,P|412:120|432:64,1,124.999995231629
430,277,273851,1,0,0:0:0:0:
83,106,274078,1,0,0:0:0:0:
430,106,274306,1,0,0:0:0:0:
83,277,274533,1,0,0:0:0:0:
256,32,274760,5,8,0:0:0:0:
256,352,274987,1,0,0:0:0:0:
83,106,275215,1,0,0:0:0:0:
430,106,275442,1,0,0:0:0:0:
256,32,275669,5,8,0:0:0:0:
83,277,275896,1,0,0:0:0:0:
430,277,276124,1,0,0:0:0:0:
83,277,276351,1,0,0:0:0:0:
430,106,276578,5,8,0:0:0:0:
83,106,276806,1,0,0:0:0:0:
430,277,277033,1,8,0:0:0:0:
256,32,277260,1,0,0:0:0:0:
83,277,277487,5,2,0:0:0:0:
256,32,277715,1,2,0:0:0:0:
430,277,277942,1,2,0:0:0:0:
256,32,278169,1,2,0:0:0:0:
236,312,278396,6,0,P|312:320|388:288,1,124.999995231629,8|0,0:0|0:0,0:0:0:0:
276,72,278851,2,0,P|200:64|124:96,1,124.999995231629
52,308,279306,1,2,0:0:0:0:
276,200,279533,1,2,0:0:0:0:
152,212,279760,1,2,0:0:0:0:
392,276,279987,1,2,0:0:0:0:
144,120,280215,6,0,P|88:84|20:100,1,124.999995231629,8|0,0:0|0:0,0:0:0:0:
368,120,280669,2,0,P|424:84|492:100,1,124.999995231629
144,264,281124,6,2,P|88:300|20:284,1,124.999995231629
368,264,281578,2,0,P|424:300|492:284,2,124.999995231629,2|2|8,0:0|0:0|0:0,0:0:0:0:
256,192,282260,1,0,0:0:0:0:
80,132,282487,1,0,0:0:0:0:
136,312,282715,1,0,0:0:0:0:
256,192,282942,5,0,0:0:0:0:
376,72,283169,1,0,0:0:0:0:
432,252,283397,1,0,0:0:0:0:
256,192,283624,1,0,0:0:0:0:
80,132,283851,6,0,L|80:256,1,124.999995231629,8|0,0:0|0:0,0:0:0:0:
432,252,284306,2,0,L|432:128,1,124.999995231629
80,216,284760,2,0,L|80:340,1,124.999995231629,8|0,0:0|0:0,0:0:0:0:
432,168,285215,2,0,L|432:44,1,124.999995231629
256,100,285669,5,8,0:0:0:0:
260,288,285896,1,0,0:0:0:0:
188,128,286124,1,8,0:0:0:0:
328,252,286351,1,0,0:0:0:0:
84,196,286578,5,2,0:0:0:0:
428,196,286806,1,2,0:0:0:0:
120,319,287033,1,2,0:0:0:0:
400,72,287260,1,2,0:0:0:0:
152,64,287487,5,8,0:0:0:0:
296,184,287715,1,0,0:0:0:0:
120,244,287942,1,0,0:0:0:0:
276,344,288169,1,0,0:0:0:0:
376,116,288396,5,2,0:0:0:0:
128,148,288624,1,2,0:0:0:0:
344,272,288851,1,2,0:0:0:0:
96,304,289078,1,2,0:0:0:0:
376,116,289306,6,0,P|304:68|248:72,1,124.999995231629,8|0,0:0|0:0,0:0:0:0:
96,304,289760,2,0,P|168:352|224:348,1,124.999995231629
344,272,290215,2,0,P|405:280|451:320,1,124.999995231629,8|0,0:0|0:0,0:0:0:0:
128,148,290669,2,0,P|66:139|20:99,1,124.999995231629
376,116,291124,5,8,0:0:0:0:
344,272,291352,1,0,0:0:0:0:
128,148,291578,1,8,0:0:0:0:
96,304,291806,1,0,0:0:0:0:
451,320,292033,1,8,0:0:0:0:
268,67,292260,1,0,0:0:0:0:
203,352,292487,1,8,0:0:0:0:
20,99,292715,1,0,0:0:0:0:
256,192,292942,5,0,0:0:0:0:
