osu file format v5

[General]
AudioFilename: Chocolate Disco.mp3
AudioLeadIn: 2029
PreviewTime: -1
Countdown: 1
SampleSet: Normal
EditorBookmarks: 103468,127831

[Metadata]
Title:Chocolate Disco
Artist:Perfume
Creator:James
Version:Normal

[Difficulty]
HPDrainRate:4
CircleSize:4
OverallDifficulty:4
SliderMultiplier:1.5
SliderTickRate:2

[Events]
//Background and Video events
//Break Periods
2,23034,36510
2,98016,103995
//Storyboard Layer 0 (Background)
//Storyboard Layer 1 (Failing)
//Storyboard Layer 2 (Passing)
//Storyboard Layer 3 (Foreground)
//Storyboard Sound Samples
//Background Colour Transformations
3,100,0,0,0

[TimingPoints]
320,468.804938078681,4,1,1,100

[Colours]
Combo1 : 0,0,255
Combo2 : 240,160,230
Combo3 : 128,0,255
Combo4 : 255,0,255

[HitObjects]
256,32,7820,1,0
32,192,9696,5,0
256,352,11571,5,0
480,192,13446,5,0
40,344,15321,5,0
160,344,15790,1,0
280,344,16259,1,0
336,344,16493,1,4
392,344,16728,1,4
472,256,17196,5,0
352,256,17665,1,0
232,256,18134,1,0
168,256,18368,1,4
104,256,18603,1,4
40,152,19072,5,0
160,152,19541,1,0
280,152,20009,1,0
336,152,20244,1,4
392,152,20478,1,4
464,56,20947,1,0
352,112,21416,1,0
248,56,21885,1,0
144,112,22353,1,4
40,56,22822,1,4
72,64,37824,5,0
128,56,38058,2,2,C|304:56|288:256,2,375
72,64,40637,1,0
432,320,41809,5,0
368,320,42043,1,2
304,320,42278,1,0
248,320,42512,2,0,C|128:320,2,112.5
248,256,43450,1,0
248,256,43684,1,2
248,192,43918,1,0
248,128,44153,1,2
248,128,44387,1,0
136,304,45559,6,4,B|288:313|224:155|279:118|421:143|472:168,2,375
72,304,48138,1,4
256,72,49310,6,0,B|256:152|168:192,1,150
232,176,50013,2,0,B|312:200|320:304,1,150
328,224,50716,2,0,B|356:126|472:152,1,150
384,120,51419,2,0,B|285:110|304:-8,1,150
64,72,52826,5,0
64,192,53294,1,2
64,312,53763,1,0
184,312,54232,1,2
304,312,54701,1,0
424,312,55170,2,2,C|308:306|304:256,1,150
328,160,56107,1,2
368,48,56576,1,2
488,40,57045,6,0,C|488:128|400:152,1,150
312,152,57983,2,2,C|233:140|208:224,1,150
160,96,58920,2,0,C|78:112|56:40,1,150
56,168,59858,1,2
56,288,60327,5,2
56,288,60561,2,2,C|208:288|288:288|352:288|400:288|440:288,2,375
56,288,63139,1,2
440,64,64311,5,0
440,64,64546,1,2
376,64,64780,1,0
376,64,65015,1,2
288,64,65366,1,0
200,64,65718,1,2
200,64,65952,1,0
136,64,66187,1,2
136,64,66421,1,0
72,64,66655,1,2
72,64,66890,1,2
176,208,67593,5,0
224,168,67827,2,2,C|272:140|336:168,2,112.5
264,120,68765,2,2,C|309:80|312:16,2,112.5
320,120,69703,2,2,C|384:136|392:200,2,112.5
376,96,70640,1,0
360,152,70875,1,4
408,184,71109,1,4
376,232,71343,5,0
328,264,71578,2,2,C|274:280|224:224,2,112.5
280,296,72515,2,2,C|227:317|224:376,2,112.5
224,272,73453,2,2,C|240:216|192:176,2,112.5
272,232,74391,1,0
304,184,74625,1,4
272,136,74859,1,4
224,96,75094,5,0
184,144,75328,2,2,C|170:200|88:208,2,112.5
216,192,76266,2,2,C|260:224|344:208,2,112.5
240,248,77204,2,2,C|201:298|224:352,2,112.5
184,264,78141,1,0
128,256,78376,1,4
88,304,78610,1,4
144,320,78844,5,0
152,256,79079,1,0
80,160,79548,1,0
184,112,80016,1,0
272,192,80485,1,0
320,80,80954,1,0
424,144,81423,1,0
408,264,81892,1,4
304,320,82360,1,4
200,264,82829,5,0
296,200,83298,1,0
392,136,83767,1,0
440,96,84001,1,4
488,64,84236,1,4
368,32,84704,1,0
328,144,85173,1,0
288,256,85642,1,0
272,312,85876,1,4
256,368,86111,1,4
144,328,86580,5,0
144,328,86814,1,0
104,280,87048,1,0
104,280,87283,1,0
72,232,87517,1,0
32,184,87752,1,4
32,184,87986,1,4
152,184,88455,5,0
272,184,88924,1,0
392,184,89392,1,0
456,184,89627,1,4
392,184,89861,1,4
440,312,90330,2,0,C|272:280,1,150
288,144,91268,1,0
288,72,91502,2,4,C|288:176,1,75
288,280,92205,5,0
152,304,92674,1,0
56,208,93143,1,0
112,168,93377,1,4
96,104,93612,1,4
224,72,94080,2,0,C|264:240,1,150
392,216,95018,2,4,C|352:64,1,150
256,192,95956,12,0,97831
56,56,105332,1,2
192,56,105801,1,2
192,192,106269,1,2
328,192,106738,1,2
392,192,106973,1,0
456,192,107207,1,2
456,328,107676,5,2
456,192,108145,1,2
456,56,108613,1,2
392,56,108848,1,2
328,56,109082,1,2
192,56,109551,5,2
192,192,110020,1,2
192,328,110489,1,2
256,328,110723,1,0
320,328,110957,1,2
256,192,111192,12,0,112598
256,192,113301,12,0,114708
144,120,115177,2,4,C|312:128,2,150
104,248,116583,2,0,C|248:336,1,150
232,192,117521,2,4,C|88:112,1,150
224,56,118458,5,0
224,56,118693,1,0
280,88,118927,1,0
336,120,119162,1,0
392,152,119396,1,0
448,192,119630,1,4
448,192,119865,1,4
336,272,120334,2,0,C|240:272,1,75
192,272,120802,2,0,C|96:272,2,75
256,272,121506,2,4,C|352:272,1,75
400,152,122209,6,0,C|336:80,1,75
312,152,122678,2,0,C|248:80,1,75
224,152,123146,1,0
176,96,123381,2,4,C|232:160,1,75
136,256,124084,2,0,C|224:256,4,75
64,256,125256,2,4,C|64:344,1,75
200,328,125959,1,0
304,240,126428,1,0
200,152,126897,1,0
248,104,127131,1,4
296,56,127366,1,4
256,192,127834,12,0,129710
