osu file format v4

[General]
AudioFilename: Chocolate Disco.mp3
AudioLeadIn: 0
AudioHash: d73fa8fd7524caeab1160546712ffab6
PreviewTime: -1
Countdown: 1
SampleSet: Normal

[Metadata]
Title:Chocolate Disco
Artist:Perfume
Creator:DoRaeMonSter
Version:Normal

[Difficulty]
HPDrainRate:8
CircleSize:5
OverallDifficulty:8
SliderMultiplier: 1.5
SliderTickRate: 2

[Events]
//Background and Video events
//Break Periods
2,36982,51734
2,78524,82028
2,105467,112484
//Storyboard Layer 0 (Background)
//Storyboard Layer 1 (Failing)
//Storyboard Layer 2 (Passing)
//Storyboard Layer 3 (Foreground)
//Storyboard Sound Samples
//Background Colour Transformations
3,100,163,162,255

[TimingPoints]
290,468.65,4,1,0,100

[HitObjects]
352,96,7788,1,0
160,96,9663,1,0
160,288,11537,1,0
352,288,13412,1,0
256,192,15286,1,2
352,192,17161,1,2
160,192,19035,1,2
256,192,20910,1,2
192,128,22316,1,0
256,128,22550,1,0
320,128,22785,1,4
408,192,24659,6,0,B|408:192|88:192,1,300
296,192,26065,6,0,B|296:192|200:192,2,75
120,192,28408,6,0,B|120:192|255:72|416:216,1,300
392,192,29814,6,0,B|392:192|392:96,2,75
328,128,32158,5,0
256,128,32392,1,0
184,128,32626,1,0
216,200,32861,1,0
296,200,33095,1,0
384,224,33564,5,0
464,224,33798,1,0
424,288,34033,1,0
104,128,35438,6,2,B|104:128|288:128,1,150
320,192,36376,1,0
384,256,36844,1,6
160,248,53013,5,0
208,184,53247,1,0
256,248,53482,1,0
256,248,53716,2,2,B|256:248|352:120,1,140
256,136,54419,1,0
160,136,54654,1,0
160,248,54888,1,0
256,248,55122,5,0
352,248,55357,1,0
352,248,55474,1,6
184,192,56762,5,0
184,120,56996,1,0
256,120,57231,1,0
256,118,57465,2,2,B|256:118|256:286,1,150
256,268,58168,1,0
329,268,58403,1,0
402,268,58637,1,0
403,192,58871,5,0
403,116,59106,1,0
403,116,59223,1,6
256,192,60512,5,0
256,120,60746,2,0,B|256:120|160:120,1,70
184,120,61215,2,2,B|184:120|184:280,1,140
255,262,61918,1,0
328,262,62153,1,0
328,192,62387,1,0
328,120,62621,1,0
256,120,62856,1,0
256,120,62973,1,6
364,112,64262,5,0
292,112,64496,1,0
220,112,64731,1,0
148,112,64965,2,2,B|148:112|147:278,1,150
220,264,65668,1,0
292,264,65903,1,0
364,264,66137,1,0
364,192,66371,1,0
364,120,66606,1,0
364,120,66723,1,6
363,193,67543,6,0,B|363:193|107:193,1,225
138,193,68481,2,0,B|138:193|363:97,1,225
344,104,69418,1,2
344,104,69650,2,0,B|344:104|86:27|28:244|272:264,1,450
256,192,71293,6,0,B|256:192|352:192,3,75
256,192,72231,2,0,B|256:192|160:192,3,75
256,128,73168,5,0
256,128,73403,2,2,B|256:128|96:128,1,150
106,128,74106,1,0
106,128,74340,1,0
106,128,74457,1,0
106,128,74574,1,6
320,104,75039,6,0,B|320:104|448:184|312:288,1,225
192,280,75976,2,0,B|192:280|64:184|200:104,1,225
256,192,76918,1,0
256,192,77153,2,0,B|256:192|144:328,1,150
232,309,77856,1,0
303,309,78090,1,0
374,309,78324,1,0
96,320,82778,6,0,B|96:320|176:96|240:288|304:96|368:288|448:48,1,450
434,84,84653,6,0,B|434:84|154:85|82:340,1,450
256,192,86521,6,2,B|256:192|104:192,3,150
256,192,88403,6,0,B|256:192|256:352,3,150
256,192,90278,6,2,B|256:192|416:192,3,150
256,192,92153,6,0,B|256:192|256:32,3,150
256,192,94028,5,0
192,192,94496,1,0
128,192,94965,1,0
64,192,95199,1,0
64,192,95434,1,0
64,96,95903,5,0
128,96,96371,1,0
192,96,96596,1,0
256,96,96831,1,6
256,96,97300,2,6,B|256:96|256:256,1,150
256,192,97769,12,0,105267
256,192,113234,1,0
94,274,114640,2,0,C|94:274|105:106|169:195|195:132|254:226,1,450
246,210,116515,6,0,C|246:210|254:50|334:194|358:130|406:194,1,450
387,164,118389,6,2,C|387:164|223:94|216:160|107:108|131:180,1,450
128,176,120264,6,0,C|128:176|336:320|336:256|400:272|384:200,1,450
326,224,122138,6,0,L|326:224|158:224,1,150
176,224,122841,1,0
176,224,123075,2,0,L|176:224|270:224,2,75
178,160,124013,6,0,L|178:160|336:160,1,150
328,160,124716,1,0
328,160,124950,2,0,L|328:160|232:160,2,75
328,96,125887,6,2,L|328:96|168:96,1,150
178,96,126590,1,0
178,96,126825,2,2,L|178:96|328:96,1,150
408,192,127762,6,0,L|408:192|96:192,1,300
176,192,129168,1,0
256,192,129402,1,0
336,192,129637,1,4
440,192,130105,6,2,L|440:192|440:32,1,150
368,40,131043,2,4,L|368:40|368:200,1,150
296,192,131980,2,2,L|296:192|296:40,1,150
224,40,132917,2,4,L|224:40|224:200,1,150
152,192,133854,6,2,L|152:192|152:40,1,150
80,40,134792,2,4,L|80:40|80:192,1,150
80,192,135729,2,2,L|80:192|80:344,1,150
152,344,136666,2,4,L|152:344|152:192,1,150
224,192,137604,6,2,L|224:192|224:344,1,150
296,344,138541,2,4,L|296:344|296:192,1,150
368,192,139478,2,2,L|368:192|368:352,1,150
440,344,140416,2,4,L|440:344|440:184,1,150
368,192,141353,6,2,L|368:192|272:192,2,75
296,192,142290,6,4,L|296:192|200:192,2,75
296,192,143227,5,2
296,192,143696,5,2
224,192,144165,6,4,L|224:192|136:192,2,75
112,96,146508,2,2,B|112:96|256:-8|416:112,1,300
296,152,147914,2,0,B|296:152|192:152,2,75
192,224,148852,5,0
256,224,149087,5,0
320,224,149321,5,0
400,288,150258,2,2,B|400:288|248:368|88:272,1,300
112,288,151663,6,0,B|112:288|112:192,2,75
192,224,152601,5,0
256,224,152836,5,0
320,224,153070,5,0
416,336,154007,2,2,B|416:336|488:200|416:40,1,300
416,40,155413,6,0,B|416:40|336:40,2,75
192,224,156350,5,0
256,224,156585,5,0
320,224,156819,5,0
368,160,157756,5,0
312,160,157990,1,0
256,160,158224,1,0
200,160,158459,1,0
144,160,158693,1,0
192,224,159162,5,0
256,224,159397,5,0
320,224,159631,5,6
