osu file format v5

[General]
AudioFilename: babycruisingedit.mp3
AudioLeadIn: 0
PreviewTime: 120697
Countdown: 0
SampleSet: Normal
StackLeniency: 0.7
Mode: 0
LetterboxInBreaks: 0
SkinPreference:Default
EditorDistanceSpacing: 1

[Metadata]
Title:Baby Cruising Love
Artist:Perfume
Creator:peppy
Version:Normal
Source:
Tags:

[Difficulty]
HPDrainRate:4
CircleSize:3
OverallDifficulty:4
SliderMultiplier:1
SliderTickRate:2

[Events]
//Background and Video events
0,0,"background-real.png"
//Break Periods
2,30546,44495
2,88905,89963
2,160155,164495
//Storyboard Layer 0 (Background)
//Storyboard Layer 1 (Fail)
//Storyboard Layer 2 (Pass)
//Storyboard Layer 3 (Foreground)
//Storyboard Sound Samples
//Background Colour Transformations
3,100,0,0,0

[TimingPoints]
815.136708791691,468.75,4,1,0,100,1,0
60823,-100,4,2,0,100,0,0
120823,-100,4,1,0,100,0,1
135817,-100,4,1,0,100,0,0
135823,-100,4,1,0,100,0,1
150815,-100,4,1,0,100,0,0

[Colours]
Combo1 : 226,163,29
Combo2 : 125,194,50
Combo3 : 65,134,237
Combo4 : 203,41,41

[HitObjects]
88,80,15815,5,0
240,80,16518,1,0
392,80,17221,1,0
392,232,17924,1,0
280,328,18627,1,0
280,328,19096,1,8
176,328,19565,5,0
176,176,20268,1,0
328,176,20971,1,0
480,176,21674,1,0
408,40,22377,1,0
408,40,22846,1,8
304,40,23315,5,0
152,40,24018,1,0
160,192,24721,1,0
288,112,25424,1,0
336,232,26127,1,0
432,232,26596,1,8
432,328,27065,5,0
232,328,28002,1,0
32,328,28940,5,0
112,272,29408,1,0
184,208,29877,1,0
256,144,30346,1,0
352,296,45815,6,2,B|272:344|184:320,2,150
424,232,47690,1,2
416,80,49565,5,0
264,80,50267,1,0
264,176,50737,2,0,B|184:176,2,50
264,272,51908,1,0
264,272,52143,1,0
264,272,52377,1,0
352,272,52846,1,0
392,192,53315,6,2,B|397:109|298:30,1,150
199,55,54721,2,0,B|120:97|116:211,1,150
112,264,55893,1,0
112,264,56127,1,0
200,264,56596,1,0
288,264,57065,5,0
376,264,57533,1,0
376,176,58002,5,0
288,176,58471,1,0
256,192,58940,12,0,60815
88,80,61283,5,8
176,80,61752,1,0
264,80,62221,1,8
352,80,62690,2,0,C|512:80,1,150,0|0
440,200,64096,1,8
368,248,64565,1,2
288,288,65033,1,0
200,312,65502,2,2,C|120:336,3,50,2|0|2|0
80,272,66674,5,2
80,184,67143,1,0
80,184,67377,1,2
80,96,67846,1,2
168,96,68315,5,4
256,96,68783,1,8
328,152,69252,1,0
416,152,69721,1,8
416,240,70190,1,0
416,240,70424,1,0
416,328,70893,1,0
328,328,71362,2,0,B|264:296|176:296,1,150
88,296,72533,1,8
88,160,73237,5,0
88,72,73705,1,0
176,72,74174,2,0,B|360:72,1,150
326,72,75112,1,8
326,72,75346,1,8
320,160,75815,5,0
376,232,76283,1,8
304,288,76752,1,0
248,216,77221,1,8
160,216,77690,1,2
160,216,77924,1,0
72,216,78393,1,2
72,128,78862,2,0,B|192:48|248:56,1,150
216,152,80033,2,0,B|296:131|389:164|483:148,1,250
456,240,81674,5,0
456,328,82143,1,0
456,328,82377,1,2
368,328,82846,1,2
280,328,83315,1,4
192,328,83783,5,8
104,328,84252,1,0
144,248,84721,1,8
224,200,85190,1,0
224,200,85424,2,0,B|296:184|336:112,1,100
376,96,86362,1,8
376,96,86596,1,8
296,48,87065,6,8,B|176:48,1,100
72,96,88237,1,0
72,184,88705,1,0
256,312,91283,5,8
256,312,91752,2,0,B|256:144,1,150,0|2
336,200,92924,2,2,B|356:86|256:11|131:91|186:232,1,350
256,320,95268,1,0
392,328,95971,1,0
392,192,96674,1,0
336,120,97143,5,0
336,120,97377,1,2
256,80,97846,5,2
176,120,98315,5,4
176,208,98783,2,0,B|176:312,1,100
264,312,99721,1,2
264,312,99955,1,0
264,312,100190,2,0,B|432:312|488:192|432:96|384:96|280:96,1,400,2|0
184,96,102768,5,0
184,232,103471,1,0
312,256,104174,1,0
384,176,104643,1,0
384,176,104877,2,0,B|168:176,1,200,0|4
176,88,106283,5,8
88,56,106752,1,0
88,56,106987,1,0
88,56,107221,1,8
88,144,107690,2,0,B|88:312,1,150
176,296,108862,1,0
176,296,109096,1,8
176,296,109330,1,0
264,296,109799,5,0
264,296,110033,1,8
264,296,110268,1,0
352,296,110737,5,2
352,296,110971,1,8
352,296,111205,1,2
464,224,111908,5,0
464,136,112377,1,0
464,136,112612,1,0
464,48,113080,2,2,B|240:16|24:80,1,400,2|0
64,200,115658,5,0
112,272,116127,1,0
112,272,116362,1,0
200,248,116830,2,0,B|80:8|432:8|288:272,1,450
298,253,119408,1,0
256,192,119877,12,4,120815
416,56,121283,5,8
416,56,121518,1,0
328,56,121987,1,0
280,56,122221,1,8
232,56,122455,2,0,B|162:55|24:0|0:120|8:248|171:188|240:192,1,450
320,192,125033,5,8
320,192,125268,1,0
408,192,125737,1,0
448,216,125971,1,8
464,256,126205,2,0,B|464:360|208:352,1,250,0|0
168,320,127846,5,8
136,288,128080,1,0
168,256,128315,1,0
168,168,128783,1,8
168,168,129018,1,0
256,168,129487,1,0
296,144,129721,1,8
336,168,129955,2,0,B|480:168|480:16|344:16,1,250
288,24,131596,5,8
240,24,131830,1,0
192,24,132065,1,0
104,24,132533,1,8
104,112,133002,1,0
104,200,133471,1,8
104,200,133705,1,0
104,288,134174,1,0
328,312,135112,5,8
328,312,135346,1,8
416,312,135815,6,0,B|416:184|320:184,1,150
264,176,136987,1,0
216,176,137221,1,8
168,176,137455,1,0
120,176,137690,2,0,B|8:176|8:-8|248:40,1,300,0|8
288,40,139565,5,0
376,40,140033,1,8
376,40,140268,1,0
464,40,140737,1,0
464,128,141205,2,0,L|464:312|360:320,1,250
398,317,142846,1,8
304,320,143315,6,0,L|176:320,1,100,0|8
204,320,144018,1,0
112,320,144487,1,0
112,232,144955,2,0,B|112:80|240:32,1,250
328,32,146596,5,8
360,56,146830,1,0
384,88,147065,1,0
392,176,147533,1,8
384,216,147768,1,0
360,256,148002,1,0
272,288,148471,1,8
272,288,148705,1,0
184,288,149174,1,0
104,240,149643,1,0
64,160,150112,1,8
64,160,150346,1,8
96,72,150815,5,0
184,72,151283,1,0
232,72,151518,1,0
320,72,151987,1,0
408,72,152455,2,0,B|464:72|512:96|512:192|464:208|408:207|408:207|248:208,1,350
200,208,154565,5,0
112,208,155033,1,0
64,208,155268,1,0
64,296,155737,1,0
152,296,156205,2,0,B|208:296|256:272|256:176|312:160|408:160|408:160|496:160,1,350
472,72,158315,5,0
384,72,158783,1,0
352,104,159018,1,0
264,104,159487,1,0
176,104,159955,1,0
96,80,165815,5,0
272,80,166752,1,0
448,80,167690,1,0
448,256,168627,1,2
360,256,169096,1,2
272,256,169565,5,0
88,256,170502,1,0
88,72,171440,1,0
224,72,172143,1,0
264,72,172377,1,2
352,72,172846,1,2
440,72,173315,6,0,B|440:216,1,100
440,172,174018,1,0
440,264,174487,1,0
392,264,174721,1,0
344,264,174955,2,0,B|56:264,1,250
112,176,176596,5,0
112,176,176830,1,0
184,120,177533,5,0
184,120,177767,1,0
256,192,178940,12,4,180815
