osu file format v12

[General]
AudioFilename: 575.mp3
AudioLeadIn: 0
PreviewTime: 37420
Countdown: 0
SampleSet: Soft
StackLeniency: 0.7
Mode: 0
LetterboxInBreaks: 1

[Editor]
DistanceSpacing: 1.3
BeatDivisor: 2
GridSize: 4

[Metadata]
Title:575
TitleUnicode:575
Artist:Perfume
ArtistUnicode:Perfume
Creator:asaink
Version:Normal
Source:
Tags:JPN
BeatmapID:235747
BeatmapSetID:85940

[Difficulty]
HPDrainRate:3
CircleSize:3
OverallDifficulty:3
ApproachRate:4
SliderMultiplier:0.999999999999999
SliderTickRate:1

[Events]
//Background and Video events
0,0,"BG.jpeg",1,1
//Break Periods
2,104985,119594
//Storyboard Layer 0 (Background)
//Storyboard Layer 1 (Fail)
//Storyboard Layer 2 (Pass)
//Storyboard Layer 3 (Foreground)
//Storyboard Sound Samples
//Background Colour Transformations
3,100,163,162,255

[TimingPoints]
4290,521.739130434783,4,2,1,40,1,0
37420,-100,4,2,1,30,0,0
37942,-100,4,2,1,60,0,0
54116,-100,4,2,1,30,0,0
54637,-100,4,2,1,60,0,0
71072,-100,4,2,1,60,0,1
100290,-100,4,2,1,30,0,0
120637,-100,4,2,1,60,0,0
137594,-100,4,2,1,30,0,0
138116,-100,4,2,1,60,0,0
154290,-100,4,2,1,30,0,0
154811,-100,4,2,1,60,0,0
171246,-100,4,2,1,60,0,1
201246,-100,4,2,1,60,0,0
233594,-100,4,2,1,30,0,0

[Colours]
Combo1 : 192,192,192
Combo2 : 128,128,128

[HitObjects]
100,80,4290,2,0,L|200:80,1,99.9999999999999,0|8,0:0|0:0,0:0:0:0:
300,80,5333,2,0,L|400:80,1,99.9999999999999,0|8,0:0|0:0,0:0:0:0:
400,180,6376,2,0,L|300:180,1,99.9999999999999,0|8,0:0|0:0,0:0:0:0:
200,180,7420,2,0,L|100:180,1,99.9999999999999,0|8,0:0|0:0,0:0:0:0:
100,80,8463,5,0,0:0:0:0:
200,80,8985,1,8,0:0:0:0:
300,80,9507,1,0,0:0:0:0:
400,80,10029,1,8,0:0:0:0:
400,180,10550,2,0,P|456:256|400:332,2,200,0|0|0,0:0|0:0|0:0,0:0:0:0:
300,180,13159,5,8,0:0:0:0:
200,180,13681,2,0,L|100:180,1,99.9999999999999,0|8,0:0|0:0,0:0:0:0:
0,180,14724,2,0,P|16:128|48:96,2,99.9999999999999,0|8|0,0:0|0:0|0:0,0:0:0:0:
0,280,16290,1,8,0:0:0:0:
100,280,16811,6,0,L|192:320,1,99.9999999999999,0|8,0:0|0:0,0:0:0:0:
292,320,17855,2,0,L|384:280,1,99.9999999999999,0|8,0:0|0:0,0:0:0:0:
384,180,18898,2,0,P|320:116|256:180,2,200
384,280,21507,5,8,0:0:0:0:
284,280,22029,2,0,L|184:280,1,99.9999999999999,0|8,0:0|0:0,0:0:0:0:
84,280,23072,2,0,P|36:264|12:220,1,99.9999999999999,0|8,0:0|0:0,0:0:0:0:
12,124,24116,2,0,P|28:76|72:52,1,99.9999999999999,0|8,0:0|0:0,0:0:0:0:
168,52,25159,5,0,0:0:0:0:
268,52,25681,1,8,0:0:0:0:
368,52,26203,1,0,0:0:0:0:
468,52,26724,1,8,0:0:0:0:
468,152,27246,2,0,L|368:152,2,99.9999999999999,0|8|0,0:0|0:0|0:0,0:0:0:0:
468,252,28811,1,8,0:0:0:0:
420,340,29333,6,0,L|328:300,1,99.9999999999999,0|8,0:0|0:0,0:0:0:0:
356,228,30376,2,0,L|264:188,1,99.9999999999999,0|8,0:0|0:0,0:0:0:0:
216,248,31420,2,0,L|124:208,1,99.9999999999999,0|8,0:0|0:0,0:0:0:0:
152,136,32463,2,0,L|60:96,1,99.9999999999999,0|8,0:0|0:0,0:0:0:0:
32,192,33507,5,0,0:0:0:0:
140,360,34550,1,0,0:0:0:0:
340,340,35594,1,0,0:0:0:0:
400,260,36116,1,8,0:0:0:0:
440,168,36637,1,0,0:0:0:0:
448,68,37159,1,8,0:0:0:0:
348,68,37681,6,0,L|248:68,2,99.9999999999999,4|8|0,0:1|0:0|0:0,0:0:0:0:
348,168,39246,1,8,0:0:0:0:
348,268,39768,2,0,P|360:316|400:344,2,99.9999999999999,0|8|0,0:0|0:0|0:0,0:0:0:0:
348,168,41333,1,8,0:0:0:0:
276,100,41855,6,0,P|252:56|208:36,1,99.9999999999999,0|8,0:0|0:0,0:0:0:0:
108,36,42898,2,0,P|64:60|44:104,1,99.9999999999999,0|8,0:0|0:0,0:0:0:0:
44,204,43942,1,0,0:0:0:0:
104,284,44463,1,8,0:0:0:0:
164,204,44985,1,0,0:0:0:0:
224,284,45507,1,8,0:0:0:0:
284,204,46029,6,0,L|356:132,2,99.9999999999999,0|8|0,0:0|0:0|0:0,0:0:0:0:
224,284,47594,1,8,0:0:0:0:
124,284,48116,2,0,P|76:296|52:340,2,99.9999999999999,0|8|0,0:0|0:0|0:0,0:0:0:0:
224,284,49681,1,8,0:0:0:0:
324,284,50203,6,0,L|420:244,1,99.9999999999999,0|8,0:0|0:0,0:0:0:0:
460,156,51246,2,0,P|376:112|288:156,2,200
460,256,53855,1,8,0:0:0:0:
380,316,54376,5,4,0:1:0:0:
300,376,54898,1,8,0:0:0:0:
200,376,55420,2,0,P|152:356|120:320,1,99.9999999999999,0|8,0:0|0:0,0:0:0:0:
68,236,56463,1,0,0:0:0:0:
68,236,56985,1,8,0:0:0:0:
68,136,57507,2,0,P|84:92|132:72,1,99.9999999999999,0|8,0:0|0:0,0:0:0:0:
200,144,58550,5,0,0:0:0:0:
268,216,59072,1,8,0:0:0:0:
268,216,59594,2,0,P|356:260|440:216,2,200
200,144,62203,1,8,0:0:0:0:
132,72,62724,5,0,0:0:0:0:
232,72,63246,1,8,0:0:0:0:
332,72,63768,2,0,L|432:72,1,99.9999999999999,0|8,0:0|0:0,0:0:0:0:
432,172,64811,1,0,0:0:0:0:
432,172,65333,1,8,0:0:0:0:
432,172,65855,2,0,P|416:216|376:252,1,99.9999999999999,0|8,0:0|0:0,0:0:0:0:
306,285,66898,5,0,0:0:0:0:
229,281,67419,1,8,0:0:0:0:
179,224,67941,1,0,0:0:0:0:
184,149,68463,1,8,0:0:0:0:
244,102,68984,1,0,0:0:0:0:
319,112,69506,1,8,0:0:0:0:
364,173,70028,1,0,0:0:0:0:
348,248,70550,1,8,0:0:0:0:
348,284,70811,1,0,0:0:0:0:
348,320,71072,6,0,L|248:320,1,99.9999999999999,0|8,0:0|0:0,0:0:0:0:
148,320,72116,2,0,P|96:304|64:272,2,99.9999999999999,0|8|0,0:0|0:0|0:0,0:0:0:0:
248,320,73681,1,8,0:0:0:0:
348,320,74203,2,0,P|396:304|408:260,1,99.9999999999999,0|8,0:0|0:0,0:0:0:0:
408,224,74985,5,0,0:0:0:0:
408,188,75246,1,0,0:0:0:0:
408,152,75507,1,0,0:0:0:0:
408,116,75768,2,0,L|408:16,2,99.9999999999999,8|0|8,0:0|0:0|0:0,0:0:0:0:
408,216,77333,1,0,0:0:0:0:
308,216,77855,1,8,0:0:0:0:
208,216,78376,2,0,L|108:216,1,99.9999999999999,0|8,0:0|0:0,0:0:0:0:
60,128,79420,6,0,L|160:128,1,99.9999999999999,0|8,0:0|0:0,0:0:0:0:
260,128,80463,1,0,0:0:0:0:
360,128,80985,1,8,0:0:0:0:
436,192,81507,5,0,0:0:0:0:
336,192,82029,1,8,0:0:0:0:
236,192,82550,1,0,0:0:0:0:
136,192,83072,1,8,0:0:0:0:
36,192,83594,2,0,P|48:240|84:272,1,99.9999999999999,0|8,0:0|0:0,0:0:0:0:
168,328,84637,2,0,L|268:328,1,99.9999999999999,0|8,0:0|0:0,0:0:0:0:
368,328,85681,2,0,P|440:200|364:80,1,300,0|8,0:0|0:0,0:0:0:0:
268,80,87768,5,0,0:0:0:0:
268,80,88290,2,0,L|168:80,1,99.9999999999999,8|0,0:0|0:0,0:0:0:0:
108,160,89333,1,8,0:0:0:0:
108,160,89855,2,0,L|12:200,2,99.9999999999999,0|8|0,0:0|0:0|0:0,0:0:0:0:
168,240,91420,1,8,0:0:0:0:
168,240,91942,2,0,L|260:200,2,99.9999999999999,0|8|0,0:0|0:0|0:0,0:0:0:0:
88,300,93507,5,8,0:0:0:0:
180,340,94029,1,0,0:0:0:0:
280,340,94550,2,0,P|320:364|364:340,1,99.9999999999999,8|0,0:0|0:0,0:0:0:0:
364,300,95333,1,0,0:0:0:0:
364,260,95594,2,0,P|324:236|280:260,1,99.9999999999999,8|0,0:0|0:0,0:0:0:0:
180,260,96637,5,8,0:0:0:0:
80,260,97159,1,0,0:0:0:0:
80,260,97681,2,0,L|80:160,1,99.9999999999999,8|0,0:0|0:0,0:0:0:0:
80,60,98724,2,0,L|180:60,1,99.9999999999999,8|0,0:0|0:0,0:0:0:0:
220,60,99507,6,0,P|240:100|220:148,1,99.9999999999999
256,192,100811,12,4,104463,0:1:0:0:
440,80,121159,6,0,L|340:80,1,99.9999999999999,0|8,0:0|0:0,0:0:0:0:
240,80,122203,2,0,L|140:80,1,99.9999999999999,0|8,0:0|0:0,0:0:0:0:
40,80,123246,1,0,0:0:0:0:
40,180,123768,1,8,0:0:0:0:
40,180,124290,2,0,L|140:180,1,99.9999999999999,0|8,0:0|0:0,0:0:0:0:
240,180,125333,6,0,P|296:252|240:328,2,200
140,180,127942,1,8,0:0:0:0:
40,180,128463,2,0,L|40:280,1,99.9999999999999,0|8,0:0|0:0,0:0:0:0:
80,372,129507,6,0,L|180:372,1,99.9999999999999,0|8,0:0|0:0,0:0:0:0:
180,296,130550,2,0,L|280:296,1,99.9999999999999,0|8,0:0|0:0,0:0:0:0:
280,220,131594,2,0,L|380:220,1,99.9999999999999,0|8,0:0|0:0,0:0:0:0:
380,144,132637,2,0,L|480:144,1,99.9999999999999,0|8,0:0|0:0,0:0:0:0:
480,244,133681,5,0,0:0:0:0:
308,344,134724,1,0,0:0:0:0:
108,328,135768,1,0,0:0:0:0:
48,248,136290,1,8,0:0:0:0:
8,156,136811,1,0,0:0:0:0:
0,56,137333,1,8,0:0:0:0:
100,56,137855,6,0,L|200:56,2,99.9999999999999,4|8|0,0:1|0:0|0:0,0:0:0:0:
0,56,139420,1,8,0:0:0:0:
0,156,139942,2,0,P|12:204|52:232,2,99.9999999999999,0|8|0,0:0|0:0|0:0,0:0:0:0:
0,56,141507,1,8,0:0:0:0:
92,96,142029,6,0,P|136:120|156:164,1,99.9999999999999,0|8,0:0|0:0,0:0:0:0:
156,264,143072,2,0,P|180:308|224:328,1,99.9999999999999,0|8,0:0|0:0,0:0:0:0:
324,328,144116,1,0,0:0:0:0:
404,268,144637,1,8,0:0:0:0:
324,208,145159,1,0,0:0:0:0:
404,148,145681,1,8,0:0:0:0:
324,88,146203,6,0,L|404:28,2,99.9999999999999,0|8|0,0:0|0:0|0:0,0:0:0:0:
244,148,147768,1,8,0:0:0:0:
164,208,148290,2,0,P|132:240|132:292,2,99.9999999999999,0|8|0,0:0|0:0|0:0,0:0:0:0:
244,148,149855,1,8,0:0:0:0:
324,88,150376,6,0,L|424:88,2,99.9999999999999,0|8|0,0:0|0:0|0:0,0:0:0:0:
252,156,151942,1,8,0:0:0:0:
352,168,152463,2,0,L|452:168,2,99.9999999999999,0|8|0,0:0|0:0|0:0,0:0:0:0:
260,208,154029,1,8,0:0:0:0:
236,236,154290,1,0,0:0:0:0:
212,264,154550,5,4,0:1:0:0:
152,344,155072,1,8,0:0:0:0:
52,344,155594,2,0,P|20:304|20:256,1,99.9999999999999,0|8,0:0|0:0,0:0:0:0:
20,156,156637,1,0,0:0:0:0:
100,96,157159,1,8,0:0:0:0:
200,88,157681,2,0,P|244:96|296:120,1,99.9999999999999,0|8,0:0|0:0,0:0:0:0:
376,176,158724,5,0,0:0:0:0:
412,268,159246,1,8,0:0:0:0:
412,268,159768,2,0,L|512:268,2,99.9999999999999,0|8|0,0:0|0:0|0:0,0:0:0:0:
312,268,161334,1,8,0:0:0:0:
212,268,161855,2,0,L|212:168,1,99.9999999999999,0|8,0:0|0:0,0:0:0:0:
180,72,162898,5,0,0:0:0:0:
180,72,163420,1,8,0:0:0:0:
180,72,163942,2,0,L|80:72,1,99.9999999999999,0|8,0:0|0:0,0:0:0:0:
80,172,164985,1,0,0:0:0:0:
80,172,165507,1,8,0:0:0:0:
80,172,166029,2,0,P|96:216|136:252,1,99.9999999999999,0|8,0:0|0:0,0:0:0:0:
206,285,167072,5,0,0:0:0:0:
283,281,167593,1,8,0:0:0:0:
333,224,168115,1,0,0:0:0:0:
328,149,168637,1,8,0:0:0:0:
268,102,169158,1,0,0:0:0:0:
193,112,169680,1,8,0:0:0:0:
148,173,170202,1,0,0:0:0:0:
164,248,170724,1,8,0:0:0:0:
164,284,170985,1,0,0:0:0:0:
164,320,171246,6,0,L|264:320,1,99.9999999999999,0|8,0:0|0:0,0:0:0:0:
364,320,172290,2,0,P|396:360|440:376,2,99.9999999999999,0|8|0,0:0|0:0|0:0,0:0:0:0:
364,220,173855,1,8,0:0:0:0:
364,120,174377,2,0,P|348:72|304:60,1,99.9999999999999,0|8,0:0|0:0,0:0:0:0:
268,60,175159,5,0,0:0:0:0:
232,60,175420,1,0,0:0:0:0:
196,60,175681,1,0,0:0:0:0:
160,60,175942,2,0,L|60:60,2,99.9999999999999,8|0|8,0:0|0:0|0:0,0:0:0:0:
200,152,177507,1,0,0:0:0:0:
260,232,178029,1,8,0:0:0:0:
348,280,178550,2,0,P|404:256|428:216,1,99.9999999999999,0|8,0:0|0:0,0:0:0:0:
452,128,179594,6,0,L|352:128,1,99.9999999999999,0|8,0:0|0:0,0:0:0:0:
252,128,180637,1,0,0:0:0:0:
152,128,181159,1,8,0:0:0:0:
76,192,181681,5,0,0:0:0:0:
176,192,182203,1,8,0:0:0:0:
276,192,182724,1,0,0:0:0:0:
376,192,183246,1,8,0:0:0:0:
476,192,183768,2,0,P|464:240|428:272,1,99.9999999999999,0|8,0:0|0:0,0:0:0:0:
344,328,184811,2,0,L|244:328,1,99.9999999999999,0|8,0:0|0:0,0:0:0:0:
144,328,185855,2,0,P|72:200|148:80,1,300,0|8,0:0|0:0,0:0:0:0:
244,80,187942,5,0,0:0:0:0:
344,80,188464,2,0,P|392:96|420:136,1,99.9999999999999,8|0,0:0|0:0,0:0:0:0:
420,236,189507,1,8,0:0:0:0:
420,236,190029,2,0,L|420:336,2,99.9999999999999,0|8|0,0:0|0:0|0:0,0:0:0:0:
420,136,191594,1,8,0:0:0:0:
420,136,192116,2,0,L|420:36,2,99.9999999999999,0|8|0,0:0|0:0|0:0,0:0:0:0:
340,196,193681,5,8,0:0:0:0:
260,256,194203,1,0,0:0:0:0:
180,316,194724,2,0,P|140:340|96:316,1,99.9999999999999,8|0,0:0|0:0,0:0:0:0:
96,276,195507,1,0,0:0:0:0:
96,236,195768,2,0,P|136:212|180:236,1,99.9999999999999,8|0,0:0|0:0,0:0:0:0:
256,300,196811,5,8,0:0:0:0:
356,300,197333,1,0,0:0:0:0:
356,300,197855,2,0,L|356:200,1,99.9999999999999,8|0,0:0|0:0,0:0:0:0:
356,100,198898,2,0,L|256:100,1,99.9999999999999,8|0,0:0|0:0,0:0:0:0:
216,100,199681,6,0,P|176:80|128:100,1,99.9999999999999
128,140,200463,6,0,P|168:160|216:140,1,99.9999999999999,0|8,0:0|0:0,0:0:0:0:
256,192,201246,12,0,204376,0:0:0:0:
120,300,205159,5,8,0:0:0:0:
120,300,205681,2,0,L|20:300,2,99.9999999999999,0|8|0,0:0|0:0|0:0,0:0:0:0:
120,200,207246,1,8,0:0:0:0:
200,140,207768,1,0,0:0:0:0:
280,80,208290,1,8,0:0:0:0:
280,80,208811,6,0,L|352:152,1,99.9999999999999,0|8,0:0|0:0,0:0:0:0:
416,228,209855,2,0,P|332:276|252:228,2,200
480,152,212463,1,8,0:0:0:0:
392,200,212985,5,0,0:0:0:0:
392,300,213507,1,8,0:0:0:0:
392,300,214029,2,0,L|492:300,2,99.9999999999999,0|8|0,0:0|0:0|0:0,0:0:0:0:
392,200,215594,1,8,0:0:0:0:
312,140,216116,1,0,0:0:0:0:
232,80,216638,1,8,0:0:0:0:
232,80,217159,6,0,L|160:152,1,99.9999999999999,0|8,0:0|0:0,0:0:0:0:
96,228,218203,2,0,P|180:276|260:228,2,200
96,128,220811,1,8,0:0:0:0:
96,128,221333,6,0,P|120:84|164:64,1,99.9999999999999,0|8,0:0|0:0,0:0:0:0:
264,64,222376,2,0,L|364:64,1,99.9999999999999,0|8,0:0|0:0,0:0:0:0:
464,64,223420,1,0,0:0:0:0:
464,164,223942,1,8,0:0:0:0:
464,164,224463,2,0,P|440:208|396:228,1,99.9999999999999,0|8,0:0|0:0,0:0:0:0:
296,228,225507,5,0,0:0:0:0:
196,228,226029,1,8,0:0:0:0:
196,228,226550,2,0,P|148:144|196:64,2,200
264,300,229159,1,8,0:0:0:0:
364,300,229681,6,0,L|436:228,1,99.9999999999999,0|8,0:0|0:0,0:0:0:0:
436,128,230724,2,0,L|364:56,1,99.9999999999999,0|8,0:0|0:0,0:0:0:0:
264,56,231768,1,0,0:0:0:0:
264,156,232290,1,8,0:0:0:0:
264,256,232811,2,0,L|264:356,1,99.9999999999999,0|8,0:0|0:0,0:0:0:0:
256,192,233855,12,4,238029,0:1:0:0:
