osu file format v12

[General]
AudioFilename: 575.mp3
AudioLeadIn: 0
PreviewTime: 37420
Countdown: 0
SampleSet: Soft
StackLeniency: 0.7
Mode: 0
LetterboxInBreaks: 1

[Editor]
DistanceSpacing: 1.3
BeatDivisor: 4
GridSize: 4

[Metadata]
Title:575
TitleUnicode:575
Artist:Perfume
ArtistUnicode:Perfume
Creator:asaink
Version:Hard
Source:
Tags:JPN
BeatmapID:235746
BeatmapSetID:85940

[Difficulty]
HPDrainRate:5
CircleSize:4
OverallDifficulty:6
ApproachRate:7
SliderMultiplier:1.8
SliderTickRate:1

[Events]
//Background and Video events
0,0,"BG.jpeg",0,0
//Break Periods
2,104985,119594
//Storyboard Layer 0 (Background)
//Storyboard Layer 1 (Fail)
//Storyboard Layer 2 (Pass)
//Storyboard Layer 3 (Foreground)
//Storyboard Sound Samples
//Background Colour Transformations
3,100,163,162,255

[TimingPoints]
4290,521.739130434783,4,2,1,40,1,0
37420,-100,4,2,1,30,0,0
37811,-100,4,2,1,60,0,0
54246,-100,4,2,1,30,0,0
54507,-100,4,2,1,60,0,0
70942,-66.6666666666667,4,2,1,30,0,1
71203,-66.6666666666667,4,2,1,60,0,1
94420,-50,4,2,1,60,0,1
96246,-66.6666666666667,4,2,1,60,0,1
99376,-50,4,2,1,5,0,1
100159,-100,4,2,1,60,0,0
104333,-100,4,2,1,30,0,0
120376,-100,4,2,1,60,0,0
137724,-100,4,2,1,30,0,0
137985,-100,4,2,1,60,0,0
154420,-100,4,2,1,30,0,0
154681,-100,4,2,1,60,0,0
171116,-66.6666666666667,4,2,1,30,0,1
171376,-66.6666666666667,4,2,1,60,0,1
194594,-50,4,2,1,60,0,1
196420,-66.6666666666667,4,2,1,60,0,1
199550,-50,4,2,1,5,0,1
201116,-100,4,2,1,60,0,0
204507,-100,4,2,1,30,0,0
204768,-100,4,2,1,60,0,0
221203,-100,4,2,1,30,0,0
221463,-100,4,2,1,60,0,0
233724,-100,4,2,1,30,0,0

[Colours]
Combo1 : 192,192,192
Combo2 : 128,128,128

[HitObjects]
104,128,4290,6,0,P|128:88|176:80,1,90,0|0,0:0|0:0,0:0:0:0:
256,80,4811,1,8,0:0:0:0:
344,80,5072,1,0,0:0:0:0:
408,144,5333,2,0,P|384:184|336:192,1,90
256,192,5855,1,8,0:0:0:0:
168,192,6116,1,0,0:0:0:0:
80,192,6376,5,0,0:0:0:0:
152,112,6637,1,0,0:0:0:0:
256,80,6898,1,8,0:0:0:0:
360,112,7159,1,0,0:0:0:0:
432,192,7420,2,0,L|368:256,1,90
304,320,7942,2,0,L|212:320,1,90,8|0,0:0|0:0,0:0:0:0:
96,308,8463,5,0,0:0:0:0:
88,192,8724,1,0,0:0:0:0:
192,244,8985,1,8,0:0:0:0:
96,308,9246,1,0,0:0:0:0:
88,192,9507,6,0,P|256:120|408:192,2,360,0|0|0,0:0|0:0|0:0,0:0:0:0:
148,260,11855,1,8,0:0:0:0:
228,300,12116,1,8,0:0:0:0:
400,352,12637,6,0,P|440:328|448:288,1,90
448,200,13159,1,8,0:0:0:0:
448,112,13420,1,0,0:0:0:0:
400,36,13681,2,0,P|360:60|352:100,1,90
352,188,14203,1,8,0:0:0:0:
352,276,14463,1,0,0:0:0:0:
304,372,14724,5,0,0:0:0:0:
220,304,14985,1,0,0:0:0:0:
148,224,15246,1,8,0:0:0:0:
92,132,15507,1,0,0:0:0:0:
156,68,15768,2,0,L|236:108,1,90
316,156,16290,2,0,L|316:248,1,90,8|0,0:0|0:0,0:0:0:0:
416,308,16811,5,0,0:0:0:0:
424,192,17072,1,0,0:0:0:0:
320,244,17333,1,8,0:0:0:0:
416,308,17594,1,0,0:0:0:0:
424,192,17855,6,0,P|256:120|104:192,2,360
256,192,20463,1,8,0:0:0:0:
144,224,20724,1,0,0:0:0:0:
144,224,20855,1,0,0:0:0:0:
144,224,20985,6,0,P|160:264|200:288,1,90,0|0,0:0|0:0,0:0:0:0:
280,328,21507,1,8,0:0:0:0:
280,328,21768,2,0,L|376:328,1,90
464,328,22290,1,0,0:0:0:0:
464,328,22550,2,0,L|464:236,1,90,8|0,0:0|0:0,0:0:0:0:
464,144,23072,1,0,0:0:0:0:
360,88,23333,5,0,0:0:0:0:
256,144,23594,1,8,0:0:0:0:
360,200,23855,1,0,0:0:0:0:
360,200,24116,2,0,L|312:280,2,90,0|0|8,0:0|0:0|0:0,0:0:0:0:
400,120,24898,2,0,P|368:88|320:72,1,90
236,72,25420,1,0,0:0:0:0:
308,164,25681,1,8,0:0:0:0:
380,72,25942,1,0,0:0:0:0:
380,72,26203,2,0,P|204:84|60:192,2,360
492,212,28811,1,8,0:0:0:0:
360,336,29333,6,0,P|328:360|280:368,1,90
160,368,29855,1,8,0:0:0:0:
220,300,30116,1,0,0:0:0:0:
280,232,30376,1,0,0:0:0:0:
340,164,30637,1,0,0:0:0:0:
340,164,30898,2,0,L|432:164,2,90,8|0|0,0:0|0:0|0:0,0:0:0:0:
248,164,31681,5,0,0:0:0:0:
188,232,31942,1,8,0:0:0:0:
128,300,32203,1,0,0:0:0:0:
68,368,32463,1,0,0:0:0:0:
68,368,32724,2,0,L|-4:312,2,90,0|8|0,0:0|0:0|0:0,0:0:0:0:
0,312,33507,1,0,0:0:0:0:
92,160,34029,5,8,0:0:0:0:
252,80,34550,1,0,0:0:0:0:
428,40,35072,1,8,0:0:0:0:
492,208,35594,5,0,0:0:0:0:
456,249,35855,1,0,0:0:0:0:
415,283,36116,1,8,0:0:0:0:
369,311,36376,1,0,0:0:0:0:
319,331,36637,1,0,0:0:0:0:
266,343,36898,1,0,0:0:0:0:
213,346,37159,1,8,0:0:0:0:
60,252,37681,6,0,P|20:232|0:192,2,90,4|0|8,0:1|0:0|0:0,0:0:0:0:
92,168,38463,1,0,0:0:0:0:
124,84,38724,2,0,L|304:84,2,180,0|8|0,0:0|0:0|0:0,0:0:0:0:
80,192,40029,5,0,0:0:0:0:
168,192,40290,1,8,0:0:0:0:
256,192,40550,1,0,0:0:0:0:
256,192,40811,2,0,L|344:220,1,90
428,192,41333,2,0,L|396:104,1,90,8|0,0:0|0:0,0:0:0:0:
340,40,41855,5,0,0:0:0:0:
224,60,42116,1,0,0:0:0:0:
116,100,42376,1,8,0:0:0:0:
16,160,42637,1,0,0:0:0:0:
16,160,42898,2,0,P|88:320|256:360,2,360
136,176,45246,1,8,0:0:0:0:
256,192,45507,1,8,0:0:0:0:
452,252,46029,6,0,P|492:232|512:192,2,90,0|0|8,0:0|0:0|0:0,0:0:0:0:
420,168,46811,1,0,0:0:0:0:
388,84,47072,2,0,L|208:84,2,180,0|8|0,0:0|0:0|0:0,0:0:0:0:
432,192,48376,5,0,0:0:0:0:
344,192,48637,1,8,0:0:0:0:
256,192,48898,1,0,0:0:0:0:
256,192,49159,2,0,L|168:220,1,90
84,192,49681,2,0,L|116:104,1,90,8|0,0:0|0:0,0:0:0:0:
172,40,50203,5,0,0:0:0:0:
288,60,50463,1,0,0:0:0:0:
396,100,50724,1,8,0:0:0:0:
496,160,50985,1,0,0:0:0:0:
496,160,51246,2,0,P|424:320|256:360,2,360,0|0|0,0:0|0:0|0:0,0:0:0:0:
256,204,53855,1,8,0:0:0:0:
144,252,54116,5,0,0:0:0:0:
144,252,54246,1,0,0:0:0:0:
144,252,54376,2,0,P|104:236|76:196,1,90,4|0,0:1|0:0,0:0:0:0:
76,108,54898,2,0,P|92:68|132:40,1,90,8|0,0:0|0:0,0:0:0:0:
192,140,55420,2,0,L|372:140,1,180,0|8,0:0|0:0,0:0:0:0:
456,300,56463,5,0,0:0:0:0:
292,228,56985,1,8,0:0:0:0:
124,300,57507,2,0,L|60:236,1,90
4,164,58029,2,0,L|68:100,1,90,8|0,0:0|0:0,0:0:0:0:
168,40,58550,5,0,0:0:0:0:
228,140,58811,1,0,0:0:0:0:
288,40,59072,1,8,0:0:0:0:
348,140,59333,1,0,0:0:0:0:
408,40,59594,2,0,P|452:116|408:192,2,180,0|8|0,0:0|0:0|0:0,0:0:0:0:
320,40,60898,1,0,0:0:0:0:
232,40,61159,2,0,P|188:116|232:192,2,180,8|0|8,0:0|0:0|0:0,0:0:0:0:
400,252,62724,5,0,0:0:0:0:
312,244,62985,1,0,0:0:0:0:
224,224,63246,1,8,0:0:0:0:
152,172,63507,1,0,0:0:0:0:
100,100,63768,2,0,B|144:8|272:8|300:120,1,270
300,120,64811,5,0,0:0:0:0:
300,240,65333,1,8,0:0:0:0:
180,240,65855,1,0,0:0:0:0:
180,120,66376,1,8,0:0:0:0:
300,120,66898,6,0,L|392:120,1,90
456,120,67420,2,0,L|456:212,1,90,8|0,0:0|0:0,0:0:0:0:
456,276,67942,2,0,L|364:276,1,90
300,276,68463,2,0,L|300:184,1,90,8|0,0:0|0:0,0:0:0:0:
300,120,68985,5,0,0:0:0:0:
252,120,69246,1,0,0:0:0:0:
204,132,69507,1,8,0:0:0:0:
160,152,69768,1,0,0:0:0:0:
120,180,70029,1,0,0:0:0:0:
88,216,70290,1,0,0:0:0:0:
68,260,70550,1,8,0:0:0:0:
60,308,70811,1,0,0:0:0:0:
184,360,71072,6,0,P|236:312|256:252,2,135.000005149842,4|0|8,0:1|0:0|0:0,0:0:0:0:
60,308,71855,1,0,0:0:0:0:
60,308,71985,1,0,0:0:0:0:
60,308,72116,2,0,L|60:240,1,67.5000025749208
60,204,72376,1,0,0:0:0:0:
60,168,72507,1,0,0:0:0:0:
60,132,72637,2,0,P|80:64|136:40,1,135.000005149842,8|0,0:0|0:0,0:0:0:0:
148,40,73029,1,0,0:0:0:0:
344,88,73420,6,0,L|280:112,2,67.5000025749208,0|0|8,0:0|0:0|0:0,0:0:0:0:
408,64,73811,2,0,L|472:40,2,67.5000025749208
408,100,74203,1,0,0:0:0:0:
408,136,74333,1,0,0:0:0:0:
408,172,74463,1,0,0:0:0:0:
408,208,74594,2,0,P|384:276|332:304,1,135.000005149842
224,332,74985,5,0,0:0:0:0:
80,192,75246,1,0,0:0:0:0:
224,52,75507,1,0,0:0:0:0:
80,192,75768,2,0,L|12:192,2,67.5000025749208,8|0|0,0:0|0:0|0:0,0:0:0:0:
148,192,76159,1,0,0:0:0:0:
216,192,76290,2,0,P|384:184|484:164,1,270.000010299683,0|8,0:0|0:0,0:0:0:0:
432,40,77072,5,0,0:0:0:0:
256,40,77333,1,0,0:0:0:0:
80,40,77594,1,0,0:0:0:0:
80,40,77855,2,0,P|40:96|44:160,1,135.000005149842,8|0,0:0|0:0,0:0:0:0:
68,288,78376,1,0,0:0:0:0:
68,288,78507,1,0,0:0:0:0:
68,288,78637,2,0,P|104:352|160:368,1,135.000005149842,0|8,0:0|0:0,0:0:0:0:
428,368,79420,5,0,0:0:0:0:
428,232,79681,2,0,L|496:232,2,67.5000025749208,0|0|8,0:0|0:0|0:0,0:0:0:0:
228,192,80333,1,0,0:0:0:0:
228,192,80463,1,0,0:0:0:0:
376,100,80724,1,0,0:0:0:0:
376,100,80855,2,0,L|440:80,1,67.5000025749208,0|8,0:0|0:0,0:0:0:0:
52,192,81507,5,0,0:0:0:0:
120,192,81768,1,0,0:0:0:0:
188,192,82029,1,8,0:0:0:0:
256,192,82290,1,0,0:0:0:0:
324,192,82550,1,0,0:0:0:0:
392,192,82811,1,0,0:0:0:0:
392,192,82942,2,0,L|460:192,1,67.5000025749208,0|8,0:0|0:0,0:0:0:0:
256,192,83333,5,0,0:0:0:0:
256,192,83463,1,0,0:0:0:0:
256,192,83594,2,0,P|232:304|160:344,1,202.500007724762,0|8,0:0|0:0,0:0:0:0:
152,344,84116,1,8,0:0:0:0:
24,344,84376,1,0,0:0:0:0:
92,228,84637,1,0,0:0:0:0:
160,344,84898,2,0,L|228:344,2,67.5000025749208,0|0|8,0:0|0:0|0:0,0:0:0:0:
256,192,85290,12,8,87246,0:0:0:0:
60,80,87507,5,0,0:0:0:0:
128,80,87768,1,0,0:0:0:0:
196,80,88029,1,0,0:0:0:0:
196,80,88159,1,0,0:0:0:0:
196,80,88290,2,0,L|468:80,1,270.000010299683,8|0,0:0|0:0,0:0:0:0:
468,348,89333,5,8,0:0:0:0:
400,348,89594,1,0,0:0:0:0:
332,348,89855,1,0,0:0:0:0:
332,348,89985,1,0,0:0:0:0:
332,348,90116,2,0,B|60:348|60:348|60:280,1,337.500012874604
60,80,91029,5,0,0:0:0:0:
60,80,91159,1,0,0:0:0:0:
196,80,91420,1,8,0:0:0:0:
196,220,91681,1,0,0:0:0:0:
332,216,91942,1,0,0:0:0:0:
332,352,92203,1,0,0:0:0:0:
468,352,92463,1,8,0:0:0:0:
468,216,92724,2,0,L|468:148,1,67.5000025749208
384,40,93116,5,0,0:0:0:0:
360,68,93246,1,0,0:0:0:0:
336,96,93376,1,0,0:0:0:0:
312,124,93507,1,8,0:0:0:0:
288,152,93637,1,0,0:0:0:0:
264,180,93768,1,0,0:0:0:0:
240,208,93898,1,0,0:0:0:0:
216,236,94029,5,0,0:0:0:0:
160,300,94290,1,0,0:0:0:0:
60,352,94550,2,0,B|32:312|32:312|80:280|80:280|48:248|48:248|48:40,1,360,8|0,0:0|0:0,0:0:0:0:
200,136,95333,5,0,0:0:0:0:
300,288,95594,1,8,0:0:0:0:
460,212,95855,2,0,L|460:32,1,180
288,60,96376,5,0,0:0:0:0:
152,60,96637,1,8,0:0:0:0:
16,60,96898,1,0,0:0:0:0:
44,192,97159,2,0,P|88:244|152:260,1,135.000005149842
288,260,97681,5,8,0:0:0:0:
312,260,97811,1,0,0:0:0:0:
336,260,97942,1,0,0:0:0:0:
360,260,98072,2,0,L|496:260,1,135.000005149842
432,140,98594,1,0,0:0:0:0:
408,140,98724,1,8,0:0:0:0:
384,140,98855,1,0,0:0:0:0:
360,140,98985,2,0,L|224:140,1,135.000005149842
188,212,99507,6,0,B|376:292|268:428|100:292|356:200,1,360,0|0,0:0|0:0,0:0:0:0:
440,80,101072,5,0,0:0:0:0:
440,148,101333,1,0,0:0:0:0:
440,216,101594,1,0,0:0:0:0:
440,284,101855,2,0,L|440:376,2,90,8|0|0,0:0|0:0|0:0,0:0:0:0:
372,284,102637,1,0,0:0:0:0:
324,276,102898,1,8,0:0:0:0:
280,256,103159,1,0,0:0:0:0:
244,224,103420,1,0,0:0:0:0:
216,184,103681,1,0,0:0:0:0:
200,140,103942,1,8,0:0:0:0:
196,92,104203,1,0,0:0:0:0:
196,44,104463,1,4,0:1:0:0:
440,320,120637,5,8,0:0:0:0:
440,252,120898,1,0,0:0:0:0:
440,252,121029,1,0,0:0:0:0:
440,252,121159,2,0,P|424:212|396:172,1,90,0|0,0:0|0:0,0:0:0:0:
336,104,121681,1,8,0:0:0:0:
268,104,121942,2,0,L|176:104,1,90
112,104,122463,2,0,P|76:132|56:172,2,90,0|8|0,0:0|0:0|0:0,0:0:0:0:
228,80,123246,1,0,0:0:0:0:
268,192,123507,5,0,0:0:0:0:
176,120,123768,1,8,0:0:0:0:
288,88,124029,1,0,0:0:0:0:
288,88,124290,2,0,L|376:60,2,90,0|0|8,0:0|0:0|0:0,0:0:0:0:
200,112,125072,2,0,P|168:144|152:192,1,90
152,276,125594,1,0,0:0:0:0:
72,192,125855,1,8,0:0:0:0:
28,300,126116,1,0,0:0:0:0:
28,300,126376,2,0,P|192:368|352:300,2,360
224,172,128985,1,8,0:0:0:0:
376,76,129507,6,0,P|408:52|456:44,1,90
476,132,130029,1,8,0:0:0:0:
428,208,130290,1,0,0:0:0:0:
380,284,130550,1,0,0:0:0:0:
332,360,130811,1,0,0:0:0:0:
332,360,131072,2,0,L|424:360,2,90,8|0|0,0:0|0:0|0:0,0:0:0:0:
284,284,131855,5,0,0:0:0:0:
236,208,132116,1,8,0:0:0:0:
188,132,132376,1,0,0:0:0:0:
140,56,132637,1,0,0:0:0:0:
140,56,132898,2,0,L|48:56,2,90,0|8|0,0:0|0:0|0:0,0:0:0:0:
48,56,133681,1,0,0:0:0:0:
100,228,134203,5,8,0:0:0:0:
256,316,134724,1,0,0:0:0:0:
432,352,135246,1,8,0:0:0:0:
488,181,135768,5,0,0:0:0:0:
452,140,136029,1,0,0:0:0:0:
411,106,136290,1,8,0:0:0:0:
365,78,136550,1,0,0:0:0:0:
315,58,136811,1,0,0:0:0:0:
262,46,137072,1,0,0:0:0:0:
209,43,137333,1,8,0:0:0:0:
108,192,137855,6,0,P|88:232|48:252,2,90,4|0|8,0:1|0:0|0:0,0:0:0:0:
128,104,138637,1,0,0:0:0:0:
212,136,138898,2,0,L|392:136,2,180,0|8|0,0:0|0:0|0:0,0:0:0:0:
152,204,140203,5,0,0:0:0:0:
108,256,140463,1,8,0:0:0:0:
64,308,140724,1,0,0:0:0:0:
64,308,140985,2,0,P|96:344|136:356,1,90
224,356,141507,2,0,P|262:344|294:308,1,90,8|0,0:0|0:0,0:0:0:0:
356,208,142029,5,0,0:0:0:0:
284,116,142290,1,0,0:0:0:0:
184,56,142550,1,8,0:0:0:0:
68,40,142811,1,0,0:0:0:0:
68,40,143072,2,0,P|140:200|308:240,2,360
240,104,145681,1,8,0:0:0:0:
404,192,146203,6,0,P|424:232|464:252,2,90,0|0|8,0:0|0:0|0:0,0:0:0:0:
384,104,146985,1,0,0:0:0:0:
300,136,147246,2,0,L|120:136,2,180,0|8|0,0:0|0:0|0:0,0:0:0:0:
360,204,148550,5,0,0:0:0:0:
404,256,148811,1,8,0:0:0:0:
448,308,149072,1,0,0:0:0:0:
448,308,149333,2,0,P|416:344|376:356,1,90
288,356,149855,2,0,P|249:344|217:308,1,90,8|0,0:0|0:0,0:0:0:0:
156,208,150376,5,0,0:0:0:0:
228,116,150637,1,0,0:0:0:0:
328,56,150898,1,8,0:0:0:0:
444,40,151159,1,0,0:0:0:0:
444,40,151420,2,0,P|372:200|204:240,2,360
272,104,154029,1,8,0:0:0:0:
184,124,154290,5,0,0:0:0:0:
184,124,154420,1,0,0:0:0:0:
184,124,154550,2,0,P|144:136|128:180,1,90,4|0,0:1|0:0,0:0:0:0:
128,244,155072,2,0,P|140:284|184:300,1,90,8|0,0:0|0:0,0:0:0:0:
248,300,155594,2,0,P|288:288|304:244,1,90
304,180,156116,2,0,P|292:140|248:124,1,90,8|0,0:0|0:0,0:0:0:0:
136,96,156637,5,0,0:0:0:0:
60,260,157159,1,8,0:0:0:0:
200,372,157681,2,0,L|280:324,1,90
364,300,158203,2,0,L|448:336,1,90,8|0,0:0|0:0,0:0:0:0:
504,268,158724,5,0,0:0:0:0:
432,176,158985,1,0,0:0:0:0:
360,84,159246,1,8,0:0:0:0:
288,176,159507,1,0,0:0:0:0:
216,268,159768,2,0,L|216:360,2,90,0|0|8,0:0|0:0|0:0,0:0:0:0:
216,200,160550,1,0,0:0:0:0:
148,200,160811,2,0,L|56:200,2,90,0|0|8,0:0|0:0|0:0,0:0:0:0:
216,200,161594,1,0,0:0:0:0:
216,132,161855,2,0,L|216:40,2,90,0|0|8,0:0|0:0|0:0,0:0:0:0:
216,200,162637,1,0,0:0:0:0:
124,272,162898,5,0,0:0:0:0:
240,284,163159,1,0,0:0:0:0:
352,252,163420,1,8,0:0:0:0:
444,180,163681,1,0,0:0:0:0:
424,92,163942,2,0,B|368:8|240:20|212:120,1,270
212,120,164985,5,0,0:0:0:0:
212,240,165507,1,8,0:0:0:0:
332,240,166029,1,0,0:0:0:0:
332,120,166550,1,8,0:0:0:0:
212,120,167072,6,0,L|120:120,1,90
56,120,167594,2,0,L|56:212,1,90,8|0,0:0|0:0,0:0:0:0:
56,276,168116,2,0,L|148:276,1,90
212,276,168637,2,0,L|212:184,1,90,8|0,0:0|0:0,0:0:0:0:
212,120,169159,5,0,0:0:0:0:
260,120,169420,1,0,0:0:0:0:
308,132,169681,1,8,0:0:0:0:
352,152,169942,1,0,0:0:0:0:
392,180,170203,1,0,0:0:0:0:
424,216,170463,1,0,0:0:0:0:
444,260,170724,1,8,0:0:0:0:
452,308,170985,1,0,0:0:0:0:
328,360,171246,6,0,P|256:344|208:308,2,135.000005149842,4|0|8,0:1|0:0|0:0,0:0:0:0:
456,316,172029,1,0,0:0:0:0:
456,316,172159,1,0,0:0:0:0:
456,316,172290,2,0,L|400:280,1,67.5000025749208
368,260,172550,1,0,0:0:0:0:
336,240,172681,1,0,0:0:0:0:
304,220,172811,2,0,L|188:148,1,135.000005149842,8|0,0:0|0:0,0:0:0:0:
180,144,173203,1,0,0:0:0:0:
0,48,173594,5,0,0:0:0:0:
0,84,173724,1,0,0:0:0:0:
0,120,173855,1,8,0:0:0:0:
0,156,173985,2,0,L|0:224,2,67.5000025749208
40,156,174376,1,0,0:0:0:0:
76,156,174507,1,0,0:0:0:0:
112,156,174637,1,0,0:0:0:0:
148,156,174768,2,0,P|208:168|256:220,1,135.000005149842
256,308,175159,5,0,0:0:0:0:
420,192,175420,1,0,0:0:0:0:
256,76,175681,1,0,0:0:0:0:
420,192,175942,2,0,L|488:192,2,67.5000025749208,8|0|0,0:0|0:0|0:0,0:0:0:0:
352,192,176333,1,0,0:0:0:0:
284,192,176463,2,0,B|136:192|72:244|52:296,1,270.000010299683,0|8,0:0|0:0,0:0:0:0:
256,296,177246,5,0,0:0:0:0:
428,328,177507,1,0,0:0:0:0:
376,160,177768,1,0,0:0:0:0:
376,160,178029,2,0,P|320:120|256:100,1,135.000005149842,8|0,0:0|0:0,0:0:0:0:
204,224,178550,1,0,0:0:0:0:
204,224,178681,1,0,0:0:0:0:
204,224,178811,2,0,P|260:264|324:284,1,135.000005149842,0|8,0:0|0:0,0:0:0:0:
512,92,179594,5,0,0:0:0:0:
376,92,179855,2,0,L|308:92,2,67.5000025749208,0|0|8,0:0|0:0|0:0,0:0:0:0:
200,192,180507,1,0,0:0:0:0:
200,192,180637,1,0,0:0:0:0:
280,300,180898,1,0,0:0:0:0:
280,300,181029,2,0,L|248:360,1,67.5000025749208,0|8,0:0|0:0,0:0:0:0:
460,192,181681,5,0,0:0:0:0:
392,192,181942,1,0,0:0:0:0:
324,192,182203,1,8,0:0:0:0:
256,192,182463,1,0,0:0:0:0:
188,192,182724,1,0,0:0:0:0:
120,192,182985,1,0,0:0:0:0:
120,192,183116,2,0,L|52:192,1,67.5000025749208,0|8,0:0|0:0,0:0:0:0:
256,192,183507,5,0,0:0:0:0:
256,192,183637,1,0,0:0:0:0:
256,192,183768,2,0,P|280:304|352:344,1,202.500007724762,0|8,0:0|0:0,0:0:0:0:
360,344,184290,1,8,0:0:0:0:
488,344,184550,1,0,0:0:0:0:
420,228,184811,1,0,0:0:0:0:
352,344,185072,2,0,L|284:344,2,67.5000025749208,0|0|8,0:0|0:0|0:0,0:0:0:0:
256,192,185463,12,8,187420,0:0:0:0:
452,80,187681,5,0,0:0:0:0:
384,80,187942,1,0,0:0:0:0:
316,80,188203,1,0,0:0:0:0:
316,80,188333,1,0,0:0:0:0:
316,80,188463,2,0,L|44:80,1,270.000010299683,8|0,0:0|0:0,0:0:0:0:
44,348,189507,5,8,0:0:0:0:
112,348,189768,1,0,0:0:0:0:
180,348,190029,1,0,0:0:0:0:
180,348,190159,1,0,0:0:0:0:
180,348,190290,2,0,B|452:348|452:348|452:280,1,337.500012874604
452,80,191203,5,0,0:0:0:0:
452,80,191333,1,0,0:0:0:0:
316,80,191594,1,8,0:0:0:0:
316,220,191855,1,0,0:0:0:0:
180,216,192116,1,0,0:0:0:0:
180,352,192376,1,0,0:0:0:0:
44,352,192637,1,8,0:0:0:0:
44,216,192898,2,0,L|44:148,1,67.5000025749208
128,40,193290,5,0,0:0:0:0:
152,68,193420,1,0,0:0:0:0:
176,96,193550,1,0,0:0:0:0:
200,124,193681,1,8,0:0:0:0:
224,152,193811,1,0,0:0:0:0:
248,180,193942,1,0,0:0:0:0:
272,208,194072,1,0,0:0:0:0:
296,236,194203,5,0,0:0:0:0:
352,300,194463,1,0,0:0:0:0:
452,352,194724,2,0,B|480:312|480:312|432:280|432:280|464:248|464:248|464:40,1,360,8|0,0:0|0:0,0:0:0:0:
312,136,195507,5,0,0:0:0:0:
212,288,195768,1,8,0:0:0:0:
52,212,196029,2,0,L|52:32,1,180
224,60,196550,5,0,0:0:0:0:
360,60,196811,1,8,0:0:0:0:
496,60,197072,1,0,0:0:0:0:
468,192,197333,2,0,P|424:244|360:260,1,135.000005149842
224,260,197855,5,8,0:0:0:0:
200,260,197985,1,0,0:0:0:0:
176,260,198116,1,0,0:0:0:0:
152,260,198246,2,0,L|16:260,1,135.000005149842
80,140,198768,1,0,0:0:0:0:
104,140,198898,1,8,0:0:0:0:
128,140,199029,1,0,0:0:0:0:
152,140,199159,2,0,L|288:140,1,135.000005149842
324,212,199681,6,0,B|136:292|244:428|412:292|156:200,1,360
188,172,200463,6,0,B|376:92|268:-44|100:92|356:184,1,360,0|8,0:0|0:0,0:0:0:0:
382,192,201246,5,0,0:0:0:0:
370,235,201507,1,0,0:0:0:0:
340,268,201768,1,0,0:0:0:0:
297,282,202029,1,8,0:0:0:0:
253,274,202290,1,0,0:0:0:0:
218,246,202550,1,0,0:0:0:0:
201,205,202811,1,0,0:0:0:0:
205,161,203072,1,8,0:0:0:0:
229,124,203333,1,0,0:0:0:0:
268,103,203594,1,0,0:0:0:0:
313,103,203855,1,8,0:0:0:0:
352,124,204116,1,8,0:0:0:0:
377,161,204376,1,0,0:0:0:0:
388,204,204637,6,0,P|400:244|440:268,1,90,4|0,0:1|0:0,0:0:0:0:
488,192,205159,2,0,P|476:152|436:128,1,90,8|0,0:0|0:0,0:0:0:0:
348,128,205681,2,0,L|168:128,2,180,0|8|0,0:0|0:0|0:0,0:0:0:0:
348,40,206985,5,0,0:0:0:0:
260,40,207246,1,8,0:0:0:0:
172,40,207507,1,0,0:0:0:0:
172,40,207768,2,0,L|108:104,1,90
60,180,208290,2,0,L|124:244,1,90,8|0,0:0|0:0,0:0:0:0:
200,332,208811,5,0,0:0:0:0:
280,248,209072,1,0,0:0:0:0:
360,332,209333,1,8,0:0:0:0:
440,248,209594,1,0,0:0:0:0:
440,248,209855,2,0,P|488:176|432:120,2,180,0|8|0,0:0|0:0|0:0,0:0:0:0:
372,188,211159,1,0,0:0:0:0:
308,124,211420,2,0,P|260:196|316:252,2,180,8|0|8,0:0|0:0|0:0,0:0:0:0:
468,40,212985,6,0,L|468:132,1,90
468,220,213507,2,0,L|376:220,1,90,8|0,0:0|0:0,0:0:0:0:
260,220,214029,1,0,0:0:0:0:
100,48,214550,1,8,0:0:0:0:
0,256,215072,1,0,0:0:0:0:
64,320,215333,5,0,0:0:0:0:
64,320,215594,1,8,0:0:0:0:
64,320,215855,2,0,P|92:348|140:360,1,90
228,360,216376,2,0,P|276:348|304:320,1,90,0|8,0:0|0:0,0:0:0:0:
364,252,216898,1,0,0:0:0:0:
384,164,217159,6,0,P|256:132|124:168,1,270
104,256,218203,2,0,P|256:340|404:256,2,360,0|0|0,0:0|0:0|0:0,0:0:0:0:
148,152,220550,1,8,0:0:0:0:
256,192,220811,1,8,0:0:0:0:
124,204,221333,6,0,P|112:244|72:268,1,90,4|0,0:1|0:0,0:0:0:0:
24,192,221855,2,0,P|36:152|76:128,1,90,8|0,0:0|0:0,0:0:0:0:
164,128,222376,2,0,L|344:128,2,180,0|8|0,0:0|0:0|0:0,0:0:0:0:
164,40,223681,5,0,0:0:0:0:
252,40,223942,1,8,0:0:0:0:
340,40,224203,1,0,0:0:0:0:
340,40,224463,2,0,L|404:104,1,90
452,180,224985,2,0,L|388:244,1,90,8|0,0:0|0:0,0:0:0:0:
312,332,225507,5,0,0:0:0:0:
232,248,225768,1,0,0:0:0:0:
152,332,226029,1,8,0:0:0:0:
72,248,226290,1,0,0:0:0:0:
72,248,226550,2,0,P|24:176|80:120,2,180,0|8|0,0:0|0:0|0:0,0:0:0:0:
140,188,227855,1,0,0:0:0:0:
204,124,228116,2,0,P|252:196|196:252,2,180,8|0|8,0:0|0:0|0:0,0:0:0:0:
36,60,229681,5,0,0:0:0:0:
124,60,229942,1,0,0:0:0:0:
212,60,230203,1,8,0:0:0:0:
300,60,230463,1,0,0:0:0:0:
300,148,230724,2,0,L|480:148,2,180,0|8|0,0:0|0:0|0:0,0:0:0:0:
300,236,232029,5,0,0:0:0:0:
212,236,232290,1,8,0:0:0:0:
124,236,232550,1,0,0:0:0:0:
36,236,232811,2,0,L|36:328,1,90
124,328,233333,2,0,L|216:328,1,90,8|0,0:0|0:0,0:0:0:0:
256,192,233855,12,4,238029,0:1:0:0:
