osu file format v5

[General]
AudioFilename: Khu Kham.mp3
AudioLeadIn: 0
PreviewTime: -1
Countdown: 1
SampleSet: Normal
StackLeniency: 0.7
Mode: 0
LetterboxInBreaks: 1

[Metadata]
Title:Hku Kham
Artist:Perapong & Khamolchanok
Creator:hanamichan
Version:Easy
Source:
Tags:

[Difficulty]
HPDrainRate:5
CircleSize:5
OverallDifficulty:5
SliderMultiplier:1.4
SliderTickRate:1

[Events]
//Background and Video events
0,0,"DSC00004.jpg"
//Break Periods
//Storyboard Layer 0 (Background)
//Storyboard Layer 1 (Failing)
//Storyboard Layer 2 (Passing)
//Storyboard Layer 3 (Foreground)
//Storyboard Sound Samples
//Background Colour Transformations
3,100,163,162,255

[TimingPoints]
0,545.454545454545,4,1,0,100,1,0

[HitObjects]
256,192,1090,12,0,8454
257,191,19636,5,0
259,151,19909,1,0
304,254,20999,5,0
329,206,21272,1,0
333,153,21545,1,0
325,102,22090,1,0
283,80,22636,1,0
236,67,22909,1,0
192,64,23181,1,0
104,112,24818,5,0
103,181,25090,1,0
102,248,26454,1,0
199,274,26999,5,0
241,274,27272,1,0
284,275,27545,1,0
323,275,28090,1,0
451,223,29181,1,0
449,159,29727,1,0
369,92,30818,1,0
318,91,31363,1,0
98,93,33545,5,0
149,131,34090,1,0
98,178,34363,1,0
206,187,35727,1,0
270,186,35999,1,0
318,128,37090,1,0
358,191,37909,1,0
416,254,40090,5,0
354,254,40363,1,0
293,256,40909,1,0
215,257,41999,1,0
153,256,42818,1,0
102,216,43636,1,0
60,162,44181,1,0
205,191,47181,5,0
269,191,47999,1,0
335,190,48818,1,0
365,121,49363,1,0
299,121,49636,1,0
237,121,50181,1,0
171,139,50454,1,0
171,139,50999,1,0
171,140,51545,1,0
172,224,51818,1,0
172,224,52363,1,0
199,282,55636,5,0
221,256,56181,1,0
196,224,56454,1,0
223,197,56999,1,0
226,131,58090,1,0
226,131,58636,1,0
315,131,59454,1,0
316,130,59999,1,0
314,133,60272,1,0
338,231,62454,5,0
281,232,62727,1,0
226,230,63272,1,0
171,231,64363,1,0
119,231,64909,1,0
119,182,65999,1,0
119,132,66818,1,0
171,91,68727,5,0
171,137,68999,1,0
172,189,69545,1,0
172,257,70636,1,0
210,259,71181,1,0
257,256,71454,1,0
256,192,77181,12,0,83454
236,197,84272,5,0
302,192,84818,1,0
294,140,85090,1,0
293,265,85363,1,0
205,256,85636,1,0
187,179,86454,1,0
257,177,86999,1,0
339,160,87272,1,0
266,119,88090,1,0
331,111,88909,1,0
308,177,89727,1,0
232,176,90545,1,0
231,246,91636,1,0
283,246,92181,1,0
167,140,93545,5,0
354,202,93818,1,0
401,167,94363,1,0
341,141,94636,1,0
391,107,95181,1,0
342,74,95454,1,0
369,152,97909,1,0
307,151,98181,1,0
244,153,98727,1,0
179,153,99818,1,0
181,189,100363,1,0
195,286,101727,1,0
259,284,102545,1,0
328,284,103363,1,0
364,206,104999,1,0
286,134,105818,5,0
286,134,106636,1,0
142,171,107181,1,0
142,171,107454,1,0
191,196,107999,1,0
141,227,108272,1,0
191,255,108818,1,0
142,283,109090,1,0
142,284,109636,1,0
156,341,110181,1,0
317,288,113454,5,0
317,287,113999,1,0
345,330,114545,1,0
375,284,114818,1,0
400,328,115636,1,0
431,284,116181,1,0
430,281,117545,1,0
431,283,117818,1,0
246,169,120272,5,0
291,204,120818,1,0
338,170,121090,1,0
168,126,122181,1,0
140,174,122727,1,0
224,179,123545,1,0
224,179,123818,1,0
224,179,124636,1,0
172,246,126272,1,0
241,245,127090,1,0
272,244,127363,1,0
278,314,127909,1,0
321,314,128454,1,0
411,238,129545,1,0
399,153,130636,1,0
398,94,131454,1,0
333,94,132272,1,0
