osu file format v10

[General]
AudioFilename: 06-We want to be Free-Peran.mp3
AudioLeadIn: 0
PreviewTime: 41202
Countdown: 0
SampleSet: Normal
StackLeniency: 0.7
Mode: 0
LetterboxInBreaks: 0

[Editor]
DistanceSpacing: 1
BeatDivisor: 4
GridSize: 4

[Metadata]
Title:We want to be free
TitleUnicode:We want to be free
Artist:Peran
ArtistUnicode:Peran
Creator:MoodyRPG
Version:Normal
Source:
Tags:tony tonoicutzu Revengexsoyah taiko
BeatmapID:136474
BeatmapSetID:43498

[Difficulty]
HPDrainRate:4
CircleSize:3
OverallDifficulty:4
ApproachRate:5
SliderMultiplier:1.2
SliderTickRate:2

[Events]
//Background and Video events
0,0,"Hey_DJ_by_ximena8.jpg"
//Break Periods
2,82564,94885
//Storyboard Layer 0 (Background)
//Storyboard Layer 1 (Fail)
//Storyboard Layer 2 (Pass)
//Storyboard Layer 3 (Foreground)
//Storyboard Sound Samples
//Background Colour Transformations
3,100,163,162,255

[TimingPoints]
40,428.773564680492,4,1,0,70,1,0
13760,-100,4,2,0,70,0,0
41202,-100,4,1,0,70,0,0
96085,-100,4,2,0,70,0,0
123526,-100,4,1,0,70,0,0
157828,-100,4,2,0,90,0,0

[Colours]
Combo1 : 0,255,128
Combo2 : 128,128,64
Combo3 : 0,128,192
Combo4 : 128,64,64

[HitObjects]
99,225,13760,6,0,B|116:285|191:323,1,120,4|2,0:0|0:0,0:0:0
256,225,14618,1,0,0:0:0
355,157,15047,1,2,0:0:0
356,36,15475,2,0,B|439:14|521:98|497:192,2,240,0|0|4,0:0|0:0|0:0,0:0:0
266,116,17619,6,0,B|300:176|262:241,1,120,2|0,0:0|0:0,0:0:0
161,174,18477,2,0,B|129:230|162:298,1,120,2|0,0:0|0:0,0:0:0
265,342,19334,2,0,B|319:303|393:312,2,120,2|0|2,0:0|0:0|0:0,0:0:0
265,221,20621,6,0,B|401:221|467:76,1,240,4|0,0:0|0:0,0:0:0
338,71,21907,1,2,0:0:0
218,76,22336,2,0,B|153:67|85:65,1,120,4|2,0:0|0:0,0:0:0
94,185,23193,2,0,B|148:186|213:195,1,120,4|2,0:0|0:0,0:0:0
300,279,24051,6,0,B|243:261|184:299,1,120,4|2,0:0|0:0,0:0:0
72,337,24908,1,4,0:0:0
16,230,25337,1,2,0:0:0
256,192,25766,12,4,27481,0:0:0
180,210,28339,6,0,B|181:269|164:336,2,120,0|2|0,0:0|0:0|0:0,0:0:0
255,116,29625,1,2,0:0:0
327,210,30054,2,0,B|326:269|343:336,2,120,0|2|4,0:0|0:0|0:0,0:0:0
425,140,31340,5,2,0:0:0
328,68,31769,2,0,B|363:16,2,60,0|0|2,0:0|0:0|0:0,0:0:0
209,87,32626,2,0,B|124:50|24:110|24:206,1,240
85,289,33913,1,2,0:0:0
205,290,34341,6,0,B|261:327|327:327,2,120,4|2|0,0:0|0:0|0:0,0:0:0
265,186,35628,1,2,0:0:0
379,151,36056,6,0,B|433:108|449:31,2,120,4|2|0,0:0|0:0|0:0,0:0:0
459,240,37343,1,2,0:0:0
373,324,37772,6,0,B|280:272|136:272,1,240,4|4,0:0|0:0,0:0:0
52,190,39058,1,2,0:0:0
256,192,39487,12,4,41202,0:0:0
256,236,41631,5,8,0:0:0
164,141,42059,1,0,0:0:0
257,66,42488,1,8,0:0:0
343,143,42917,1,0,0:0:0
343,143,43346,2,0,B|394:188|459:188,2,120,8|0|8,0:0|0:0|0:0,0:0:0
223,157,44632,6,0,B|191:209|118:205,2,120,0|8|0,0:0|0:0|0:0,0:0:0
259,271,45918,1,8,0:0:0
165,346,46347,2,0,B|92:350|52:286,2,120,0|8|0,0:0|0:0|0:0,0:0:0
259,271,47633,1,8,0:0:0
196,168,48062,6,0,B|151:81|43:81,2,180,0|0|8,0:0|0:0|0:0,0:0:0
316,168,49777,2,0,B|361:81|469:81,2,180,0|0|8,0:0|0:0|0:0,0:0:0
434,188,51492,6,0,B|412:311,1,120,0|8,0:0|0:0,0:0:0
308,245,52350,2,0,B|282:362,1,120,0|8,0:0|0:0,0:0:0
186,293,53207,1,0,0:0:0
70,324,53636,2,0,B|60:261|106:204,1,120,8|0,0:0|0:0,0:0:0
182,131,54494,1,8,0:0:0
182,131,54923,6,0,B|124:83|124:21,2,120,4|8|0,0:0|0:0|0:0,0:0:0
256,36,56209,1,8,0:0:0
330,131,56638,2,0,B|388:83|388:21,2,120,0|8|0,0:0|0:0|0:0,0:0:0
256,226,57924,1,8,0:0:0
153,289,58353,6,0,B|95:309,2,60,0|0|8,0:0|0:0|0:0,0:0:0
254,344,59210,2,0,B|234:285|285:285|249:212,1,120,0|8,0:0|0:0,0:0:0
356,161,60068,2,0,B|419:185,2,60,0|0|8,0:0|0:0|0:0,0:0:0
255,227,60925,2,0,B|285:170|234:170|254:111,1,120,0|8,0:0|0:0,0:0:0
143,63,61783,6,0,B|93:178|151:296,1,240
257,350,63069,1,8,0:0:0
364,297,63498,2,0,B|422:181|372:66,1,240
255,96,64784,1,8,0:0:0
141,57,65213,6,0,B|19:57,1,120,0|8,0:0|0:0,0:0:0
24,176,66071,2,0,B|38:239|84:294,1,120,0|8,0:0|0:0,0:0:0
168,206,66928,1,0,0:0:0
195,322,67357,2,0,B|255:357|319:318,1,120,8|0,0:0|0:0,0:0:0
424,289,68214,1,8,0:0:0
405,170,68643,6,0,B|437:113|396:52,2,120,4|8|0,0:0|0:0|0:0,0:0:0
285,152,69930,1,8,0:0:0
341,257,70358,2,0,B|317:312|246:348,1,120,0|8,0:0|0:0,0:0:0
219,227,71216,1,0,0:0:0
124,301,71645,1,8,0:0:0
124,301,72073,6,0,B|61:301|5:267,2,120,0|8|0,0:0|0:0|0:0,0:0:0
171,190,73360,1,8,0:0:0
134,75,73789,2,0,B|71:75|15:109,2,120,0|8|0,0:0|0:0|0:0,0:0:0
171,190,75075,1,8,0:0:0
273,127,75504,6,0,B|317:74,2,60,0|0|8,0:0|0:0|0:0,0:0:0
379,183,76361,2,0,B|352:240|290:265,1,120,0|8,0:0|0:0,0:0:0
205,345,77219,2,0,B|151:303|134:240,1,120,0|8,0:0|0:0,0:0:0
84,140,78076,2,0,B|38:187,2,60,0|0|8,0:0|0:0|0:0,0:0:0
256,192,78934,12,4,82364,0:0:0
203,52,96085,6,0,B|256:89|315:52,2,120,4|2|0,0:0|0:0|0:0,0:0:0
126,144,97371,1,2,0:0:0
71,251,97800,2,0,B|202:301|289:178,1,240,0|0,0:0|0:0,0:0:0
314,72,99086,1,2,0:0:0
429,38,99515,6,0,B|496:58|515:131,2,120,0|2|0,0:0|0:0|0:0,0:0:0
314,72,100801,1,2,0:0:0
298,191,101230,2,0,B|298:222|275:233|240:233|217:222|217:188,1,120,0|2,0:0|0:0,0:0:0
211,72,102088,1,0,0:0:0
96,38,102516,1,2,0:0:0
96,38,102945,6,0,B|29:58|10:131,2,120,0|2|0,0:0|0:0|0:0,0:0:0
171,131,104231,1,2,0:0:0
208,245,104660,1,0,0:0:0
325,222,105089,2,0,B|376:187|448:201,2,120,2|0|2,0:0|0:0|0:0,0:0:0
256,192,106375,12,0,108090,0:0:0
198,274,109806,6,0,B|256:306|320:273,1,120,4|2,0:0|0:0,0:0:0
256,170,110663,1,0,0:0:0
178,78,111092,1,2,0:0:0
61,107,111521,2,0,B|22:160|22:228,1,120,0|2,0:0|0:0,0:0:0
70,328,112378,1,0,0:0:0
188,348,112807,1,2,0:0:0
303,316,113236,6,0,B|359:286|379:227,1,120,0|2,0:0|0:0,0:0:0
444,126,114093,1,0,0:0:0
341,63,114522,1,2,0:0:0
226,98,114951,2,0,B|242:161|220:224,1,120,0|2,0:0|0:0,0:0:0
121,150,115808,2,0,B|101:211|123:273,1,120,0|2,0:0|0:0,0:0:0
231,316,116666,6,0,B|353:339|462:240,1,240
398,140,117952,1,2,0:0:0
302,67,118381,2,0,B|242:102|176:85,1,120,0|2,0:0|0:0,0:0:0
115,184,119239,1,0,0:0:0
108,303,119667,1,2,0:0:0
256,192,120096,12,0,121811,0:0:0
52,334,123526,6,0,B|109:308|109:352|179:322,1,120,4|8,0:0|0:0,0:0:0
199,209,124384,2,0,B|256:179|256:223|316:191,1,120,0|8,0:0|0:0,0:0:0
407,267,125241,2,0,B|447:215|447:150|404:80,2,180,0|0|8,0:0|0:0|0:0,0:0:0
308,335,126956,5,0,0:0:0
204,273,127385,1,8,0:0:0
137,173,127814,2,0,B|71:173|10:120,1,120,0|8,0:0|0:0,0:0:0
131,75,128672,2,8,B|183:44|183:87|251:55,2,120,0|8|0,0:0|0:0|0:0,0:0:0
25,132,129958,1,8,0:0:0
49,249,130387,6,0,B|71:311|139:344,1,120,0|8,0:0|0:0,0:0:0
203,245,131244,1,0,0:0:0
304,309,131673,1,8,0:0:0
386,222,132102,2,0,B|433:167,2,60,0|0|8,0:0|0:0|0:0,0:0:0
305,132,132959,1,0,0:0:0
241,29,133388,1,8,0:0:0
141,95,133817,6,0,B|108:154|47:183,1,120,0|8,0:0|0:0,0:0:0
28,294,134674,1,0,0:0:0
135,348,135103,1,8,0:0:0
198,246,135532,6,0,B|256:279|325:238,1,120,0|8,0:0|0:0,0:0:0
427,209,136389,2,0,B|469:261,2,60,0|0|8,0:0|0:0|0:0,0:0:0
319,154,137247,2,0,B|380:80|491:80,2,180,4|0|8,0:0|0:0|0:0,0:0:0
198,154,138962,2,0,B|137:80|26:80,2,180,0|0|8,0:0|0:0|0:0,0:0:0
195,274,140677,6,0,B|94:274|30:359,2,180,0|0|8,0:0|0:0|0:0,0:0:0
315,275,142392,2,0,B|416:275|480:360,2,180,0|0|8,0:0|0:0|0:0,0:0:0
382,175,144107,6,0,B|341:128|274:99,1,120,0|8,0:0|0:0,0:0:0
174,150,144965,2,0,B|123:185|53:201,1,120,0|8,0:0|0:0,0:0:0
73,318,145823,2,0,B|21:361,2,60,0|0|8,0:0|0:0|0:0,0:0:0
170,247,146680,1,0,0:0:0
257,329,147109,1,8,0:0:0
256,192,147538,12,4,150968,0:0:0
245,211,151825,6,0,B|285:277|359:277,1,120,0|8,0:0|0:0,0:0:0
460,273,152683,1,0,0:0:0
386,178,153112,1,8,0:0:0
462,85,153540,2,0,B|419:38|337:31,1,120,0|8,0:0|0:0,0:0:0
265,112,154398,5,0,0:0:0
152,81,154827,2,0,B|91:116|69:174,1,120,8|0,0:0|0:0,0:0:0
158,250,155684,1,8,0:0:0
256,318,156113,2,0,B|314:286|383:278,1,120,0|8,0:0|0:0,0:0:0
451,192,156971,1,0,0:0:0
343,138,157399,1,8,0:0:0
341,18,157828,6,0,B|254:60|165:18,2,180,0|0|2,0:0|0:0|0:0,0:0:0
319,136,159543,1,0,0:0:0
198,135,159972,1,2,0:0:0
263,235,160401,2,0,B|233:300|282:300|249:361,1,120,2|2,0:0|0:0,0:0:0
161,274,161258,6,0,B|99:266|46:216,1,120,0|2,0:0|0:0,0:0:0
149,150,162116,2,0,B|180:94|151:34,1,120,0|2,0:0|0:0,0:0:0
256,192,162973,12,4,164689,0:0:0
