osu file format v14

[General]
AudioFilename: MachinimaSound.com_-_Queen_of_the_Night.mp3
AudioLeadIn: 0
PreviewTime: -1
Countdown: 1
SampleSet: Soft
StackLeniency: 0.7
Mode: 0
LetterboxInBreaks: 1
WidescreenStoryboard: 1

[Editor]
DistanceSpacing: 1.4
BeatDivisor: 8
GridSize: 4
TimelineZoom: 2.899999

[Metadata]
Title:Queen of the Night
TitleUnicode:Queen of the Night
Artist:Per Kiilstofte
ArtistUnicode:Per Kiilstofte
Creator:0xz100
Version:Insane
Source:
Tags:machinimasound.com/music/queen-of-the-night
BeatmapID:650573
BeatmapSetID:288471

[Difficulty]
HPDrainRate:4
CircleSize:5
OverallDifficulty:6
ApproachRate:9
SliderMultiplier:2.8
SliderTickRate:2

[Events]
//Background and Video events
0,0,"bg0.2.jpg",0,0
//Break Periods
2,87086,95424
//Storyboard Layer 0 (Background)
//Storyboard Layer 1 (Fail)
//Storyboard Layer 2 (Pass)
//Storyboard Layer 3 (Foreground)
//Storyboard Sound Samples

[TimingPoints]
24,545.454545454546,4,2,0,30,1,0

[Colours]
Combo1 : 185,0,92
Combo2 : 255,255,6
Combo3 : 2,170,219
Combo4 : 253,158,17

[HitObjects]
160,248,24,5,0,0:0:0:0:
292,104,296,1,0,0:0:0:0:
220,288,569,1,0,0:0:0:0:
352,144,842,1,0,0:0:0:0:
96,300,1387,5,0,0:0:0:0:
216,144,1660,1,0,0:0:0:0:
180,336,1933,1,0,0:0:0:0:
268,336,2069,1,0,0:0:0:0:
356,296,2205,1,0,0:0:0:0:
412,108,2478,1,0,0:0:0:0:
236,24,2751,1,0,0:0:0:0:
48,84,3024,1,0,0:0:0:0:
24,280,3296,1,0,0:0:0:0:
204,356,3569,1,0,0:0:0:0:
400,340,3842,1,0,0:0:0:0:
480,160,4114,1,0,0:0:0:0:
332,32,4387,5,0,0:0:0:0:
136,28,4660,1,0,0:0:0:0:
28,192,4933,1,0,0:0:0:0:
160,336,5205,2,0,B|196:368|264:360|312:348,1,140
372,336,6024,5,0,0:0:0:0:
276,320,6160,1,0,0:0:0:0:
192,272,6296,1,0,0:0:0:0:
152,180,6433,1,0,0:0:0:0:
180,84,6569,1,0,0:0:0:0:
316,32,6774,1,0,0:0:0:0:
468,152,7046,1,0,0:0:0:0:
320,348,7387,1,0,0:0:0:0:
144,260,7660,5,0,0:0:0:0:
88,72,7933,1,0,0:0:0:0:
176,28,8069,1,0,0:0:0:0:
272,40,8205,1,0,0:0:0:0:
404,184,8478,1,0,0:0:0:0:
224,108,8751,1,0,0:0:0:0:
356,252,9024,1,0,0:0:0:0:
176,172,9296,1,0,0:0:0:0:
308,316,9569,1,0,0:0:0:0:
108,288,10387,5,0,0:0:0:0:
124,264,10524,1,0,0:0:0:0:
148,252,10660,1,0,0:0:0:0:
176,260,10796,1,0,0:0:0:0:
196,280,10933,1,0,0:0:0:0:
224,288,11069,1,0,0:0:0:0:
248,272,11205,1,0,0:0:0:0:
324,196,11478,2,0,B|328:176|296:136|252:124|232:120,1,105
116,92,12024,5,0,0:0:0:0:
144,100,12160,1,0,0:0:0:0:
172,108,12296,1,0,0:0:0:0:
228,128,12569,1,0,0:0:0:0:
280,100,12842,1,0,0:0:0:0:
280,160,13114,1,0,0:0:0:0:
156,288,13387,1,0,0:0:0:0:
308,188,13660,1,0,0:0:0:0:
436,64,13933,2,0,B|448:140|408:192|384:200,1,140
84,316,14751,5,0,0:0:0:0:
232,236,15024,1,0,0:0:0:0:
308,204,15160,1,0,0:0:0:0:
384,168,15296,2,0,B|408:156|444:136|440:88|388:88,1,105
200,100,15842,1,0,0:0:0:0:
368,116,16114,1,0,0:0:0:0:
208,164,16387,1,0,0:0:0:0:
376,180,16660,1,0,0:0:0:0:
296,208,16796,1,0,0:0:0:0:
212,224,16933,1,0,0:0:0:0:
132,200,17069,1,0,0:0:0:0:
92,128,17205,1,0,0:0:0:0:
152,72,17342,1,0,0:0:0:0:
236,80,17478,5,0,0:0:0:0:
396,128,17751,1,0,0:0:0:0:
264,24,18024,1,0,0:0:0:0:
424,72,18296,1,0,0:0:0:0:
112,292,18842,5,0,0:0:0:0:
300,84,19114,1,0,0:0:0:0:
164,328,19387,1,0,0:0:0:0:
272,236,19524,1,0,0:0:0:0:
356,124,19660,5,0,0:0:0:0:
84,64,19933,1,0,0:0:0:0:
236,296,20205,1,0,0:0:0:0:
140,32,20478,1,0,0:0:0:0:
296,264,20751,1,0,0:0:0:0:
88,72,21024,1,0,0:0:0:0:
332,208,21296,1,0,0:0:0:0:
80,328,21569,1,0,0:0:0:0:
352,268,21842,5,0,0:0:0:0:
152,72,22114,1,0,0:0:0:0:
396,212,22387,1,0,0:0:0:0:
128,136,22660,2,0,B|108:132|64:152|92:264,1,140
184,188,23478,5,0,0:0:0:0:
232,156,23614,1,0,0:0:0:0:
280,188,23751,1,0,0:0:0:0:
256,240,23887,1,0,0:0:0:0:
200,240,24024,1,0,0:0:0:0:
132,152,24296,1,0,0:0:0:0:
232,100,24569,1,0,0:0:0:0:
328,156,24842,1,0,0:0:0:0:
312,268,25114,1,0,0:0:0:0:
204,292,25387,1,0,0:0:0:0:
156,260,25524,1,0,0:0:0:0:
164,204,25660,1,0,0:0:0:0:
256,140,25933,1,0,0:0:0:0:
360,100,26205,5,0,0:0:0:0:
252,64,26478,1,0,0:0:0:0:
144,100,26751,1,0,0:0:0:0:
108,208,27024,2,0,B|116:244|176:256|244:204,1,140
456,52,27842,5,0,0:0:0:0:
412,88,27978,1,0,0:0:0:0:
356,84,28114,1,0,0:0:0:0:
308,56,28251,1,0,0:0:0:0:
256,40,28387,1,0,0:0:0:0:
200,40,28524,1,0,0:0:0:0:
152,68,28660,1,0,0:0:0:0:
88,160,28933,2,0,P|80:196|104:232,1,70
204,352,29478,5,0,0:0:0:0:
260,352,29614,1,0,0:0:0:0:
304,316,29751,1,0,0:0:0:0:
332,208,30024,1,0,0:0:0:0:
244,140,30296,1,0,0:0:0:0:
136,168,30569,5,0,0:0:0:0:
180,268,30842,1,0,0:0:0:0:
296,216,31114,1,0,0:0:0:0:
324,80,31387,2,0,B|328:48|244:24|208:56|248:112,1,140
404,280,32205,5,0,0:0:0:0:
212,316,32478,1,0,0:0:0:0:
168,228,32614,1,0,0:0:0:0:
224,148,32751,2,0,P|304:136|324:172,1,105
400,336,33296,2,0,B|396:352|360:344|312:320,1,70
260,296,33569,2,0,B|244:284|204:276|196:248,1,70
160,184,33842,1,0,0:0:0:0:
196,20,34114,1,0,0:0:0:0:
280,20,34251,1,0,0:0:0:0:
356,56,34387,1,0,0:0:0:0:
388,132,34524,1,0,0:0:0:0:
336,196,34660,1,0,0:0:0:0:
252,188,34796,1,0,0:0:0:0:
172,160,34933,5,0,0:0:0:0:
32,72,35205,1,0,0:0:0:0:
196,100,35478,1,0,0:0:0:0:
52,12,35751,1,0,0:0:0:0:
308,196,36296,5,0,0:0:0:0:
184,128,36569,1,0,0:0:0:0:
248,252,36842,1,0,0:0:0:0:
332,256,36978,1,0,0:0:0:0:
376,168,37114,1,0,0:0:0:0:
176,68,37387,1,0,0:0:0:0:
152,320,37660,1,0,0:0:0:0:
248,56,37933,1,0,0:0:0:0:
336,320,38205,5,0,0:0:0:0:
460,68,38478,1,0,0:0:0:0:
196,32,38751,1,0,0:0:0:0:
56,240,39024,1,0,0:0:0:0:
284,348,39296,1,0,0:0:0:0:
444,152,39569,1,0,0:0:0:0:
200,84,39842,1,0,0:0:0:0:
160,304,40114,2,0,P|248:268|248:216,1,140
156,80,40933,5,0,0:0:0:0:
260,116,41069,1,0,0:0:0:0:
372,100,41205,1,0,0:0:0:0:
448,180,41342,1,0,0:0:0:0:
384,272,41478,1,0,0:0:0:0:
160,248,41751,1,0,0:0:0:0:
52,52,42024,1,0,0:0:0:0:
276,40,42296,1,0,0:0:0:0:
404,224,42569,1,0,0:0:0:0:
212,340,42842,1,0,0:0:0:0:
116,284,42978,1,0,0:0:0:0:
92,176,43114,1,0,0:0:0:0:
276,48,43387,1,0,0:0:0:0:
396,300,43660,5,0,0:0:0:0:
116,324,43933,1,0,0:0:0:0:
220,64,44205,1,0,0:0:0:0:
356,308,44478,2,0,B|312:348|280:320|232:352|156:332|232:224,1,245
408,68,45296,5,0,0:0:0:0:
296,64,45433,1,0,0:0:0:0:
184,60,45569,1,0,0:0:0:0:
96,128,45705,1,0,0:0:0:0:
80,240,45842,1,0,0:0:0:0:
168,312,45978,1,0,0:0:0:0:
280,300,46114,1,0,0:0:0:0:
404,112,46387,2,0,B|416:68|340:84|304:132,1,105
112,296,46933,5,0,0:0:0:0:
192,208,47069,1,0,0:0:0:0:
248,312,47205,1,0,0:0:0:0:
344,92,47478,1,0,0:0:0:0:
300,324,47751,1,0,0:0:0:0:
252,192,48024,5,0,0:0:0:0:
132,120,48296,1,0,0:0:0:0:
272,136,48569,1,0,0:0:0:0:
136,172,48842,2,0,B|112:188|104:224|104:224|144:248|204:220,1,140
364,120,49660,5,0,0:0:0:0:
288,300,49933,1,0,0:0:0:0:
124,208,50205,1,0,0:0:0:0:
132,112,50342,1,0,0:0:0:0:
220,84,50478,1,0,0:0:0:0:
388,184,50751,5,0,0:0:0:0:
292,316,51024,1,0,0:0:0:0:
148,220,51296,1,0,0:0:0:0:
252,80,51569,1,0,0:0:0:0:
344,100,51705,1,0,0:0:0:0:
400,180,51842,1,0,0:0:0:0:
360,268,51978,1,0,0:0:0:0:
276,316,52114,1,0,0:0:0:0:
180,292,52251,1,0,0:0:0:0:
112,224,52387,6,0,B|80:196|68:128|88:108|128:92,1,140
188,72,52796,1,0,0:0:0:0:
272,68,52933,1,0,0:0:0:0:
428,156,53205,2,0,B|444:192|448:260|440:272|412:292,1,140
328,328,53614,1,0,0:0:0:0:
232,340,53751,2,0,B|168:348|108:320|112:268,1,140
92,92,54296,6,0,B|96:64|144:80|176:112,1,70
236,144,54569,2,0,B|268:160|300:164|344:128|352:84|392:80|416:104|392:172,1,210
368,236,55114,2,0,B|364:256|344:280|280:308|260:308|224:304,1,140
56,304,55660,5,0,0:0:0:0:
56,304,55796,1,0,0:0:0:0:
56,304,55933,2,0,B|44:300|36:236|56:192|92:180|116:180,1,140
284,156,56478,1,0,0:0:0:0:
480,168,56751,6,0,B|496:172|508:180|508:180|488:220|432:256,1,140
340,296,57160,1,0,0:0:0:0:
340,296,57296,1,0,0:0:0:0:
144,308,57569,1,0,0:0:0:0:
144,308,57705,2,0,B|120:312|104:296|104:296|112:248|160:204,1,140
216,140,58114,1,0,0:0:0:0:
216,140,58251,1,0,0:0:0:0:
352,100,58660,5,0,0:0:0:0:
352,100,58796,1,0,0:0:0:0:
296,180,58933,1,0,0:0:0:0:
296,180,59069,1,0,0:0:0:0:
204,208,59205,1,0,0:0:0:0:
204,208,59342,1,0,0:0:0:0:
108,108,60024,6,0,B|76:116|72:160|72:160|88:200|128:216,1,140
308,260,60569,1,0,0:0:0:0:
176,116,60842,1,0,0:0:0:0:
72,284,61114,6,0,B|76:324|96:352|96:352|144:344|180:308,1,140
236,264,61524,1,0,0:0:0:0:
312,204,61660,1,0,0:0:0:0:
464,80,61933,2,0,B|480:48|468:20|468:20|408:20|368:44,1,140
208,104,62478,1,0,0:0:0:0:
100,268,62751,1,0,0:0:0:0:
264,160,63024,6,0,B|280:152|280:132|296:112|312:112,1,70
408,100,63296,2,0,B|428:100|444:104|452:128|432:152,1,70
364,212,63569,1,0,0:0:0:0:
364,212,63705,1,0,0:0:0:0:
364,212,63842,1,0,0:0:0:0:
192,300,64114,6,0,B|176:312|152:316|152:316|128:304|112:288,1,70
60,252,64387,2,0,B|44:240|36:224|36:224|44:196|68:184,1,70
120,148,64660,1,0,0:0:0:0:
280,96,64933,1,0,0:0:0:0:
152,204,65205,1,0,0:0:0:0:
336,136,65478,6,0,B|368:120|388:124|388:124|400:168|364:216,1,140
316,268,65887,1,0,0:0:0:0:
232,284,66024,1,0,0:0:0:0:
68,244,66296,2,0,B|48:228|40:204|40:204|64:160|108:144,1,140
276,84,66842,2,0,P|312:76|360:88,1,70
416,120,67114,1,0,0:0:0:0:
468,308,67387,5,0,0:0:0:0:
304,208,67660,1,0,0:0:0:0:
116,148,67933,1,0,0:0:0:0:
276,260,68205,1,0,0:0:0:0:
88,200,68478,1,0,0:0:0:0:
248,312,68751,1,0,0:0:0:0:
248,312,68887,1,0,0:0:0:0:
248,312,69024,1,0,0:0:0:0:
60,252,69296,1,0,0:0:0:0:
224,364,69569,1,0,0:0:0:0:
420,360,69842,6,0,B|456:356|476:340|476:340|476:312|440:284|420:268,1,140
104,64,70660,2,0,B|76:40|40:36|40:36|32:80|40:120|64:176,1,210
96,232,71205,6,0,B|104:248|120:264|120:264|144:280|172:288,1,70
212,296,71478,1,0,0:0:0:0:
348,332,71751,2,0,B|368:340|388:340|388:340|408:324|420:300,1,70
448,264,72024,2,0,B|472:240|480:208|480:208|472:168|460:144|428:108|368:100,1,210
140,140,72842,2,0,B|128:152|116:172|116:192|136:208,1,70
180,268,73114,2,0,B|196:284|216:292|216:292|240:284|260:268,1,70
308,232,73387,1,0,0:0:0:0:
408,96,73660,1,0,0:0:0:0:
264,184,73933,1,0,0:0:0:0:
108,240,74205,5,0,0:0:0:0:
108,240,74342,1,0,0:0:0:0:
108,240,74478,1,0,0:0:0:0:
284,324,74751,1,0,0:0:0:0:
476,280,75024,2,0,B|488:268|448:216|372:204,1,140
176,192,75569,2,0,B|100:212|148:128|72:144,2,105
272,176,76114,5,0,0:0:0:0:
464,208,76387,1,0,0:0:0:0:
296,108,76660,1,0,0:0:0:0:
420,260,76933,1,0,0:0:0:0:
356,76,77205,1,0,0:0:0:0:
352,272,77478,1,0,0:0:0:0:
424,92,77751,1,0,0:0:0:0:
292,236,78024,1,0,0:0:0:0:
468,148,78296,1,0,0:0:0:0:
284,84,78569,2,0,P|304:156|320:180,1,105
488,352,79114,5,0,0:0:0:0:
296,308,79387,1,0,0:0:0:0:
100,324,79660,1,0,0:0:0:0:
280,252,79933,1,0,0:0:0:0:
84,264,80205,1,0,0:0:0:0:
268,192,80478,1,0,0:0:0:0:
72,204,80751,2,0,P|28:156|100:112,1,140
136,88,81160,1,0,0:0:0:0:
204,88,81296,2,0,P|240:112|236:156,1,70
220,200,81569,1,0,0:0:0:0:
104,280,81842,2,0,B|80:292|40:280|40:280|40:240|68:204,1,140
160,108,82387,1,0,0:0:0:0:
292,64,82660,1,0,0:0:0:0:
192,160,82933,5,0,0:0:0:0:
328,124,83205,1,0,0:0:0:0:
276,168,83342,1,0,0:0:0:0:
224,212,83478,1,0,0:0:0:0:
132,316,83751,2,0,B|116:344|128:364|128:364|176:356|236:308,1,140
324,248,84296,1,0,0:0:0:0:
420,148,84569,1,0,0:0:0:0:
320,52,84842,5,0,0:0:0:0:
180,32,85114,2,0,B|167:32|136:20|112:36|104:56,1,70
64,92,85387,2,0,B|44:124|52:140|96:152|136:176,1,105
380,332,86205,2,0,B|296:412|256:112|152:400|76:208,1,350
172,272,96024,5,0,0:0:0:0:
376,128,96296,1,0,0:0:0:0:
376,128,96433,1,0,0:0:0:0:
376,128,96569,1,0,0:0:0:0:
132,196,96842,1,0,0:0:0:0:
376,256,97114,1,0,0:0:0:0:
168,116,97387,1,0,0:0:0:0:
312,324,97660,1,0,0:0:0:0:
336,72,97933,1,0,0:0:0:0:
220,296,98205,1,0,0:0:0:0:
248,44,98478,5,0,0:0:0:0:
160,84,98614,1,0,0:0:0:0:
116,172,98751,1,0,0:0:0:0:
200,352,99024,1,0,0:0:0:0:
44,236,99296,1,0,0:0:0:0:
240,216,99569,1,0,0:0:0:0:
108,72,99842,2,0,P|152:48|180:64,1,70
256,92,100114,1,0,0:0:0:0:
356,280,100387,6,0,B|348:296|324:304|288:276,1,70
204,244,100660,1,0,0:0:0:0:
128,180,100796,1,0,0:0:0:0:
96,88,100933,1,0,0:0:0:0:
288,48,101205,1,0,0:0:0:0:
472,112,101478,1,0,0:0:0:0:
276,108,101751,1,0,0:0:0:0:
460,172,102024,1,0,0:0:0:0:
264,168,102296,1,0,0:0:0:0:
448,232,102569,1,0,0:0:0:0:
252,228,102842,5,0,0:0:0:0:
252,228,102978,1,0,0:0:0:0:
252,228,103114,1,0,0:0:0:0:
72,308,103387,1,0,0:0:0:0:
264,356,103660,1,0,0:0:0:0:
444,280,103933,1,0,0:0:0:0:
408,88,104205,1,0,0:0:0:0:
220,36,104478,1,0,0:0:0:0:
68,152,104751,2,0,P|48:200|68:232,1,70
116,300,105024,5,0,0:0:0:0:
208,336,105160,1,0,0:0:0:0:
304,320,105296,1,0,0:0:0:0:
460,200,105569,1,0,0:0:0:0:
276,132,105842,1,0,0:0:0:0:
108,236,106114,1,0,0:0:0:0:
232,84,106387,1,0,0:0:0:0:
424,52,106660,1,0,0:0:0:0:
456,244,106933,1,0,0:0:0:0:
264,288,107205,1,0,0:0:0:0:
168,308,107342,1,0,0:0:0:0:
76,272,107478,1,0,0:0:0:0:
84,148,107751,1,0,0:0:0:0:
244,36,108024,1,0,0:0:0:0:
428,100,108296,1,0,0:0:0:0:
376,288,108569,2,0,B|360:320|316:312|288:292,1,70
228,256,108842,1,0,0:0:0:0:
56,176,109114,5,0,0:0:0:0:
188,320,109387,1,0,0:0:0:0:
276,280,109524,1,0,0:0:0:0:
364,236,109660,1,0,0:0:0:0:
168,248,109933,1,0,0:0:0:0:
348,172,110205,1,0,0:0:0:0:
152,176,110478,1,0,0:0:0:0:
336,104,110751,1,0,0:0:0:0:
140,112,111024,1,0,0:0:0:0:
324,44,111296,1,0,0:0:0:0:
128,52,111569,5,0,0:0:0:0:
128,52,111705,1,0,0:0:0:0:
128,52,111842,1,0,0:0:0:0:
292,160,112114,1,0,0:0:0:0:
232,348,112387,1,0,0:0:0:0:
60,256,112660,1,0,0:0:0:0:
100,68,112933,1,0,0:0:0:0:
292,44,113205,1,0,0:0:0:0:
216,224,113478,6,0,L|260:172,1,35
336,88,113751,2,0,L|312:140,1,35
268,256,114024,2,0,L|300:220,1,35
388,116,114296,2,0,L|356:160,1,35
336,320,114842,5,0,0:0:0:0:
140,312,115114,1,0,0:0:0:0:
48,160,115387,1,0,0:0:0:0:
48,160,115524,1,0,0:0:0:0:
116,92,115660,1,0,0:0:0:0:
308,48,115933,1,0,0:0:0:0:
440,192,116205,1,0,0:0:0:0:
328,352,116478,1,0,0:0:0:0:
132,344,116751,1,0,0:0:0:0:
44,168,117024,5,0,0:0:0:0:
192,40,117296,1,0,0:0:0:0:
388,56,117569,1,0,0:0:0:0:
432,248,117842,1,0,0:0:0:0:
268,352,118114,1,0,0:0:0:0:
84,280,118387,1,0,0:0:0:0:
132,88,118660,1,0,0:0:0:0:
252,92,119478,5,0,0:0:0:0:
332,72,119614,1,0,0:0:0:0:
408,104,119751,1,0,0:0:0:0:
444,180,119887,1,0,0:0:0:0:
408,256,120024,1,0,0:0:0:0:
252,316,120296,1,0,0:0:0:0:
96,256,120569,1,0,0:0:0:0:
100,88,120842,1,0,0:0:0:0:
260,44,121114,5,0,0:0:0:0:
416,104,121387,1,0,0:0:0:0:
444,184,121524,1,0,0:0:0:0:
412,260,121660,1,0,0:0:0:0:
260,328,121933,1,0,0:0:0:0:
96,288,122205,5,0,0:0:0:0:
92,120,122478,1,0,0:0:0:0:
244,48,122751,1,0,0:0:0:0:
396,116,123024,2,0,B|456:184|448:252|332:292|336:184|288:312,1,280
88,316,123842,5,0,0:0:0:0:
60,224,123978,1,0,0:0:0:0:
108,136,124114,1,0,0:0:0:0:
192,84,124251,1,0,0:0:0:0:
288,80,124387,1,0,0:0:0:0:
364,144,124524,1,0,0:0:0:0:
384,240,124660,1,0,0:0:0:0:
224,356,124933,1,0,0:0:0:0:
52,260,125205,1,0,0:0:0:0:
100,68,125478,1,0,0:0:0:0:
296,44,125751,1,0,0:0:0:0:
428,188,126024,1,0,0:0:0:0:
300,336,126296,1,0,0:0:0:0:
108,300,126569,5,0,0:0:0:0:
88,104,126842,1,0,0:0:0:0:
272,44,127114,1,0,0:0:0:0:
440,144,127387,1,0,0:0:0:0:
440,144,127524,1,0,0:0:0:0:
168,256,128205,5,0,0:0:0:0:
240,72,128478,1,0,0:0:0:0:
224,268,128751,1,0,0:0:0:0:
296,84,129024,1,0,0:0:0:0:
288,280,129296,1,0,0:0:0:0:
96,248,129569,1,0,0:0:0:0:
200,84,129842,1,0,0:0:0:0:
148,272,130114,5,0,0:0:0:0:
204,192,130251,1,0,0:0:0:0:
212,288,130387,1,0,0:0:0:0:
268,208,130524,1,0,0:0:0:0:
276,304,130660,1,0,0:0:0:0:
332,224,130796,1,0,0:0:0:0:
340,324,130933,5,0,0:0:0:0:
340,324,131069,1,0,0:0:0:0:
288,296,131751,6,0,B|224:320|176:316|152:272,1,140
124,88,132296,2,0,B|128:68|180:32|220:168|268:8|328:92,1,210
376,164,132842,1,0,0:0:0:0:
272,332,133114,1,0,0:0:0:0:
140,200,133660,6,0,B|92:176|88:132|152:88|232:96,1,175
348,96,134205,1,0,0:0:0:0:
128,236,135296,5,0,0:0:0:0:
128,236,135433,1,0,0:0:0:0:
412,164,135842,1,0,0:0:0:0:
264,292,136114,1,0,0:0:0:0:
264,292,136251,2,0,B|184:320|76:284|92:120|168:96|232:108,1,350
356,124,137205,6,0,P|392:136|436:124,1,70
392,68,137478,1,0,0:0:0:0:
252,60,137751,1,0,0:0:0:0:
252,60,137887,2,0,B|160:68|96:124|156:248|216:264,1,280
264,284,138569,2,0,B|316:292|360:292|408:280|432:240|424:200|396:176,1,210
332,84,139251,5,0,0:0:0:0:
264,76,139387,1,0,0:0:0:0:
124,92,139660,2,0,B|48:112|96:212|176:264|272:296|316:296|336:252,1,350
380,240,140478,1,0,0:0:0:0:
424,184,140614,1,0,0:0:0:0:
420,112,140751,1,0,0:0:0:0:
388,52,140887,1,0,0:0:0:0:
320,28,141024,1,0,0:0:0:0:
312,300,141569,5,0,0:0:0:0:
312,300,141705,1,0,0:0:0:0:
376,228,141842,1,0,0:0:0:0:
376,228,141978,2,0,B|384:140|408:124|212:48|192:48|156:128,1,315
80,332,142933,1,0,0:0:0:0:
80,332,143069,2,0,B|296:316|296:304|80:268|56:256|156:228,1,315
380,216,144024,6,0,B|368:128|348:120|300:356|252:336|332:164|268:68|180:164,1,350
140,208,144842,2,0,B|100:268|152:288|272:204|304:200|160:312|184:328|324:296|328:316|348:340|240:372|200:372|168:360|148:352|168:292|148:296|64:352|48:344|52:268,1,490
48,200,145933,1,0,0:0:0:0:
80,64,146205,1,0,0:0:0:0:
220,84,146478,2,0,B|272:104|264:180|144:232|88:192|104:128|148:104,1,280
312,60,147296,6,0,B|356:56|492:104|476:336|364:376|224:280,1,490
172,244,148387,1,0,0:0:0:0:
172,244,148524,1,0,0:0:0:0:
116,200,148660,1,0,0:0:0:0:
212,96,148933,1,0,0:0:0:0:
352,104,149205,1,0,0:0:0:0:
352,104,149342,1,0,0:0:0:0:
228,332,149751,5,0,0:0:0:0:
108,176,150024,1,0,0:0:0:0:
272,284,150296,1,0,0:0:0:0:
152,128,150569,1,0,0:0:0:0:
312,240,150842,1,0,0:0:0:0:
200,80,151114,1,0,0:0:0:0:
356,200,151387,1,0,0:0:0:0:
244,40,151660,1,0,0:0:0:0:
216,236,151933,1,0,0:0:0:0:
332,80,152205,1,0,0:0:0:0:
160,172,152478,1,0,0:0:0:0:
356,148,152751,1,0,0:0:0:0:
164,100,153024,1,0,0:0:0:0:
324,208,153296,1,0,0:0:0:0:
204,52,153569,2,0,P|272:32|356:72,1,140
416,232,154114,5,0,0:0:0:0:
248,336,154387,1,0,0:0:0:0:
160,288,154524,1,0,0:0:0:0:
112,204,154660,1,0,0:0:0:0:
240,56,154933,1,0,0:0:0:0:
428,112,155205,1,0,0:0:0:0:
404,308,155478,1,0,0:0:0:0:
208,324,155751,1,0,0:0:0:0:
60,192,156024,1,0,0:0:0:0:
172,32,156296,1,0,0:0:0:0:
236,104,156433,1,0,0:0:0:0:
312,44,156569,1,0,0:0:0:0:
412,212,156842,1,0,0:0:0:0:
260,336,157114,2,0,P|208:328|176:304,1,70
136,240,157387,5,0,0:0:0:0:
184,52,157660,1,0,0:0:0:0:
380,48,157933,2,0,B|440:96|376:224|344:272|244:256,1,315
64,236,158751,1,0,0:0:0:0:
80,140,158887,1,0,0:0:0:0:
176,128,159024,1,0,0:0:0:0:
216,216,159160,1,0,0:0:0:0:
264,300,159296,1,0,0:0:0:0:
356,332,159433,1,0,0:0:0:0:
436,276,159569,1,0,0:0:0:0:
388,84,159842,1,0,0:0:0:0:
76,320,160387,5,0,0:0:0:0:
176,328,160524,1,0,0:0:0:0:
272,312,160660,1,0,0:0:0:0:
432,200,160933,1,0,0:0:0:0:
236,200,161205,1,0,0:0:0:0:
420,136,161478,1,0,0:0:0:0:
224,140,161751,1,0,0:0:0:0:
408,76,162024,1,0,0:0:0:0:
212,76,162296,2,0,B|104:80|128:216|232:320|292:288,1,315
404,288,163114,5,0,0:0:0:0:
416,92,163387,1,0,0:0:0:0:
352,168,163524,1,0,0:0:0:0:
316,76,163660,2,0,P|260:48|168:68,1,140
52,204,164205,1,0,0:0:0:0:
208,324,164478,1,0,0:0:0:0:
400,280,164751,1,0,0:0:0:0:
468,96,165024,1,0,0:0:0:0:
384,148,165160,1,0,0:0:0:0:
300,200,165296,1,0,0:0:0:0:
204,216,165433,1,0,0:0:0:0:
272,148,165569,1,0,0:0:0:0:
356,96,165705,1,0,0:0:0:0:
440,44,165842,1,0,0:0:0:0:
256,196,166660,5,0,0:0:0:0:
256,196,166796,1,0,0:0:0:0:
256,192,167205,12,0,169660,0:0:0:0:
256,192,170205,5,0,0:0:0:0:
256,192,170342,1,0,0:0:0:0:
256,192,171024,5,0,0:0:0:0:
256,192,171160,1,0,0:0:0:0:
256,192,171569,12,0,173819,0:0:0:0:
144,276,174569,6,0,L|192:292,1,35
324,308,174842,1,0,0:0:0:0:
472,180,175114,1,0,0:0:0:0:
324,52,175387,2,0,L|288:40,1,35
84,316,175933,1,0,0:0:0:0:
216,172,176205,1,0,0:0:0:0:
36,248,176478,1,0,0:0:0:0:
224,300,176751,1,0,0:0:0:0:
420,284,177024,1,0,0:0:0:0:
260,172,177296,1,0,0:0:0:0:
456,164,177569,1,0,0:0:0:0:
300,44,177842,1,0,0:0:0:0:
140,156,178114,5,0,0:0:0:0:
220,336,178387,1,0,0:0:0:0:
352,192,178660,1,0,0:0:0:0:
180,100,178933,1,0,0:0:0:0:
92,276,179205,1,0,0:0:0:0:
284,324,179478,1,0,0:0:0:0:
448,220,179751,1,0,0:0:0:0:
180,204,180569,5,0,0:0:0:0:
224,148,180705,1,0,0:0:0:0:
288,120,180842,1,0,0:0:0:0:
332,252,181114,1,0,0:0:0:0:
204,312,181387,1,0,0:0:0:0:
108,212,181660,1,0,0:0:0:0:
136,76,181933,1,0,0:0:0:0:
272,52,182205,1,0,0:0:0:0:
400,104,182478,1,0,0:0:0:0:
360,160,182614,1,0,0:0:0:0:
432,164,182751,1,0,0:0:0:0:
404,300,183024,1,0,0:0:0:0:
264,312,183296,5,0,0:0:0:0:
136,260,183569,1,0,0:0:0:0:
68,136,183842,1,0,0:0:0:0:
176,48,184114,1,0,0:0:0:0:
248,48,184251,1,0,0:0:0:0:
312,76,184387,1,0,0:0:0:0:
356,132,184524,1,0,0:0:0:0:
384,196,184660,1,0,0:0:0:0:
280,288,184933,5,0,0:0:0:0:
232,236,185069,1,0,0:0:0:0:
176,276,185205,1,0,0:0:0:0:
84,172,185478,1,0,0:0:0:0:
176,68,185751,1,0,0:0:0:0:
244,48,185887,1,0,0:0:0:0:
316,56,186024,1,0,0:0:0:0:
416,308,186569,6,0,P|392:352|352:344,1,70
308,344,186842,2,0,B|288:352|276:320|240:324,1,70
172,320,187114,2,0,P|136:308|120:276,1,70
252,192,188205,5,0,0:0:0:0:
