osu file format v13

[General]
AudioFilename: The Osu! keyboard.mp3
AudioLeadIn: 0
PreviewTime: -1
Countdown: 1
SampleSet: Normal
StackLeniency: 0.7
Mode: 0
LetterboxInBreaks: 1
WidescreenStoryboard: 0

[Editor]
DistanceSpacing: 0.8
BeatDivisor: 4
GridSize: 8
TimelineZoom: 1

[Metadata]
Title:The Osu! keyboard
TitleUnicode:The Osu! keyboard
Artist:Peppy
ArtistUnicode:Peppy
Creator:Siduch
Version:OMG SO MUCH PP !!
Source:jutube
Tags:
BeatmapID:482415
BeatmapSetID:204296

[Difficulty]
HPDrainRate:8
CircleSize:4
OverallDifficulty:5
ApproachRate:10
SliderMultiplier:1.4
SliderTickRate:1

[Events]
//Background and Video events
Video,0,"The Osu! keyboard.avi"
//Break Periods
//Storyboard Layer 0 (Background)
//Storyboard Layer 1 (Fail)
//Storyboard Layer 2 (Pass)
//Storyboard Layer 3 (Foreground)
//Storyboard Sound Samples
//Background Colour Transformations
3,100,163,162,255

[TimingPoints]
312.804806573998,500,4,1,0,100,1,0
711,-50,4,1,0,100,0,0
11312,500,4,1,0,100,1,0

[HitObjects]
256,192,62,12,0,687,0:0:0:0:
120,160,871,6,0,P|176:256|184:256,1,140
256,160,1312,1,8,0:0:0:0:
368,272,1562,1,8,0:0:0:0:
432,136,1687,2,0,P|352:80|312:96,1,140
320,90,2187,1,0,0:0:0:0:
88,96,2437,1,0,0:0:0:0:
208,256,2562,1,0,0:0:0:0:
40,144,2687,1,0,0:0:0:0:
264,152,2937,1,0,0:0:0:0:
64,256,3062,1,0,0:0:0:0:
392,248,3312,2,0,P|336:112|264:96,1,210
80,216,3983,6,6,P|184:280|208:256,1,175
200,208,4621,1,0,0:0:0:0:
200,208,4701,1,0,0:0:0:0:
200,208,4780,1,0,0:0:0:0:
224,208,4861,1,0,0:0:0:0:
264,216,4940,1,0,0:0:0:0:
304,216,5020,1,0,0:0:0:0:
240,48,5259,2,0,L|240:144,1,70,0|0,0:0|0:0,0:0:0:0:
176,200,6376,1,0,0:0:0:0:
216,216,6416,1,0,0:0:0:0:
256,224,6456,1,0,0:0:0:0:
320,80,7812,1,0,0:0:0:0:
264,80,7852,1,0,0:0:0:0:
208,88,7892,1,0,0:0:0:0:
48,160,8610,2,0,B|208:160|208:168|200:320,1,280
232,192,9674,1,0,0:0:0:0:
256,192,9887,12,0,10472,0:0:0:0:
312,80,11961,5,2,0:0:0:0:
352,112,12041,1,0,0:0:0:0:
360,160,12121,1,0,0:0:0:0:
336,200,12201,1,0,0:0:0:0:
296,224,12280,1,2,0:0:0:0:
264,240,12360,1,0,0:0:0:0:
224,256,12440,1,2,0:0:0:0:
184,264,12520,1,2,0:0:0:0:
144,256,12600,1,0,0:0:0:0:
96,264,12687,1,0,0:0:0:0:
64,120,13163,1,0,0:0:0:0:
104,88,13243,1,0,0:0:0:0:
152,72,13323,1,0,0:0:0:0:
192,64,13403,1,0,0:0:0:0:
224,96,13483,1,0,0:0:0:0:
248,120,13562,1,0,0:0:0:0:
288,144,13642,1,0,0:0:0:0:
304,192,13722,1,0,0:0:0:0:
280,232,13802,1,0,0:0:0:0:
248,272,13882,1,0,0:0:0:0:
168,176,14248,1,0,0:0:0:0:
192,136,14408,5,0,0:0:0:0:
224,96,14568,1,0,0:0:0:0:
256,48,14727,1,0,0:0:0:0:
256,112,14887,1,0,0:0:0:0:
256,168,15046,1,0,0:0:0:0:
256,224,15206,1,0,0:0:0:0:
256,280,15365,1,0,0:0:0:0:
256,336,15525,1,0,0:0:0:0:
104,200,15791,2,0,L|176:144,1,70
159,157,16187,1,0,0:0:0:0:
256,192,16312,12,0,16812,0:0:0:0:
441,57,17062,6,0,P|398:145|374:148,1,105
80,250,17562,2,0,P|51:325|84:348,1,105
152,135,18187,1,0,0:0:0:0:
152,135,18312,1,0,0:0:0:0:
365,251,18562,1,0,0:0:0:0:
365,251,18812,1,0,0:0:0:0:
247,83,18937,1,4,0:0:0:0:
397,166,19312,5,0,0:0:0:0:
211,256,19437,5,2,0:0:0:0:
247,83,19812,1,0,0:0:0:0:
358,243,19937,1,8,0:0:0:0:
147,161,20312,1,0,0:0:0:0:
314,156,20437,1,0,0:0:0:0:
376,48,21687,5,0,0:0:0:0:
256,192,21812,12,0,22812,0:0:0:0:
