osu file format v14

[General]
AudioFilename: Pentatonix - La La Latch.mp3
AudioLeadIn: 0
PreviewTime: -1
Countdown: 1
SampleSet: None
StackLeniency: 0.7
Mode: 0
LetterboxInBreaks: 1
WidescreenStoryboard: 0

[Editor]
DistanceSpacing: 0.8
BeatDivisor: 4
GridSize: 32
TimelineZoom: 0.8

[Metadata]
Title:La La Latch
TitleUnicode:La La Latch
Artist:Pentatonix
ArtistUnicode:Pentatonix
Creator:kamila2511
Version:Easy
Source:
Tags:
BeatmapID:889700
BeatmapSetID:409937

[Difficulty]
HPDrainRate:5
CircleSize:5
OverallDifficulty:5
ApproachRate:5
SliderMultiplier:1.2
SliderTickRate:2

[Events]
//Background and Video events
0,0,"Pentatonix-La-La-Latch-Music-Video_2014-09-02_15-46-28.png",0,0
//Break Periods
2,33249,51434
//Storyboard Layer 0 (Background)
//Storyboard Layer 1 (Fail)
//Storyboard Layer 2 (Pass)
//Storyboard Layer 3 (Foreground)
//Storyboard Sound Samples

[TimingPoints]
2766.40393560301,535.714285714286,4,2,0,100,1,0
17927,491.803278688525,4,2,0,100,1,0
24100,-100,4,2,0,100,0,0
52634,491.803278688525,4,2,0,100,1,0
54332.9106150928,491.803278688525,4,2,0,100,1,0
161000,491.803278688525,4,2,0,100,1,0

[Colours]
Combo1 : 149,197,213
Combo2 : 223,174,230
Combo3 : 165,159,213
Combo4 : 163,182,218

[HitObjects]
160,128,4641,5,0,0:0:0:0:
96,192,4909,1,0,0:0:0:0:
192,288,5177,2,0,P|252:268|256:192,1,120
256,96,5980,5,0,0:0:0:0:
352,96,6248,2,0,L|416:96,3,60
416,192,7319,1,0,0:0:0:0:
416,288,7587,1,0,0:0:0:0:
320,288,7855,2,0,L|256:288,1,60
64,160,9194,6,0,P|96:128|192:96,1,120
256,96,9998,1,0,0:0:0:0:
288,192,10266,2,0,B|256:224|192:224|160:224,1,120
96,128,11337,5,0,0:0:0:0:
96,224,11605,1,0,0:0:0:0:
160,320,11873,1,0,0:0:0:0:
256,320,12141,1,0,0:0:0:0:
352,320,12409,2,0,B|384:256|416:256|448:256,1,120
256,96,13212,5,0,0:0:0:0:
352,96,13480,2,0,L|416:96,1,60
256,192,14418,5,0,0:0:0:0:
352,192,14686,2,0,L|416:224,1,60
448,288,15221,1,0,0:0:0:0:
352,320,15489,1,0,0:0:0:0:
256,320,15757,2,0,L|192:320,4,60
96,64,17927,5,0,0:0:0:0:
160,128,18418,1,0,0:0:0:0:
256,128,18910,1,0,0:0:0:0:
256,128,19156,1,0,0:0:0:0:
352,128,19402,2,0,L|384:160,1,30
416,224,20140,5,0,0:0:0:0:
384,320,20631,1,0,0:0:0:0:
320,256,21000,1,0,0:0:0:0:
320,256,21246,1,0,0:0:0:0:
256,224,21492,2,0,L|224:256,1,30
96,320,22353,5,0,0:0:0:0:
32,224,22845,1,0,0:0:0:0:
64,128,23336,2,0,L|192:128,1,120
256,64,23951,2,0,P|320:128|320:160,1,120
320,160,24566,1,0,0:0:0:0:
416,288,25549,5,0,0:0:0:0:
352,320,25795,1,0,0:0:0:0:
352,256,25918,1,0,0:0:0:0:
288,288,26164,1,0,0:0:0:0:
192,288,26779,6,0,B|160:288|128:256|64:256,1,120
96,192,27763,1,0,0:0:0:0:
64,128,28008,1,0,0:0:0:0:
64,128,28131,1,0,0:0:0:0:
96,64,28377,1,0,0:0:0:0:
192,96,28746,6,0,L|192:128,1,30
256,192,29238,1,0,0:0:0:0:
256,192,29361,1,0,0:0:0:0:
352,160,29730,1,0,0:0:0:0:
416,96,29976,1,0,0:0:0:0:
416,96,30099,1,0,0:0:0:0:
352,160,30467,1,0,0:0:0:0:
192,96,31082,6,0,B|192:192|160:160|160:224,1,120
224,224,32066,2,0,B|224:320|192:288|192:352,1,120
288,320,33049,1,0,0:0:0:0:
256,192,52634,5,0,0:0:0:0:
320,256,52879,2,0,L|288:256,1,30
224,288,53248,1,0,0:0:0:0:
160,320,53371,1,0,0:0:0:0:
96,288,53617,2,0,L|64:224,1,60
96,192,54109,5,0,0:0:0:0:
128,128,54232,2,0,L|160:96,1,30
224,128,54578,2,0,L|256:128,1,30
320,128,54824,1,0,0:0:0:0:
384,160,55070,5,0,0:0:0:0:
384,160,55193,1,0,0:0:0:0:
384,160,55316,1,0,0:0:0:0:
416,256,55808,6,0,L|416:288,1,30
384,320,56054,2,0,L|352:352,1,30
256,320,56546,1,0,0:0:0:0:
192,288,56668,1,0,0:0:0:0:
128,256,56791,1,0,0:0:0:0:
96,192,57283,6,0,L|96:160,1,30
160,160,57529,2,0,L|160:128,1,30
224,128,57775,2,0,L|224:96,1,30
288,64,58021,6,0,L|288:96,1,30
352,96,58267,2,0,L|352:128,1,30
416,128,58513,2,0,L|416:160,1,30
256,224,59005,6,0,L|256:256,4,30
256,192,59619,1,0,0:0:0:0:
256,160,59742,1,0,0:0:0:0:
192,64,60234,6,0,P|192:96|128:160,1,120
96,224,61218,6,0,P|128:224|192:288,1,120
256,320,62201,1,0,0:0:0:0:
288,320,62324,1,0,0:0:0:0:
320,320,62447,1,0,0:0:0:0:
352,320,62570,1,0,0:0:0:0:
384,320,62693,1,0,0:0:0:0:
352,224,62939,6,0,L|320:224|288:224,1,60
