osu file format v14

[General]
AudioFilename: Pentatonix - Daft Punk.mp3
AudioLeadIn: 2000
PreviewTime: 28603
Countdown: 0
SampleSet: Soft
StackLeniency: 0.7
Mode: 0
LetterboxInBreaks: 0
WidescreenStoryboard: 0

[Editor]
DistanceSpacing: 1
BeatDivisor: 4
GridSize: 4
TimelineZoom: 2

[Metadata]
Title:Daft Punk
TitleUnicode:Daft Punk
Artist:Pentatonix
ArtistUnicode:Pentatonix
Creator:alacat
Version:Normal
Source:
Tags:Gero PTX medley Technologic One More Time Get Lucky Digital Love Harder Better Faster Stronger Television Rules The Nation Around World Scott Hoying Kirstie Maldonado Mitch Grassi Avi Kaplan Kevin Olusola human beat box arrange
BeatmapID:558484
BeatmapSetID:241877

[Difficulty]
HPDrainRate:4
CircleSize:3
OverallDifficulty:4
ApproachRate:5
SliderMultiplier:1.1
SliderTickRate:1

[Events]
//Background and Video events
Video,-3200,"MV.avi"
0,0,"pentatonix.jpg",0,0
//Break Periods
2,89255,91464
2,114518,120336
2,186698,199734
//Storyboard Layer 0 (Background)
//Storyboard Layer 1 (Fail)
//Storyboard Layer 2 (Pass)
//Storyboard Layer 3 (Foreground)
//Storyboard Sound Samples

[TimingPoints]
634,451.127819548872,4,2,2,30,1,0
4243,-100,4,2,2,35,0,0
7852,-100,4,2,2,40,0,0
11461,-100,4,2,2,45,0,0
15070,-100,4,2,1,50,0,0
28603,-100,4,2,2,40,0,0
29506,-100,4,2,1,60,0,0
43942,-100,4,2,1,50,0,0
57476,-100,4,2,1,60,0,0
58378,-100,4,2,1,60,0,0
72814,-100,4,2,1,40,0,0
72927,-100,4,2,1,60,0,0
85446,-100,4,2,1,50,0,0
100333,-100,4,2,1,40,0,0
122438,-100,4,2,1,30,0,0
125145,-100,4,2,1,40,0,0
126949,-100,4,2,1,50,0,0
127852,-100,4,2,1,60,0,0
128303,-100,4,2,2,50,0,0
128754,-100,4,2,1,70,0,1
141385,-100,4,2,1,20,0,1
141837,-100,4,2,1,40,0,1
142288,-100,4,2,1,60,0,1
142739,-100,4,2,1,80,0,0
143190,-100,4,2,1,40,0,1
143303,-100,4,2,1,40,0,0
144092,-100,4,2,2,40,0,0
150408,-100,4,2,1,60,0,0
157626,-100,4,2,1,50,0,0
164844,-100,4,2,1,60,0,0
171160,-100,4,2,1,40,0,0
172062,-100,4,2,1,60,0,0
186498,-100,4,2,1,30,0,0
200934,-100,4,2,1,50,0,0
208152,-100,4,2,1,60,0,0
222588,-100,4,2,1,50,0,0
226197,-100,4,2,1,60,0,0
228002,-100,4,2,1,70,0,0
228904,-100,4,2,1,60,0,0
229806,-100,4,2,1,70,0,1
242438,-100,4,2,1,40,0,0
242889,-100,4,2,2,30,0,0
244017,-100,4,2,2,20,0,0

[Colours]
Combo1 : 209,209,209
Combo2 : 128,255,255
Combo3 : 255,102,255

[HitObjects]
104,352,634,6,0,P|112:296|100:240,1,110,2|0,0:0|0:0,0:0:0:0:
36,156,1536,2,0,L|52:44,1,110
152,92,2438,1,2,0:0:0:0:
252,44,2889,1,0,0:0:0:0:
360,68,3340,2,0,P|404:100|428:152,1,110,0|0,0:0|0:0,0:0:0:0:
380,248,4243,6,0,L|408:360,2,110,2|0|0,0:0|0:0|0:0,0:0:0:0:
280,204,5596,1,0,0:0:0:0:
192,272,6047,2,0,P|136:273|80:256,1,110,2|0,0:0|0:0,0:0:0:0:
24,168,6949,2,0,L|44:60,1,110,0|0,0:0|0:0,0:0:0:0:
144,108,7852,6,0,P|196:96|236:52,1,110,2|0,0:0|0:0,0:0:0:0:
328,112,8754,2,0,P|312:163|330:219,1,110,2|0,0:0|0:0,0:0:0:0:
428,264,9656,1,2,0:0:0:0:
500,184,10107,1,0,0:0:0:0:
436,92,10558,2,0,L|328:112,1,110,2|0,0:0|0:0,0:0:0:0:
236,52,11461,5,2,0:0:0:0:
188,152,11912,1,0,0:0:0:0:
88,112,12363,2,0,P|32:128|0:180,1,110,2|0,0:0|0:0,0:0:0:0:
48,268,13265,2,0,L|24:376,1,110,2|0,0:0|0:0,0:0:0:0:
128,344,14167,2,0,P|184:332|236:336,1,110,2|0,0:0|0:0,0:0:0:0:
324,268,15070,6,0,P|380:280|432:276,2,110,2|0|2,0:0|0:0|0:0,0:0:0:0:
256,180,16423,1,0,0:0:0:0:
188,96,16874,2,0,P|132:84|80:88,1,110,2|0,0:0|0:0,0:0:0:0:
12,176,17776,1,2,0:0:0:0:
68,272,18227,1,0,0:0:0:0:
168,228,18679,6,0,L|280:248,1,110,2|0,0:0|0:0,0:0:0:0:
344,332,19581,2,0,L|456:312,1,110,2|0,0:0|0:0,0:0:0:0:
504,216,20483,1,2,0:0:0:0:
424,140,20934,1,0,0:0:0:0:
320,180,21385,2,0,P|260:176|220:148,1,110,2|0,0:0|0:0,0:0:0:0:
196,40,22288,6,0,L|84:40,1,110,2|0,0:0|0:0,0:0:0:0:
36,140,23190,2,0,L|146:140,1,110,2|0,0:0|0:0,0:0:0:0:
236,204,24092,2,0,L|346:204,1,110,2|0,0:0|0:0,0:0:0:0:
420,288,24994,2,0,L|420:344,2,55,2|0|0,0:0|0:0|0:0,0:0:0:0:
508,224,25897,6,0,L|508:112,1,110,2|2,0:0|0:0,0:0:0:0:
404,148,26799,2,0,L|404:36,1,110,2|2,0:0|0:0,0:0:0:0:
296,60,27701,2,0,L|240:60,1,55,0|0,0:0|0:0,0:0:0:0:
200,96,28152,2,0,L|144:96,1,55,0|0,0:0|0:0,0:0:0:0:
104,60,28603,2,0,P|76:116|76:164,1,110,2|2,0:0|0:0,0:0:0:0:
156,240,29506,6,0,L|264:216,1,110,4|0,0:0|0:0,0:0:0:0:
296,172,30182,2,0,L|284:284,1,110,4|2,0:0|0:0,0:0:0:0:
316,328,30859,2,0,L|424:304,1,110,4|0,0:0|0:0,0:0:0:0:
472,328,31536,2,0,L|483:218,1,110,4|0,0:0|0:0,0:0:0:0:
456,172,32212,2,0,P|400:160|348:168,1,110,8|0,0:0|0:0,0:0:0:0:
252,220,33115,6,0,L|263:110,1,110,4|0,0:0|0:0,0:0:0:0:
292,64,33791,2,0,L|184:88,1,110,4|0,0:0|0:0,0:0:0:0:
140,56,34468,2,0,L|32:80,1,110,4|0,0:0|0:0,0:0:0:0:
60,128,35145,2,0,L|48:237,1,110,4|0,0:0|0:0,0:0:0:0:
76,284,35821,2,0,P|132:288|184:268,1,110,8|8,0:0|0:0,0:0:0:0:
256,188,36724,6,0,L|364:208,1,110,4|0,0:0|0:0,0:0:0:0:
412,184,37400,2,0,L|400:293,1,110,4|0,0:0|0:0,0:0:0:0:
360,332,38077,2,0,L|252:312,1,110,4|0,0:0|0:0,0:0:0:0:
212,272,38754,2,0,L|104:292,1,110,4|0,0:0|0:0,0:0:0:0:
56,264,39430,2,0,P|44:208|52:156,1,110,8|0,0:0|0:0,0:0:0:0:
120,68,40333,5,2,0:0:0:0:
224,108,40784,1,2,0:0:0:0:
304,32,41235,2,0,P|360:32|412:48,1,110,2|2,0:0|0:0,0:0:0:0:
492,124,42137,5,2,0:0:0:0:
64,220,43942,6,0,P|120:208|172:220,1,110,2|2,0:0|0:0,0:0:0:0:
256,288,44844,2,0,L|248:344,2,55,2|0|2,0:0|0:0|0:0,0:0:0:0:
340,220,45746,2,0,L|320:112,1,110,2|2,0:0|0:0,0:0:0:0:
240,36,46649,1,2,0:0:0:0:
140,80,47100,2,0,L|84:80,1,55,2|0,0:0|0:0,0:0:0:0:
44,116,47551,6,0,P|24:172|32:224,1,110,2|2,0:0|0:0,0:0:0:0:
84,316,48453,2,0,L|72:372,2,55,2|0|2,0:0|0:0|0:0,0:0:0:0:
164,240,49355,2,0,P|220:248|260:284,1,110,2|2,0:0|0:0,0:0:0:0:
336,360,50258,2,0,L|448:332,1,110,2|2,0:0|0:0,0:0:0:0:
480,292,50934,1,0,0:0:0:0:
492,240,51160,6,0,P|500:184|488:128,1,110,2|2,0:0|0:0,0:0:0:0:
408,60,52062,1,2,0:0:0:0:
312,112,52513,2,0,L|252:112,1,55,2|0,0:0|0:0,0:0:0:0:
216,76,52964,2,0,L|240:184,1,110,2|2,0:0|0:0,0:0:0:0:
180,276,53867,2,0,L|172:332,2,55,2|0|2,0:0|0:0|0:0,0:0:0:0:
100,200,54769,6,0,P|44:212|4:244,2,110,2|2|2,0:0|0:0|0:0,0:0:0:0:
168,116,56122,1,2,0:0:0:0:
272,148,56573,1,2,0:0:0:0:
248,40,57024,1,2,0:0:0:0:
168,116,57476,2,0,B|132:172|144:220|144:220|204:224|232:276,1,220,2|2,0:0|0:0,0:0:0:0:
172,368,58829,5,2,0:0:0:0:
76,312,59280,1,2,0:0:0:0:
28,212,59731,2,0,L|40:156,1,55,2|0,0:0|0:0,0:0:0:0:
60,108,60182,2,0,P|112:92|168:92,1,110,2|2,0:0|0:0,0:0:0:0:
252,164,61085,2,0,P|306:163|359:147,1,110,2|2,0:0|0:0,0:0:0:0:
448,212,61987,6,0,L|432:324,1,110,2|2,0:0|0:0,0:0:0:0:
332,368,62889,1,2,0:0:0:0:
244,300,63340,2,0,L|188:300,1,55,2|0,0:0|0:0,0:0:0:0:
140,272,63791,2,0,P|120:220|124:164,1,110,2|2,0:0|0:0,0:0:0:0:
176,68,64694,1,2,0:0:0:0:
280,104,65145,1,2,0:0:0:0:
364,32,65596,6,0,P|424:36|468:60,2,110,2|2|2,0:0|0:0|0:0,0:0:0:0:
280,104,66949,2,0,L|288:160,1,55,2|0,0:0|0:0,0:0:0:0:
268,212,67400,2,0,P|216:232|160:224,1,110,2|2,0:0|0:0,0:0:0:0:
80,156,68303,1,2,0:0:0:0:
52,264,68754,1,2,0:0:0:0:
140,328,69205,6,0,P|194:334|244:314,1,110,2|2,0:0|0:0,0:0:0:0:
344,364,70107,2,0,P|393:341|426:298,1,110,2|2,0:0|0:0,0:0:0:0:
388,196,71009,1,2,0:0:0:0:
296,256,71461,1,2,0:0:0:0:
192,216,71912,2,0,L|136:228,2,55,8|0|0,0:0|0:0|0:0,0:0:0:0:
280,152,72814,6,0,P|296:96|288:44,2,110,6|8|2,0:0|0:0|0:0,0:0:0:0:
176,112,74167,1,8,0:0:0:0:
92,184,74618,2,0,P|80:240|88:292,1,110,2|8,0:0|0:0,0:0:0:0:
128,328,75295,1,0,0:0:0:0:
180,304,75521,2,0,L|292:304,1,110,2|8,0:0|0:0,0:0:0:0:
396,340,76423,6,0,P|416:288|416:232,1,110,2|8,0:0|0:0,0:0:0:0:
340,156,77325,1,2,0:0:0:0:
240,200,77776,1,8,0:0:0:0:
172,116,78227,1,2,0:0:0:0:
232,24,78679,2,0,L|288:24,2,55,8|0|2,0:0|0:0|0:0,0:0:0:0:
124,24,79581,1,8,0:0:0:0:
44,100,80032,6,0,P|28:156|40:208,1,110,2|8,0:0|0:0,0:0:0:0:
128,272,80934,2,0,L|240:252,1,110,2|8,0:0|0:0,0:0:0:0:
304,164,81837,1,2,0:0:0:0:
400,216,82288,2,0,L|392:276,2,55,8|0|2,0:0|0:0|0:0,0:0:0:0:
496,164,83190,2,0,L|468:56,1,110,8|2,0:0|0:0,0:0:0:0:
360,76,84092,5,8,0:0:0:0:
260,36,84543,2,0,P|204:40|156:72,1,110,2|8,0:0|0:0,0:0:0:0:
56,108,85446,5,2,0:0:0:0:
428,344,87250,5,2,0:0:0:0:
120,32,89055,5,2,0:0:0:0:
244,324,92664,5,2,0:0:0:0:
144,284,93115,1,2,0:0:0:0:
228,212,93566,2,0,L|340:232,1,110,2|2,0:0|0:0,0:0:0:0:
392,228,94243,1,0,0:0:0:0:
436,196,94468,2,0,P|448:136|440:88,1,110,0|2,0:0|0:0,0:0:0:0:
348,28,95370,2,0,L|240:48,1,110,2|2,0:0|0:0,0:0:0:0:
168,132,96273,6,0,P|116:115|60:112,2,110,2|2|2,0:0|0:0|0:0,0:0:0:0:
224,224,97626,1,2,0:0:0:0:
320,172,98077,2,0,L|312:112,2,55,0|0|0,0:0|0:0|0:0,0:0:0:0:
400,244,98979,2,0,L|392:304,2,55,0|0|0,0:0|0:0|0:0,0:0:0:0:
480,168,99882,5,0,0:0:0:0:
388,108,100333,2,0,P|332:108|280:132,1,110,2|2,0:0|0:0,0:0:0:0:
248,232,101235,2,0,L|264:288,1,55,2|0,0:0|0:0,0:0:0:0:
276,340,101686,2,0,L|168:316,1,110,2|2,0:0|0:0,0:0:0:0:
76,256,102588,2,0,P|60:308|72:364,2,110,2|2|2,0:0|0:0|0:0,0:0:0:0:
116,220,103716,6,0,B|88:112|88:112|120:68,1,165,0|2,0:0|0:0,0:0:0:0:
208,132,104844,1,2,0:0:0:0:
296,68,105295,2,0,P|352:64|400:88,1,110,2|2,0:0|0:0,0:0:0:0:
436,192,106197,1,2,0:0:0:0:
356,268,106649,1,2,0:0:0:0:
256,224,107100,6,0,P|200:240|148:232,2,110,2|2|2,0:0|0:0|0:0,0:0:0:0:
276,116,108453,1,2,0:0:0:0:
384,92,108904,1,2,0:0:0:0:
352,196,109355,1,2,0:0:0:0:
276,116,109806,2,0,P|216:108|164:116,1,110,2|2,0:0|0:0,0:0:0:0:
104,204,110709,5,2,0:0:0:0:
20,136,111160,2,0,P|24:80|52:36,2,110,2|2|2,0:0|0:0|0:0,0:0:0:0:
52,180,112288,2,0,P|84:260|48:328,1,165,0|2,0:0|0:0,0:0:0:0:
8,360,113190,2,0,L|172:332,1,165,0|2,0:0|0:0,0:0:0:0:
256,260,114318,5,4,0:0:0:0:
256,320,121536,6,0,P|156:296|148:192,2,220,0|2|2,0:0|0:0|0:0,0:0:0:0:
352,124,124243,1,2,0:0:0:0:
256,172,124694,1,0,0:0:0:0:
172,100,125145,6,0,L|60:120,2,110,2|2|2,0:0|0:0|0:0,0:0:0:0:
256,28,126498,1,2,0:0:0:0:
344,96,126949,6,0,L|352:152,1,55,2|2,0:0|0:0,0:0:0:0:
404,160,127400,2,0,L|412:216,1,55,2|2,0:0|0:0,0:0:0:0:
444,260,127852,2,0,P|392:288|340:288,1,110,2|2,0:0|0:0,0:0:0:0:
252,224,128754,6,0,L|144:240,1,110,6|8,0:0|0:0,0:0:0:0:
64,320,129656,1,2,0:0:0:0:
32,216,130107,1,8,0:0:0:0:
16,164,130333,2,0,B|44:60|44:60|96:36,1,165,0|8,0:0|0:0,0:0:0:0:
188,96,131461,2,0,P|244:80|280:40,1,110,2|8,0:0|0:0,0:0:0:0:
372,104,132363,6,0,P|357:160|374:211,1,110,2|8,0:0|0:0,0:0:0:0:
460,276,133265,1,2,0:0:0:0:
356,316,133716,1,8,0:0:0:0:
256,276,134167,2,0,L|148:296,1,110,2|8,0:0|0:0,0:0:0:0:
96,276,134844,1,0,0:0:0:0:
68,228,135070,2,0,P|60:172|76:120,1,110,2|8,0:0|0:0,0:0:0:0:
164,56,135972,6,0,L|276:72,1,110,2|8,0:0|0:0,0:0:0:0:
384,68,136874,2,0,L|368:16,2,55,2|0|8,0:0|0:0|0:0,0:0:0:0:
432,92,137551,2,0,L|400:260,1,165,0|8,0:0|0:0,0:0:0:0:
304,308,138679,1,2,0:0:0:0:
256,208,139130,1,8,0:0:0:0:
324,120,139581,6,0,B|304:68|304:68|248:68,1,110,2|2,0:0|0:0,0:0:0:0:
144,104,140483,2,0,L|32:104,1,110,2|2,0:0|0:0,0:0:0:0:
256,192,141385,12,0,143190,0:0:0:0:
352,360,144092,6,0,P|364:308|352:252,1,110,2|0,0:0|0:0,0:0:0:0:
268,180,144994,2,0,L|160:200,1,110,2|0,0:0|0:0,0:0:0:0:
68,136,145897,1,2,0:0:0:0:
84,28,146348,1,0,0:0:0:0:
176,88,146799,5,2,0:0:0:0:
276,44,147250,1,0,0:0:0:0:
368,104,147701,2,0,L|392:212,1,110,2|0,0:0|0:0,0:0:0:0:
376,320,148603,1,2,0:0:0:0:
480,280,149055,1,0,0:0:0:0:
376,320,149506,2,0,L|264:300,1,110,2|0,0:0|0:0,0:0:0:0:
192,220,150408,6,0,P|180:172|192:112,2,110,2|2|2,0:0|0:0|0:0,0:0:0:0:
392,132,152212,6,0,P|404:84|392:24,2,110,2|2|2,0:0|0:0|0:0,0:0:0:0:
196,28,154017,6,0,P|184:76|196:136,1,110,2|2,0:0|0:0,0:0:0:0:
264,220,154919,2,0,P|312:232|372:220,1,110,2|2,0:0|0:0,0:0:0:0:
448,144,155821,5,10,0:0:0:0:
56,340,157626,5,2,0:0:0:0:
80,232,158077,1,2,0:0:0:0:
160,308,158528,2,0,P|220:300|260:268,1,110,2|2,0:0|0:0,0:0:0:0:
280,220,159205,1,0,0:0:0:0:
272,164,159430,2,0,L|380:180,1,110,2|2,0:0|0:0,0:0:0:0:
468,248,160333,2,0,P|484:300|471:355,1,110,2|2,0:0|0:0,0:0:0:0:
372,304,161235,6,0,P|317:295|264:307,1,110,2|2,0:0|0:0,0:0:0:0:
228,348,161912,1,0,0:0:0:0:
180,320,162137,2,0,L|196:212,1,110,2|2,0:0|0:0,0:0:0:0:
268,128,163040,2,0,L|252:20,2,110,2|2|2,0:0|0:0|0:0,0:0:0:0:
344,208,164393,1,2,0:0:0:0:
428,136,164844,5,8,0:0:0:0:
448,244,165295,1,0,0:0:0:0:
344,208,165746,1,8,0:0:0:0:
324,100,166197,2,0,L|268:100,1,55,0|8,0:0|0:0,0:0:0:0:
228,64,166649,2,0,P|172:52|116:64,1,110,8|0,0:0|0:0,0:0:0:0:
48,144,167551,2,0,P|36:200|48:256,1,110,8|0,0:0|0:0,0:0:0:0:
88,288,168227,1,8,0:0:0:0:
140,272,168453,6,0,L|252:272,1,110,0|0,0:0|0:0,0:0:0:0:
324,352,169355,2,0,L|436:352,1,110,0|0,0:0|0:0,0:0:0:0:
508,272,170258,2,0,B|480:224|508:164|508:164|468:124|408:128,1,220,8|0,0:0|0:0,0:0:0:0:
332,204,171611,1,0,0:0:0:0:
296,308,172062,6,0,P|236:316|188:308,1,110,2|0,0:0|0:0,0:0:0:0:
100,240,172964,2,0,L|89:293,2,55,8|0|0,0:0|0:0|0:0,0:0:0:0:
128,192,173641,1,2,0:0:0:0:
224,140,174092,2,0,B|292:148|331:111|331:111|384:124,1,165,2|8,0:0|0:0,0:0:0:0:
460,200,175220,1,0,0:0:0:0:
352,228,175671,6,0,P|336:288|348:340,1,110,2|0,0:0|0:0,0:0:0:0:
236,312,176573,2,0,L|244:368,2,55,8|0|0,0:0|0:0|0:0,0:0:0:0:
200,272,177250,2,0,P|116:280|52:336,1,165,2|0,0:0|0:0,0:0:0:0:
12,228,178378,2,0,L|36:120,1,110,8|0,0:0|0:0,0:0:0:0:
120,48,179280,5,2,0:0:0:0:
144,156,179731,1,0,0:0:0:0:
232,88,180182,2,0,L|244:32,2,55,8|0|0,0:0|0:0|0:0,0:0:0:0:
252,140,180859,2,0,P|300:168|356:168,1,110,2|2,0:0|0:0,0:0:0:0:
400,144,181536,2,0,L|380:256,1,110,0|8,0:0|0:0,0:0:0:0:
320,344,182438,1,0,0:0:0:0:
272,244,182889,5,2,0:0:0:0:
212,336,183340,1,0,0:0:0:0:
104,312,183791,2,0,P|84:332|52:348,2,55,8|0|0,0:0|0:0|0:0,0:0:0:0:
132,264,184468,1,0,0:0:0:0:
144,208,184694,2,0,B|149:146|109:104|109:104|167:110|215:81,1,220,2|8,0:0|0:0,0:0:0:0:
308,32,186047,2,0,P|364:36|412:60,1,110,2|4,0:0|0:0,0:0:0:0:
432,348,200934,6,0,P|420:288|432:240,1,110,2|2,0:0|0:0,0:0:0:0:
464,196,201611,1,0,0:0:0:0:
512,168,201837,2,0,L|480:60,1,110,2|2,0:0|0:0,0:0:0:0:
376,24,202739,1,2,0:0:0:0:
348,128,203190,1,2,0:0:0:0:
248,80,203641,2,0,P|192:84|148:112,1,110,2|2,0:0|0:0,0:0:0:0:
124,164,204318,1,0,0:0:0:0:
132,220,204543,6,0,L|160:328,1,110,2|2,0:0|0:0,0:0:0:0:
60,372,205446,1,2,0:0:0:0:
12,272,205897,2,0,L|24:216,1,55,2|0,0:0|0:0,0:0:0:0:
60,176,206348,2,0,P|76:124|64:68,1,110,2|2,0:0|0:0,0:0:0:0:
172,92,207250,2,0,L|284:72,1,110,2|2,0:0|0:0,0:0:0:0:
332,88,207927,1,0,0:0:0:0:
368,128,208152,6,0,P|384:184|376:236,1,110,2|2,0:0|0:0,0:0:0:0:
276,280,209055,1,2,0:0:0:0:
204,196,209506,2,0,L|216:140,2,55,2|0|2,0:0|0:0|0:0,0:0:0:0:
160,296,210408,1,2,0:0:0:0:
64,244,210859,2,0,L|52:188,2,55,2|0|2,0:0|0:0|0:0,0:0:0:0:
160,296,211761,6,0,L|148:349,2,55,2|0|2,0:0|0:0|0:0,0:0:0:0:
256,240,212664,2,0,P|312:236|368:248,1,110,2|2,0:0|0:0,0:0:0:0:
256,192,213566,12,0,215370,0:0:0:0:
116,352,216949,6,0,L|116:296,1,55,2|2,0:0|0:0,0:0:0:0:
428,68,218754,6,0,L|428:124,1,55,2|2,0:0|0:0,0:0:0:0:
56,216,220558,6,0,L|56:160,1,55,2|2,0:0|0:0,0:0:0:0:
460,332,222588,6,0,L|460:164,1,165,2|8,0:0|0:0,0:0:0:0:
432,120,223491,2,0,P|348:104|280:140,1,165,2|8,0:0|0:0,0:0:0:0:
244,180,224393,2,0,P|171:216|92:199,1,165,2|8,0:0|0:0,0:0:0:0:
56,160,225295,2,0,L|92:324,1,165,2|8,0:0|0:0,0:0:0:0:
136,352,226197,6,0,B|220:316|220:368|300:332,1,165,2|8,0:0|0:0,0:0:0:0:
340,300,227100,2,0,B|400:288|448:312|448:312|424:260,1,165,2|8,0:0|0:0,0:0:0:0:
444,212,228002,5,2,0:0:0:0:
256,100,228904,1,2,0:0:0:0:
256,208,229355,1,8,0:0:0:0:
256,316,229806,5,6,0:0:0:0:
160,264,230258,2,0,L|48:264,2,110,0|8|2,0:0|0:0|0:0,0:0:0:0:
212,240,231385,1,2,0:0:0:0:
256,208,231611,2,0,P|268:152|252:104,1,110,2|0,0:0|0:0,0:0:0:0:
212,64,232288,1,0,0:0:0:0:
256,28,232513,2,0,L|364:48,1,110,2|0,0:0|0:0,0:0:0:0:
420,40,233190,6,0,P|444:112|416:196,1,165,10|2,0:0|0:0,0:0:0:0:
376,296,234318,2,0,L|384:352,2,55,8|0|0,0:0|0:0|0:0,0:0:0:0:
328,268,234994,2,0,L|272:280,1,55,2|2,0:0|0:0,0:0:0:0:
84,172,236122,2,0,L|192:192,1,110,8|8,0:0|0:0,0:0:0:0:
284,128,237024,5,2,0:0:0:0:
380,180,237476,1,2,0:0:0:0:
468,116,237927,2,0,L|460:60,2,55,2|8|2,0:0|0:0|0:0,0:0:0:0:
488,224,238829,2,0,P|472:276|436:316,1,110,2|2,0:0|0:0,0:0:0:0:
332,284,239731,2,0,L|224:304,1,110,2|2,0:0|0:0,0:0:0:0:
184,340,240408,1,8,0:0:0:0:
132,324,240633,6,0,P|112:272|116:216,1,110,2|2,0:0|0:0,0:0:0:0:
212,168,241536,2,0,L|268:176,2,55,2|8|2,0:0|0:0|0:0,0:0:0:0:
116,116,242438,5,2,0:0:0:0:
212,60,242889,1,2,0:0:0:0:
312,100,243340,2,0,L|368:88,1,55,2|0,0:0|0:0,0:0:0:0:
412,116,243791,2,0,L|468:104,1,55,0|2,0:0|0:0,0:0:0:0:
