osu file format v14

[General]
AudioFilename: Pentatonix - Daft Punk.mp3
AudioLeadIn: 2000
PreviewTime: 141385
Countdown: 0
SampleSet: Soft
StackLeniency: 0.7
Mode: 0
LetterboxInBreaks: 0
WidescreenStoryboard: 1

[Editor]
Bookmarks: 72814
DistanceSpacing: 0.5
BeatDivisor: 4
GridSize: 8
TimelineZoom: 1.4

[Metadata]
Title:Daft Punk
TitleUnicode:Daft Punk
Artist:Pentatonix
ArtistUnicode:Pentatonix
Creator:La Cataline
Version:Insane
Source:
Tags:PTX
BeatmapID:670630
BeatmapSetID:298860

[Difficulty]
HPDrainRate:7
CircleSize:4.5
OverallDifficulty:7
ApproachRate:8.5
SliderMultiplier:1.6
SliderTickRate:1

[Events]
//Background and Video events
0,0,"maxresdefault.jpg",0,0
//Break Periods
2,114518,120861
2,186698,198455
//Storyboard Layer 0 (Background)
//Storyboard Layer 1 (Fail)
//Storyboard Layer 2 (Pass)
//Storyboard Layer 3 (Foreground)
//Storyboard Sound Samples

[TimingPoints]
634,451.127819548872,4,2,1,20,1,0
634,-200,4,2,1,30,0,0
859,-200,4,2,1,20,0,0
1310,-200,4,2,1,20,0,0
1874,-200,4,2,1,23,0,0
2100,-200,4,2,1,26,0,0
2325,-200,4,2,1,30,0,0
2664,-200,4,2,1,20,0,0
3566,-200,4,2,1,20,0,0
4017,-200,4,2,1,25,0,0
4243,-166.666666666667,4,2,1,20,0,0
4468,-166.666666666667,4,2,1,30,0,0
5032,-166.666666666667,4,2,1,40,0,0
5370,-166.666666666667,4,2,1,30,0,0
5483,-166.666666666667,4,2,1,33,0,0
5709,-166.666666666667,4,2,1,36,0,0
5934,-166.666666666667,4,2,1,40,0,0
6160,-166.666666666667,4,2,1,30,0,0
6837,-166.666666666667,4,2,1,40,0,0
7062,-166.666666666667,4,2,1,30,0,0
7400,-166.666666666667,4,2,1,40,0,0
7739,-142.857142857143,4,2,1,20,0,0
8077,-142.857142857143,4,2,1,35,0,0
8190,-142.857142857143,4,2,1,45,0,0
8528,-142.857142857143,4,2,1,35,0,0
8641,-142.857142857143,4,2,1,45,0,0
9430,-142.857142857143,4,2,1,35,0,0
9543,-142.857142857143,4,2,1,45,0,0
9882,-142.857142857143,4,2,1,35,0,0
9994,-142.857142857143,4,2,1,45,0,0
11009,-142.857142857143,4,2,1,45,0,0
11461,-125,4,2,1,25,0,0
11686,-125,4,2,1,40,0,0
11799,-125,4,2,1,50,0,0
12137,-125,4,2,1,40,0,0
12250,-125,4,2,1,30,0,0
12588,-125,4,2,1,40,0,0
12701,-125,4,2,1,50,0,0
13152,-125,4,2,1,35,0,0
13378,-125,4,2,1,50,0,0
13603,-125,4,2,1,40,0,0
14055,-125,4,2,1,50,0,0
14280,-125,4,2,1,43,0,0
14506,-125,4,2,1,50,0,0
14731,-125,4,2,1,46,0,0
15070,-133.333333333333,4,2,1,60,0,0
15859,-133.333333333333,4,2,1,20,0,0
15972,-133.333333333333,4,2,1,50,0,0
16761,-133.333333333333,4,2,1,20,0,0
16874,-133.333333333333,4,2,1,50,0,0
28942,-133.333333333333,4,2,1,40,0,0
29167,-133.333333333333,4,2,1,40,0,0
29506,-66.6666666666667,4,1,0,50,0,1
32325,-66.6666666666667,4,1,0,30,0,1
32551,-66.6666666666667,4,1,0,35,0,1
32776,-66.6666666666667,4,1,0,40,0,1
33002,-66.6666666666667,4,1,0,45,0,1
33115,-66.6666666666667,4,1,0,50,0,1
33115,-66.6666666666667,4,1,0,50,0,1
39543,-66.6666666666667,4,1,0,30,0,1
39769,-66.6666666666667,4,1,0,35,0,1
39994,-66.6666666666667,4,1,0,40,0,1
40333,-133.333333333333,4,2,1,50,0,0
43942,-100,4,2,1,50,0,0
54656,-100,4,2,1,30,0,0
54882,-100,4,2,1,50,0,0
55333,-100,4,2,1,35,0,0
55558,-100,4,2,1,50,0,0
56122,-100,4,2,1,40,0,0
56235,-100,4,2,1,50,0,0
56686,-100,4,2,1,45,0,0
56912,-100,4,2,1,50,0,0
57476,-133.333333333333,4,2,1,50,0,0
58378,-100,4,2,1,50,0,0
64919,-100,4,2,1,35,0,0
65258,-100,4,2,1,40,0,0
65483,-100,4,2,1,55,0,0
72814,-100,4,2,1,60,0,0
85446,-100,4,2,2,60,0,0
92664,-100,4,2,1,60,0,0
99882,-100,4,2,2,60,0,0
143303,-100,4,2,1,40,0,0
143528,-100,4,2,1,50,0,0
143754,-100,4,2,1,40,0,0
143979,-100,4,2,1,50,0,0
144205,-100,4,2,1,40,0,0
144430,-100,4,2,1,50,0,0
144656,-100,4,2,1,30,0,0
144882,-100,4,2,1,50,0,0
145107,-100,4,2,1,40,0,0
145333,-100,4,2,1,43,0,0
145558,-100,4,2,1,46,0,0
145784,-100,4,2,1,50,0,0
146009,-100,4,2,1,40,0,0
146235,-100,4,2,1,50,0,0
146461,-100,4,2,1,40,0,0
146686,-100,4,2,1,40,0,0
146912,-100,4,2,1,35,0,0
147814,-100,4,2,1,45,0,0
148491,-100,4,2,1,50,0,0
148716,-100,4,2,1,35,0,0
148942,-100,4,2,1,50,0,0
149167,-100,4,2,1,35,0,0
149393,-100,4,2,1,50,0,0
149618,-100,4,2,1,30,0,0
149844,-100,4,2,1,45,0,0
150070,-100,4,2,1,30,0,0
150408,-200,4,2,1,40,0,1
152212,-133.333333333333,4,2,1,45,0,1
153904,-125,4,2,1,45,0,1
154355,-117.647058823529,4,2,1,50,0,1
154806,-111.111111111111,4,2,1,50,0,1
155258,-105.263157894737,4,2,1,50,0,1
155821,-133.333333333333,4,2,1,40,0,0
157626,-100,4,2,2,40,0,0
164844,-100,4,2,2,50,0,1
170258,-133.333333333333,4,2,2,40,0,0
170483,-133.333333333333,4,2,1,20,0,0
170596,-133.333333333333,4,2,1,40,0,0
170934,-133.333333333333,4,2,1,30,0,0
171047,-133.333333333333,4,2,1,40,0,0
172062,-133.333333333333,4,2,2,60,0,0
172852,-133.333333333333,4,2,1,60,0,0
175671,-133.333333333333,4,2,2,60,0,0
176461,-133.333333333333,4,2,1,60,0,0
179280,-133.333333333333,4,2,2,60,0,0
180070,-133.333333333333,4,2,1,60,0,0
182889,-133.333333333333,4,2,2,60,0,0
183679,-133.333333333333,4,2,1,60,0,0
184694,-133.333333333333,4,2,2,60,0,0
186047,-100,4,2,1,60,0,0
200934,-100,4,2,1,60,0,0
201949,-100,4,2,1,50,0,0
202626,-100,4,2,1,60,0,0
206799,-100,4,2,1,35,0,0
207024,-100,4,2,1,40,0,0
207588,-100,4,2,1,45,0,0
208040,-100,4,2,1,40,0,0
208603,-100,4,2,1,35,0,0
209844,-100,4,2,1,50,0,0
210408,-100,4,2,1,45,0,0
211649,-100,4,2,1,60,0,0
212212,-100,4,2,1,55,0,0
213453,-100,4,2,1,60,0,0
215370,-100,4,1,2,60,0,0
222137,-66.6666666666667,4,2,1,60,0,0
222588,-100,4,2,1,60,0,0
229806,-133.333333333333,4,2,2,60,0,1
237024,-100,4,2,2,70,0,1
242438,-100,4,2,1,60,0,0

[HitObjects]
168,136,634,6,0,P|146:133|120:128,1,40
112,48,1085,2,0,P|133:50|160:56,1,40
224,80,1536,2,0,P|227:60|229:40,1,40
168,136,1987,1,0,0:0:0:0:
304,176,2212,1,0,0:0:0:0:
360,232,2438,6,0,P|357:253|352:280,1,40
272,288,2889,2,0,P|274:266|280:240,1,40
368,186,3340,2,0,P|388:188|408:192,1,40
416,320,3791,2,0,P|400:336|384:344,1,40
80,320,4243,6,0,L|40:288,1,47.9999985351563,4|0,0:0|0:0,0:0:0:0:
112,232,4694,2,0,L|88:168,1,47.9999985351563,2|0,0:0|0:0,0:0:0:0:
186,175,5145,2,0,L|192:128,1,47.9999985351563
192,128,5596,1,2,0:0:0:0:
224,264,5821,1,0,0:0:0:0:
344,296,6047,5,0,0:0:0:0:
320,208,6273,1,0,0:0:0:0:
320,208,6498,2,0,L|384:192,1,47.9999985351563,2|0,0:0|0:0,0:0:0:0:
424,144,6949,1,0,0:0:0:0:
344,296,7175,2,0,L|408:304,1,47.9999985351563,2|0,0:0|0:0,0:0:0:0:
472,312,7625,1,2,0:0:0:0:
344,296,7852,6,0,P|336:272|336:232,1,55.9999982910157,4|0,0:0|0:0,0:0:0:0:
168,256,8303,2,0,P|176:232|176:192,1,55.9999982910157,2|0,0:0|0:0,0:0:0:0:
312,136,8754,1,0,0:0:0:0:
184,80,8979,1,0,0:0:0:0:
312,136,9205,2,0,P|304:112|304:64,1,55.9999982910157,2|0,0:0|0:0,0:0:0:0:
408,192,9656,6,0,L|464:200,1,55.9999982910157
336,280,10107,1,2,0:0:0:0:
240,208,10333,1,0,0:0:0:0:
152,288,10558,1,0,0:0:0:0:
64,208,10784,2,0,P|56:232|56:272,2,55.9999982910157,2|0|2,0:0|0:0|0:0,0:0:0:0:
96,64,11461,6,0,L|184:48,1,64,4|0,0:0|0:0,0:0:0:0:
328,80,11912,2,0,L|256:112,1,64,2|0,0:0|0:0,0:0:0:0:
200,216,12363,2,0,L|158:168,1,64,4|0,0:0|0:0,0:0:0:0:
192,48,12814,1,2,0:0:0:0:
144,160,13040,1,0,0:0:0:0:
72,56,13265,5,4,0:0:0:0:
72,56,13491,1,0,0:0:0:0:
40,176,13716,2,0,L|56:237,1,64,4|0,0:0|0:0,0:0:0:0:
200,312,14167,5,0,0:0:0:0:
72,264,14393,1,4,0:0:0:0:
208,272,14618,1,0,0:3:0:0:
72,264,14844,1,8,1:3:0:0:
208,272,15070,6,2,B|280:288|280:288|328:264|328:264|408:288,1,210.000008010865,4|0,1:0|0:0,0:0:0:0:
257,185,15972,2,0,B|192:168|192:168|136:192|136:192|48:168,1,210.000008010865,0|0,1:0|0:0,0:0:0:0:
336,120,16874,2,0,B|400:136|400:136|432:120,1,90.0000034332277,0|0,1:0|0:0,0:0:0:0:
240,80,17325,2,2,B|182:66|182:66|152:72,1,90.0000034332277,2|0,0:0|0:0,0:0:0:0:
32,152,17776,1,8,0:0:0:0:
256,184,18002,1,0,0:0:0:0:
336,120,18227,1,2,0:0:0:0:
240,80,18453,1,0,0:0:0:0:
336,120,18679,6,0,L|368:192,1,60.0000022888184,0|0,1:0|0:0,0:0:0:0:
456,208,19130,1,4,0:0:0:0:
184,264,19581,2,0,L|144:328,1,60.0000022888184,0|0,1:0|0:0,0:0:0:0:
80,144,20032,1,4,0:0:0:0:
80,144,20258,1,0,0:0:0:0:
176,104,20483,5,0,1:0:0:0:
79,143,20709,1,0,0:0:0:0:
120,240,20934,1,4,0:0:0:0:
208,200,21160,1,0,0:0:0:0:
176,104,21385,1,0,1:0:0:0:
272,280,21611,2,0,L|328:304,2,60.0000022888184,0|4|2,0:0|0:0|0:0,0:0:0:0:
400,176,22288,6,0,L|416:248,1,60.0000022888184,0|0,1:0|0:0,0:0:0:0:
480,296,22739,1,4,0:0:0:0:
480,296,22964,1,0,0:0:0:0:
176,104,23190,2,0,L|160:176,1,60.0000022888184,0|0,1:0|0:0,0:0:0:0:
80,200,23641,1,4,0:0:0:0:
80,200,23867,1,0,0:0:0:0:
408,88,24092,6,0,L|336:104,1,60.0000022888184,0|0,1:0|0:0,0:0:0:0:
352,256,24543,2,0,L|424:272,1,60.0000022888184,4|0,0:0|0:0,0:0:0:0:
232,176,24994,1,0,1:0:0:0:
96,184,25220,2,0,P|64:184|24:192,2,60.0000022888184,0|4|0,0:0|0:0|0:0,0:0:0:0:
352,184,25897,6,0,L|359:125,1,60.0000022888184,4|0,1:0|0:0,0:0:0:0:
424,336,26348,2,0,L|512:344,1,60.0000022888184,4|0,1:2|0:0,0:0:0:0:
248,288,26799,2,0,L|160:296,1,60.0000022888184,0|0,1:0|0:0,0:0:0:0:
408,176,27250,2,0,L|496:168,1,60.0000022888184,0|0,1:0|0:0,0:0:0:0:
248,120,27701,2,0,L|40:136,1,180.000006866455,0|2,0:0|0:0,0:0:0:0:
68,133,28603,1,4,0:0:0:0:
384,64,29055,1,4,0:0:0:0:
344,344,29506,6,2,P|440:280|440:152,1,240.000009155274,4|4,1:0|2:0,0:0:0:0:
40,48,30182,2,2,P|160:64|280:72,1,240.000009155274,4|4,0:0|2:0,0:0:0:0:
272,112,30746,1,0,2:0:0:0:
256,144,30859,2,2,P|160:208|160:336,1,240.000009155274,4|4,0:0|2:0,0:0:0:0:
488,336,31536,2,2,P|424:240|296:240,1,240.000009155274,4|4,0:0|2:0,0:0:0:0:
40,344,32212,1,8,0:0:0:0:
40,344,32438,5,0,0:0:0:0:
288,248,32664,1,0,0:0:0:0:
104,192,32889,1,0,0:0:0:0:
80,144,33002,1,0,0:0:0:0:
88,96,33115,6,2,B|176:-16|320:72,1,240.000009155274,4|4,0:0|2:0,0:0:0:0:
424,336,33791,2,2,B|272:392|232:240,1,240.000009155274,4|4,0:0|2:0,0:0:0:0:
216,208,34355,1,0,2:0:0:0:
200,168,34468,2,2,B|184:112|216:40|216:40|336:32,1,240.000009155274,4|4,0:0|2:0,0:0:0:0:
440,200,35145,2,2,B|456:288|424:336|424:336|312:344,1,240.000009155274,4|4,0:0|2:0,0:0:0:0:
40,344,35821,1,8,0:0:0:0:
120,184,36047,1,10,2:0:0:0:
232,320,36273,1,8,0:0:0:0:
312,168,36498,1,8,0:0:0:0:
472,232,36724,6,2,L|480:360,2,120.000004577637,4|0|4,0:0|2:0|2:0,0:0:0:0:
440,200,37288,1,0,2:0:0:0:
416,152,37400,2,2,B|408:80|408:80|352:8|256:32,1,240.000009155274,4|4,0:0|2:0,0:0:0:0:
48,264,38077,2,2,B|40:112|208:120,1,240.000009155274,4|0,0:0|2:0,0:0:0:0:
360,320,38754,2,2,B|360:288|334:258|334:258|288:232,2,120.000004577637,4|0|4,0:0|2:0|2:0,0:0:0:0:
96,328,39430,1,8,0:0:0:0:
280,192,39656,5,10,0:2:0:0:
480,176,39882,1,12,2:0:0:0:
360,320,40107,1,0,0:0:0:0:
160,336,40333,6,0,L|64:352,1,90.0000034332277,4|0,1:0|0:0,0:0:0:0:
280,192,40784,2,0,L|392:232,1,90.0000034332277,4|0,1:0|0:0,0:0:0:0:
480,272,41235,2,0,L|473:311,2,40.000001525879,4|2|0,1:0|0:0|0:0,0:0:0:0:
464,144,41686,2,0,L|488:88,2,40.000001525879,4|0|2,1:0|0:0|0:0,0:0:0:0:
168,120,42137,1,8,0:0:0:0:
168,120,43942,6,0,L|304:112,1,120,2|0,1:2|0:0,0:0:0:0:
384,168,44393,1,2,2:0:0:0:
296,224,44618,2,0,L|328:312,1,80,0|2,0:0|0:0,0:0:0:0:
323,299,44957,2,0,L|424:296,1,80
216,264,45295,2,0,L|72:280,1,120,2|0,0:0|0:0,0:0:0:0:
48,200,45746,5,2,1:2:0:0:
192,48,45972,2,0,P|215:79|223:118,1,80,0|2,0:0|0:0,0:0:0:0:
184,184,46310,2,0,P|160:152|152:113,1,80
296,192,46649,2,0,L|448:200,1,120,2|0,0:0|0:0,0:0:0:0:
472,144,47100,1,2,0:0:0:0:
456,304,47325,1,0,0:0:0:0:
296,192,47551,6,0,P|239:175|187:202,1,120,2|0,1:2|0:0,0:0:0:0:
120,264,48002,1,2,0:0:0:0:
312,280,48227,2,0,P|352:304|400:312,1,80,0|2,0:0|0:0,0:0:0:0:
384,311,48566,2,0,L|464:304,1,80
184,200,48904,2,0,L|40:216,1,120,2|0,0:0|0:0,0:0:0:0:
32,304,49355,5,2,1:2:0:0:
264,112,49581,2,0,P|287:143|295:182,1,80,0|2,0:0|0:0,0:0:0:0:
224,288,49919,2,0,L|145:301,1,80
312,280,50258,2,0,P|368:304|440:288,1,120,2|0,0:0|0:0,0:0:0:0:
480,192,50709,1,2,0:0:0:0:
424,296,50934,1,0,0:0:0:0:
264,112,51160,6,0,L|136:128,1,120,2|0,1:2|0:0,0:0:0:0:
48,88,51611,1,8,2:0:0:0:
368,96,51836,2,0,L|400:184,1,80,0|2,1:0|0:0,0:0:0:0:
424,256,52175,2,0,L|328:272,1,80
88,328,52513,2,0,L|224:312,1,120,8|0,0:0|0:0,0:0:0:0:
320,248,52964,5,2,0:0:0:0:
192,48,53190,2,0,P|215:79|223:118,1,80,0|8,1:0|0:0,0:0:0:0:
104,176,53528,2,0,L|8:192,1,80
208,248,53867,2,0,L|360:256,1,120,2|0,1:2|0:0,0:0:0:0:
432,208,54318,1,8,0:0:0:0:
472,352,54543,1,0,0:0:0:0:
432,208,54769,6,0,P|400:160|424:88,1,120,4|0,1:2|0:0,0:0:0:0:
464,32,55220,1,8,0:0:0:0:
328,256,55445,2,0,P|296:216|296:168,1,80,4|2,1:2|0:0,0:0:0:0:
288,160,55784,2,0,P|291:120|304:80,1,80
184,184,56122,2,0,L|40:200,1,120,12|0,1:2|0:0,0:0:0:0:
16,112,56573,5,2,0:0:0:0:
184,184,56799,2,0,P|207:215|215:254,1,80,4|8,1:2|0:0,0:0:0:0:
198,338,57137,2,0,L|120:352,1,80
320,312,57476,6,0,P|384:272|384:144,1,210.000008010865,4|0,1:0|0:0,0:0:0:0:
192,112,58378,6,0,L|88:104,1,80,0|0,1:0|0:0,0:0:0:0:
96,88,58716,1,0,0:0:0:0:
80,72,58829,1,8,0:0:0:0:
264,48,59055,2,0,L|368:56,1,80,2|0,0:0|1:0,0:0:0:0:
368,64,59393,1,0,0:0:0:0:
400,72,59506,1,2,0:0:0:0:
216,128,59731,1,8,0:0:0:0:
112,200,59957,1,0,0:0:0:0:
112,200,60070,1,0,0:0:0:0:
112,200,60182,5,0,1:0:0:0:
248,232,60408,2,0,P|264:272|256:328,1,80,0|8,0:0|0:0,0:0:0:0:
152,328,60746,2,0,L|25:344,1,120,0|0,0:0|1:0,0:0:0:0:
112,200,61310,1,2,0:0:0:0:
256,336,61536,1,8,0:0:0:0:
336,144,61761,1,2,0:0:0:0:
336,117,61874,1,0,0:0:0:0:
320,88,61987,6,0,P|272:72|224:88,1,80,0|0,1:0|0:0,0:0:0:0:
216,88,62325,1,0,0:0:0:0:
192,112,62438,1,8,0:0:0:0:
32,288,62664,2,0,P|68:303|107:298,1,80,2|0,0:0|1:0,0:0:0:0:
272,248,63115,1,2,0:0:0:0:
128,296,63340,1,8,0:0:0:0:
288,328,63566,1,0,0:0:0:0:
320,320,63679,1,0,0:0:0:0:
352,312,63791,5,0,1:0:0:0:
408,248,64017,2,0,L|504:264,1,80,2|8,1:2|0:0,0:0:0:0:
344,176,64355,2,0,L|208:152,1,120,2|0,0:0|1:0,0:0:0:0:
48,192,65032,1,4,0:0:0:0:
448,160,65370,1,4,0:0:0:0:
416,264,65596,5,4,1:0:0:0:
344,176,65821,1,0,0:0:0:0:
344,176,65934,1,8,0:0:0:0:
448,160,66273,1,8,0:0:0:0:
400,208,66498,5,0,1:0:0:0:
272,112,66723,1,0,0:0:0:0:
272,112,66836,1,8,0:0:0:0:
416,40,67175,1,8,0:0:0:0:
368,120,67400,5,0,1:0:0:0:
312,288,67626,1,0,0:0:0:0:
312,288,67739,1,8,0:0:0:0:
184,160,68078,1,8,0:0:0:0:
288,192,68303,5,0,1:0:0:0:
104,232,68529,1,0,0:0:0:0:
104,232,68642,1,8,0:0:0:0:
160,48,68981,1,8,0:0:0:0:
184,160,69205,5,0,1:0:0:0:
184,184,69318,1,0,0:0:0:0:
192,208,69430,1,0,0:0:0:0:
208,232,69543,1,8,0:0:0:0:
312,152,69882,1,8,0:0:0:0:
424,64,70107,1,0,1:0:0:0:
440,96,70220,1,0,0:0:0:0:
448,128,70332,1,0,0:0:0:0:
448,160,70445,1,8,0:0:0:0:
312,152,70784,1,12,0:0:0:0:
224,64,71009,5,0,1:0:0:0:
200,192,71235,1,2,0:0:0:0:
200,192,71348,1,0,0:0:0:0:
200,192,71461,1,0,1:0:0:0:
288,280,71686,1,0,1:0:0:0:
464,344,71912,6,4,P|472:306|472:264,1,80,8|8,0:0|1:3,0:0:0:0:
40,192,72363,1,4,0:0:0:0:
424,200,72814,6,4,P|415:162|416:120,1,80,0|0,1:0|0:0,0:0:0:0:
448,40,73152,1,0,1:0:0:0:
272,256,73491,2,0,L|152:262,1,120,0|0,1:0|0:0,0:0:0:0:
40,192,73942,1,0,1:0:0:0:
48,328,74167,1,8,0:0:0:0:
48,328,74280,1,0,0:0:0:0:
48,328,74393,1,2,0:0:0:0:
152,264,74618,6,4,P|143:226|144:184,1,80,0|0,1:0|0:0,0:0:0:0:
168,88,74956,1,0,1:0:0:0:
272,288,75295,2,0,L|392:320,1,120,0|0,1:0|0:0,0:0:0:0:
480,264,75746,1,0,1:0:0:0:
336,176,75972,1,8,0:0:0:0:
312,168,76085,1,0,0:0:0:0:
288,160,76197,1,2,0:0:0:0:
264,152,76310,1,0,0:0:0:0:
240,144,76423,6,4,L|136:136,1,80,0|0,1:0|0:0,0:0:0:0:
64,112,76761,1,0,1:0:0:0:
216,296,77100,2,0,L|96:302,1,120,0|0,1:0|0:0,0:0:0:0:
32,208,77551,1,0,1:0:0:0:
80,320,77776,1,8,0:0:0:0:
168,128,78002,1,2,0:0:0:0:
224,280,78227,6,4,P|261:271|304:272,1,80,0|0,1:0|0:0,0:0:0:0:
400,304,78565,1,0,1:0:0:0:
144,104,78904,2,0,L|128:72,2,26.6666666666667,0|0|0,1:0|0:0|0:0,0:0:0:0:
168,128,79130,1,2,0:0:0:0:
200,144,79243,1,0,1:0:0:0:
232,136,79355,2,0,P|256:128|296:136,1,40,0|0,0:0|1:0,0:0:0:0:
464,168,79581,2,0,L|360:152,1,80,0|4,1:0|0:0,0:0:0:0:
88,280,80032,6,4,L|168:272,1,80,0|0,1:0|0:0,0:0:0:0:
200,288,80370,1,0,1:0:0:0:
232,304,80483,1,8,0:0:0:0:
344,48,80709,2,0,L|224:56,1,120,0|0,1:0|0:0,0:0:0:0:
96,32,81160,1,0,1:0:0:0:
224,56,81385,1,8,0:0:0:0:
240,88,81498,1,0,0:0:0:0:
248,128,81611,1,0,1:0:0:0:
56,256,81836,6,4,P|32:224|32:176,1,80,0|0,1:0|0:0,0:0:0:0:
32,152,82174,1,0,1:0:0:0:
40,128,82288,1,8,0:0:0:0:
176,160,82513,2,0,P|208:208|200:280,1,120,0|0,1:0|0:0,0:0:0:0:
168,360,82964,1,0,1:0:0:0:
304,280,83190,1,8,0:0:0:0:
328,256,83303,1,0,0:0:0:0:
360,240,83415,1,2,0:0:0:0:
400,240,83528,1,0,0:0:0:0:
429,253,83641,6,4,L|461:341,1,80,0|0,1:0|0:0,0:0:0:0:
456,328,83979,1,0,1:0:0:0:
456,328,84092,1,8,0:0:0:0:
440,120,84318,2,0,P|384:144|304:128,1,120,0|0,1:0|0:0,0:0:0:0:
216,80,84769,1,0,1:0:0:0:
72,184,84994,2,0,P|80:224|96:272,1,80,8|0,1:2|0:0,0:0:0:0:
456,328,85446,5,4,0:0:0:0:
360,352,85671,1,0,0:0:0:0:
360,352,85784,1,2,0:0:0:0:
456,248,86009,1,0,0:0:0:0:
320,280,86235,1,2,0:0:0:0:
368,200,86461,1,0,0:0:0:0:
360,176,86573,2,0,P|352:152|360:112,1,40,2|0,0:0|0:0,0:0:0:0:
260,72,86799,2,0,L|248:152,1,80,0|0,0:0|1:0,0:0:0:0:
56,328,87250,5,0,1:0:0:0:
176,312,87476,1,0,0:0:0:0:
176,312,87589,1,2,0:0:0:0:
24,240,87814,1,0,0:0:0:0:
192,216,88040,1,2,0:0:0:0:
96,152,88266,1,0,0:0:0:0:
88,120,88378,2,0,P|80:96|88:56,1,40,2|0,0:0|0:0,0:0:0:0:
192,216,88604,2,2,L|296:208,1,80,0|2,0:0|0:0,0:0:0:0:
456,328,89055,5,0,1:0:0:0:
328,272,89280,1,0,0:0:0:0:
328,272,89393,1,2,0:0:0:0:
160,312,89618,1,0,0:0:0:0:
208,144,89844,1,2,0:0:0:0:
184,288,90070,5,0,0:0:0:0:
208,176,90296,1,2,0:0:0:0:
288,256,90521,1,0,0:0:0:0:
288,256,90633,1,2,0:0:0:0:
280,120,90859,5,2,0:0:0:0:
280,120,90972,1,0,0:0:0:0:
128,224,91197,1,2,0:0:0:0:
256,344,91423,1,0,0:0:0:0:
256,344,91536,1,2,0:0:0:0:
448,320,91761,5,8,0:0:0:0:
224,216,91987,1,8,0:0:0:0:
472,176,92212,1,8,1:0:0:0:
216,72,92438,1,8,1:0:0:0:
48,280,92664,6,0,L|128:288,1,80,4|0,1:0|0:0,0:0:0:0:
264,216,93115,2,0,L|184:208,1,80,0|0,1:0|0:0,0:0:0:0:
272,336,93566,2,0,L|352:344,1,80,0|0,1:0|0:0,0:0:0:0:
480,264,94017,2,0,L|400:256,1,80,0|0,1:0|0:0,0:0:0:0:
216,264,94468,1,0,1:0:0:0:
280,200,94694,1,2,0:0:0:0:
192,272,94919,2,0,L|56:288,1,120,0|0,1:0|0:0,0:0:0:0:
56,272,95370,1,0,1:0:0:0:
40,248,95483,1,0,0:0:0:0:
32,224,95596,1,4,0:0:0:0:
32,200,95709,1,0,0:0:0:0:
32,176,95821,1,0,1:0:0:0:
40,152,95934,1,0,0:0:0:0:
48,128,96047,1,4,0:0:0:0:
120,64,96273,5,0,0:0:0:0:
184,136,96498,2,0,L|264:128,1,80,2|8,0:0|0:0,0:0:0:0:
376,272,96949,2,0,L|296:280,1,80,2|8,0:0|0:0,0:0:0:0:
280,288,97288,1,0,0:0:0:0:
264,296,97400,1,2,0:0:0:0:
384,160,97626,2,0,L|472:152,1,80,8|2,0:0|0:0,0:0:0:0:
472,40,98077,1,4,0:0:0:0:
256,192,98133,12,0,99882,0:0:0:0:
448,232,100333,5,0,1:0:0:0:
448,232,100784,1,0,1:0:0:0:
312,208,101235,1,0,1:0:0:0:
312,208,101686,1,0,1:0:0:0:
240,240,101912,1,0,0:0:0:0:
248,152,102137,1,0,1:0:0:0:
312,208,102363,1,0,0:0:0:0:
320,224,102476,1,0,0:0:0:0:
328,240,102588,1,0,1:0:0:0:
368,312,102814,1,0,0:0:0:0:
440,272,103040,1,0,1:0:0:0:
400,200,103265,1,0,0:0:0:0:
192,288,103491,5,0,1:0:0:0:
192,288,103716,2,0,L|96:280,1,80,0|0,0:0|1:0,0:0:0:0:
328,240,104167,2,0,L|424:248,1,80,0|0,0:0|1:0,0:0:0:0:
232,150,104618,2,0,L|152:144,1,80,0|0,0:0|1:0,0:0:0:0:
152,48,105070,1,0,0:0:0:0:
56,64,105295,1,0,1:0:0:0:
64,160,105521,1,0,0:0:0:0:
154,144,105746,1,0,1:0:0:0:
64,160,105972,1,0,0:0:0:0:
64,160,106085,1,0,0:0:0:0:
64,160,106197,2,0,P|52:205|48:256,1,80,0|0,1:0|0:0,0:0:0:0:
40,344,106649,1,0,1:0:0:0:
56,256,106874,1,4,0:0:0:0:
160,232,107100,5,4,1:2:0:0:
232,312,107325,2,0,P|264:320|328:320,1,80,2|0,0:2|1:0,0:0:0:0:
408,224,107776,1,2,0:0:0:0:
327,98,108002,2,0,P|295:90|231:90,1,80,0|2,1:2|0:0,0:0:0:0:
248,88,108340,1,0,0:0:0:0:
248,88,108453,2,0,L|236:180,1,80,0|2,1:0|0:0,0:0:0:0:
102,165,108904,2,0,P|72:228|88:284,1,120,0|2,1:0|0:0,0:0:0:0:
101,307,109355,1,0,1:0:0:0:
360,240,109694,1,0,0:0:0:0:
360,240,109806,1,0,1:0:0:0:
256,272,110032,1,2,0:0:0:0:
288,168,110258,1,0,1:0:0:0:
384,136,110483,1,2,0:0:0:0:
456,216,110709,6,0,L|448:304,1,80,0|2,1:0|0:0,0:0:0:0:
449,295,111047,1,0,0:0:0:0:
449,295,111160,1,0,1:0:0:0:
288,168,111385,1,2,0:0:0:0:
288,168,111611,2,0,L|280:80,1,80,0|2,1:0|0:0,0:0:0:0:
280,88,111949,1,0,0:0:0:0:
280,88,112062,1,0,1:0:0:0:
160,264,112288,2,0,P|176:296|192:344,1,80,2|0,0:0|1:0,0:0:0:0:
64,216,112739,1,2,0:0:0:0:
64,216,112964,2,0,P|32:168|48:96,1,120,0|0,1:0|0:0,0:0:0:0:
128,96,113415,2,0,L|224:88,1,80,0|2,1:0|0:0,0:0:0:0:
352,80,113867,1,4,0:0:0:0:
352,80,113979,1,0,0:0:0:0:
352,80,114092,1,0,0:0:0:0:
464,72,114318,5,4,0:0:0:0:
113,135,121536,5,4,0:0:0:0:
116,150,122438,1,0,1:0:0:0:
120,165,123340,1,0,1:0:0:0:
124,180,124243,1,0,1:0:0:0:
128,192,125145,5,0,1:0:0:0:
256,64,125596,1,0,1:0:0:0:
384,192,126047,1,0,1:0:0:0:
256,320,126498,1,0,1:0:0:0:
200,152,126949,5,0,1:0:0:0:
304,136,127175,1,0,1:0:0:0:
312,232,127400,1,0,1:0:0:0:
208,248,127626,1,0,1:0:0:0:
448,320,127852,5,4,0:0:0:0:
448,320,128754,6,0,P|437:282|440:240,1,80,4|0,1:0|0:0,0:0:0:0:
439,241,129092,1,0,0:0:0:0:
439,241,129205,2,0,L|336:232,1,80,8|2,0:0|0:0,0:0:0:0:
120,144,129656,2,0,L|206:149,1,80,0|0,1:0|0:0,0:0:0:0:
224,144,129994,1,0,0:0:0:0:
240,128,130107,1,8,0:0:0:0:
296,48,130333,1,4,0:0:0:0:
408,152,130671,1,0,1:0:0:0:
352,224,130897,1,0,0:0:0:0:
352,224,131009,1,8,0:0:0:0:
440,240,131235,1,2,0:0:0:0:
352,324,131461,5,0,1:0:0:0:
336,208,131686,1,0,0:0:0:0:
236,219,131912,1,8,0:0:0:0:
257,337,132137,1,0,0:0:0:0:
295,270,132363,5,0,1:0:0:0:
194,288,132588,1,2,0:0:0:0:
194,288,132701,1,0,0:0:0:0:
194,288,132814,2,0,L|22:303,1,160,8|0,0:0|1:0,0:0:0:0:
154,105,133491,2,0,L|250:121,1,80,2|8,0:0|0:0,0:0:0:0:
336,71,133942,1,4,0:0:0:0:
448,312,134280,5,8,0:0:0:0:
448,312,134393,1,0,0:0:0:0:
368,248,134618,2,0,L|256:272,1,80,8|0,0:0|0:0,0:0:0:0:
289,264,134957,2,0,L|240:256,1,40,8|0,0:0|0:0,0:0:0:0:
216,328,135182,2,0,L|272:336,1,40,8|0,0:0|0:0,0:0:0:0:
64,336,135521,1,8,0:0:0:0:
192,328,135746,1,8,0:0:0:0:
56,304,135972,6,0,P|45:267|48:224,1,80,0|2,1:0|0:0,0:0:0:0:
56,208,136310,1,0,0:0:0:0:
72,192,136423,1,8,0:0:0:0:
192,216,136649,1,2,0:0:0:0:
152,96,136874,1,0,1:0:0:0:
272,120,137100,1,2,0:0:0:0:
272,120,137212,1,0,0:0:0:0:
272,120,137325,6,0,P|309:109|352:112,1,80,8|2,0:0|0:0,0:0:0:0:
472,264,137889,1,2,0:0:0:0:
304,304,138115,1,0,0:0:0:0:
304,304,138227,1,8,0:0:0:0:
368,216,138453,5,2,0:0:0:0:
376,232,138566,1,0,1:0:0:0:
384,248,138679,1,0,0:0:0:0:
304,304,138904,1,0,1:0:0:0:
168,248,139130,1,8,0:0:0:0:
48,304,139355,1,2,0:0:0:0:
48,304,139581,6,0,L|40:224,1,80,0|0,1:0|0:0,0:0:0:0:
168,248,139919,1,0,0:0:0:0:
168,248,140032,2,0,L|168:152,1,80,0|0,1:0|0:0,0:0:0:0:
288,256,140370,1,0,0:0:0:0:
288,256,140483,2,0,L|304:168,1,80,0|0,1:0|0:0,0:0:0:0:
408,328,140821,1,0,0:0:0:0:
408,328,140934,2,0,L|440:248,1,80,0|0,1:0|1:0,0:0:0:0:
480,168,141273,1,0,1:0:0:0:
480,168,141385,5,4,1:0:0:0:
256,192,141442,12,4,143190,1:0:0:0:
248,192,143415,5,0,1:0:0:0:
248,120,143641,1,0,0:0:0:0:
312,160,143867,1,0,0:0:0:0:
200,256,144092,5,2,0:0:0:0:
320,232,144318,1,0,0:0:0:0:
176,104,144543,1,0,0:0:0:0:
312,72,144769,1,0,0:0:0:0:
48,336,144994,5,0,1:0:0:0:
128,328,145220,1,0,1:0:0:0:
128,248,145445,1,0,0:0:0:0:
48,256,145671,1,0,0:0:0:0:
360,288,145897,5,2,0:0:0:0:
448,328,146122,1,0,0:0:0:0:
440,224,146348,1,0,0:0:0:0:
360,288,146573,1,0,0:0:0:0:
264,288,146799,5,0,1:0:0:0:
328,160,147024,1,0,1:0:0:0:
208,96,147250,1,0,0:0:0:0:
152,224,147476,1,0,0:0:0:0:
288,96,147701,5,4,0:0:0:0:
304,280,147927,1,0,0:0:0:0:
144,200,148152,1,0,0:0:0:0:
288,96,148378,1,0,0:0:0:0:
464,192,148603,5,0,1:0:0:0:
480,272,148829,1,0,1:0:0:0:
80,272,149055,1,2,0:0:0:0:
48,192,149280,1,0,0:0:0:0:
376,144,149506,5,0,1:0:0:0:
376,144,149731,1,8,0:3:0:0:
160,320,149957,1,8,0:3:0:0:
160,320,150182,1,8,1:3:0:0:
302,145,150408,6,0,L|344:112,1,40,4|0,1:0|0:0,0:0:0:0:
264,264,150858,2,0,L|281:314,1,40,4|0,1:0|0:0,0:0:0:0:
176,168,151309,2,0,L|119:160,1,40,4|0,1:0|0:0,0:0:0:0:
360,80,152212,6,0,L|400:128,1,60.0000022888184,4|0,1:0|0:0,0:0:0:0:
128,128,152663,2,0,L|105:189,1,60.0000022888184,4|0,1:0|0:0,0:0:0:0:
312,288,153114,2,0,L|240:304,1,60.0000022888184,4|0,1:0|0:0,0:0:0:0:
104,96,154017,6,0,L|184:104,1,64,4|0,1:0|0:0,0:0:0:0:
376,328,154467,2,0,L|352:256,1,68.0000012969971,4|0,1:0|0:0,0:0:0:0:
120,336,154918,2,0,L|48:344,1,71.9999978027344,4|0,1:0|0:0,0:0:0:0:
368,72,155370,2,0,L|456:56,1,75.9999979705811,4|0,1:0|0:0,0:0:0:0:
256,192,155821,5,4,1:0:0:0:
256,192,156724,12,4,157626,1:0:0:0:
344,152,157964,5,0,1:0:0:0:
344,152,158077,1,0,0:0:0:0:
248,88,158303,1,0,1:0:0:0:
200,192,158528,1,4,0:0:0:0:
200,192,158641,2,0,P|196:235|208:272,1,80,0|0,0:0|1:0,0:0:0:0:
256,336,158979,1,0,0:0:0:0:
400,200,159205,2,0,P|416:120|368:48,1,160,0|0,1:0|0:0,0:0:0:0:
320,136,159769,6,0,L|264:152,1,40,0|0,1:0|0:0,0:0:0:0:
192,80,160107,1,0,1:0:0:0:
80,152,160333,2,0,P|64:216|88:272,1,120,0|0,0:0|1:0,0:0:0:0:
200,192,160784,1,0,0:0:0:0:
96,288,161009,1,0,1:0:0:0:
224,344,161235,5,0,1:0:0:0:
224,344,161348,1,0,0:0:0:0:
320,136,161574,1,0,1:0:0:0:
432,328,161799,1,0,0:0:0:0:
432,328,161912,1,0,1:0:0:0:
336,256,162137,2,0,L|384:240,1,40,0|0,1:0|0:0,0:0:0:0:
256,200,162363,2,0,P|240:208|208:216,1,40,0|0,0:0|1:0,0:0:0:0:
64,136,162588,2,0,P|110:140|160:152,1,80,0|0,0:0|1:0,0:0:0:0:
128,256,162927,5,0,0:0:0:0:
320,56,163152,2,0,P|272:64|216:64,1,80,0|0,2:0|1:0,0:0:0:0:
432,96,163604,1,0,0:0:0:0:
432,96,163717,1,0,1:0:0:0:
256,200,163942,2,0,P|294:211|334:214,1,80,0|0,1:0|0:0,0:0:0:0:
335,214,164280,2,0,L|392:288,1,80,0|0,1:0|0:0,0:0:0:0:
56,128,164618,1,4,1:2:0:0:
56,128,164844,6,0,P|66:168|72:216,1,80,4|2,1:0|0:0,0:0:0:0:
176,224,165182,2,0,P|166:263|160:312,1,80,8|0,0:0|0:0,0:0:0:0:
40,344,165521,1,8,0:0:0:0:
168,64,165746,2,0,P|206:58|272:56,1,80,12|2,0:0|0:0,0:0:0:0:
416,136,166085,2,0,P|371:133|312:128,1,80,8|0,0:0|0:0,0:0:0:0:
448,32,166423,1,8,0:0:0:0:
304,320,166649,1,4,1:0:0:0:
296,296,166761,1,0,0:0:0:0:
288,272,166874,1,2,0:0:0:0:
280,240,166987,6,0,L|296:160,1,80,8|0,0:0|0:0,0:0:0:0:
72,200,167325,1,8,0:0:0:0:
72,200,167551,2,0,L|152:216,1,80,4|0,0:0|0:0,0:0:0:0:
200,120,167889,1,8,0:0:0:0:
200,120,168002,2,0,L|240:120,1,40,4|0,0:0|0:0,0:0:0:0:
464,208,168227,1,8,0:0:0:0:
392,80,168453,6,0,L|384:144,1,40,4|0,1:0|0:0,0:0:0:0:
320,216,168679,2,0,L|316:177,1,40,0|8,0:0|0:0,0:0:0:0:
400,280,168904,2,0,L|396:320,1,40,4|0,0:0|0:0,0:0:0:0:
240,280,169130,2,0,L|236:241,1,40,8|0,0:0|0:0,0:0:0:0:
127,204,169355,2,0,L|88:200,1,40,12|0,0:0|0:0,0:0:0:0:
80,304,169581,2,0,L|84:343,2,40,0|8|0,0:0|0:0|0:0,0:0:0:0:
48,88,170032,1,8,0:0:0:0:
256,192,170258,6,0,L|328:184,1,60.0000022888184,4|0,1:0|0:0,0:0:0:0:
448,312,170709,2,0,L|376:320,1,60.0000022888184
240,40,171160,6,0,L|248:120,1,60.0000022888184,0|0,1:0|1:0,0:0:0:0:
80,304,171611,2,0,L|72:240,1,60.0000022888184,0|8,1:0|0:3,0:0:0:0:
256,192,172062,6,2,P|344:216|344:320,1,210.000008010865,4|0,1:0|0:0,0:0:0:0:
216,264,172964,1,8,0:0:0:0:
160,256,173115,1,0,0:0:0:0:
128,216,173265,1,2,0:0:0:0:
112,168,173415,1,0,0:0:0:0:
120,152,173528,1,0,0:0:0:0:
128,136,173641,1,0,1:0:0:0:
136,120,173754,1,0,0:0:0:0:
144,104,173867,6,0,L|232:96,1,60.0000022888184,0|0,0:0|1:0,0:0:0:0:
400,96,174318,2,0,L|416:120,5,20.0000007629395
384,80,174769,2,0,P|354:74|312:72,1,60.0000022888184,8|0,1:2|0:0,0:0:0:0:
272,144,175107,2,0,P|304:152|344:152,1,60.0000022888184,8|8,0:0|0:0,0:0:0:0:
408,208,175446,1,0,1:0:0:0:
248,32,175671,6,2,P|160:56|160:160,1,210.000008010865,0|0,1:0|0:0,0:0:0:0:
160,160,176573,1,8,0:0:0:0:
296,232,176799,1,2,0:0:0:0:
176,176,177024,1,2,0:0:0:0:
48,248,177250,6,0,L|56:336,1,60.0000022888184,0|0,1:0|0:0,0:0:0:0:
72,320,177588,1,0,0:0:0:0:
88,328,177701,1,0,1:0:0:0:
104,336,177814,1,0,0:0:0:0:
120,344,177927,1,8,0:0:0:0:
160,312,178078,1,0,0:0:0:0:
216,296,178228,1,2,0:0:0:0:
264,296,178378,2,0,P|294:302|336:304,1,60.0000022888184,8|0,1:2|0:0,0:0:0:0:
376,232,178716,2,0,P|344:224|304:224,1,60.0000022888184,0|0,1:0|0:0,0:0:0:0:
456,280,179055,1,0,1:0:0:0:
104,104,179280,6,2,P|128:192|240:208,1,210.000008010865,0|0,1:0|0:0,0:0:0:0:
328,144,180182,2,0,P|360:136|408:136,2,60.0000022888184,8|2|2,0:0|0:0|0:0,0:0:0:0:
200,56,180859,6,0,L|112:48,1,60.0000022888184,0|0,1:0|0:0,0:0:0:0:
120,56,181197,1,0,0:0:0:0:
104,64,181310,1,0,1:0:0:0:
88,72,181423,1,0,0:0:0:0:
72,80,181536,2,0,L|56:56,5,20.0000007629395,0|0|0|0|2|0,1:0|0:0|0:0|0:0|0:0|0:0,0:0:0:0:
72,96,181987,2,0,P|66:126|64:160,2,40.000001525879,8|0|0,1:2|0:0|0:0,0:0:0:0:
280,200,182438,2,0,P|288:168|288:144,2,40.000001525879,2|0|0,0:0|0:0|1:2,0:0:0:0:
168,216,182889,6,2,P|80:240|80:344,1,210.000008010865,0|0,1:0|0:0,0:0:0:0:
80,344,183791,1,8,0:0:0:0:
208,232,184017,1,2,0:0:0:0:
336,336,184242,1,2,0:0:0:0:
432,216,184468,2,0,L|456:240,2,20.0000007629395
416,192,184694,6,0,P|416:160|408:120,1,60.0000022888184,0|0,1:0|0:0,0:0:0:0:
296,88,185032,2,0,P|296:120|304:160,1,60.0000022888184,0|8,1:0|0:0,0:0:0:0:
152,56,185370,2,0,P|184:56|224:64,1,60.0000022888184,0|8,1:0|0:0,0:0:0:0:
144,160,185708,2,0,P|112:160|72:152,1,60.0000022888184,0|8,1:0|0:0,0:0:0:0:
248,224,186047,2,2,P|312:280|312:360,1,160,0|4,1:0|1:0,0:0:0:0:
256,192,199130,12,2,200934,1:2:0:0:
136,280,201160,5,0,0:0:0:0:
144,304,201273,1,0,0:0:0:0:
152,328,201385,1,2,1:2:0:0:
272,272,201611,2,0,P|256:233|240:184,1,80,0|2,0:0|1:2,0:0:0:0:
384,208,202062,2,0,P|423:270|472:360,1,160,8|8,0:0|0:0,0:0:0:0:
280,288,202739,6,0,P|221:300|136:304,1,120,2|0,1:2|0:0,0:0:0:0:
80,296,203190,1,2,1:2:0:0:
216,112,203415,2,0,P|256:104|296:104,1,80,0|2,0:0|1:2,0:0:0:0:
384,208,203867,1,0,0:0:0:0:
280,288,204092,1,2,1:2:0:0:
175,183,204318,1,0,0:0:0:0:
175,183,204543,6,0,P|135:183|31:199,1,120,2|0,1:2|0:0,0:0:0:0:
55,193,204994,1,2,1:2:0:0:
280,288,205220,2,0,P|315:296|384:304,1,80,0|2,0:0|1:2,0:0:0:0:
456,224,205671,1,0,0:0:0:0:
344,176,205897,1,2,1:2:0:0:
358,302,206122,1,0,0:0:0:0:
456,224,206348,6,0,P|472:168|464:104,1,120,2|0,1:2|0:0,0:0:0:0:
465,107,206799,1,4,0:0:0:0:
144,64,207250,1,4,0:0:0:0:
256,328,207701,2,2,L|352:320,1,80,4|2,0:0|0:0,0:0:0:0:
152,224,208152,6,2,L|56:232,1,80,4|0,0:0|0:0,0:0:0:0:
56,240,208491,1,0,0:0:0:0:
48,256,208603,1,4,0:0:0:0:
296,184,208829,1,0,0:0:0:0:
296,184,209055,2,2,L|424:192,1,120,4|0,0:0|0:0,0:0:0:0:
208,80,209506,2,2,L|112:72,1,80,4|2,0:0|0:0,0:0:0:0:
40,208,209957,2,2,L|168:216,1,120,4|0,0:0|0:0,0:0:0:0:
336,320,210408,2,2,L|240:312,1,80,4|2,0:0|0:0,0:0:0:0:
159,215,210859,1,4,0:0:0:0:
208,80,211085,1,0,0:0:0:0:
296,184,211310,1,4,0:0:0:0:
256,313,211536,1,2,0:0:0:0:
160,216,211761,5,4,0:0:0:0:
288,224,211987,1,0,0:0:0:0:
224,104,212212,2,4,P|184:91|144:88,1,80,4|2,0:0|0:0,0:0:0:0:
40,184,212664,2,4,P|80:197|120:200,1,80,4|0,0:0|0:0,0:0:0:0:
296,184,213115,1,4,0:0:0:0:
424,32,213340,1,2,0:0:0:0:
296,184,213566,5,4,1:0:0:0:
312,288,213791,1,0,1:0:0:0:
416,272,214017,1,0,1:0:0:0:
400,168,214242,1,0,1:0:0:0:
104,128,214468,2,0,P|72:256|178:333,1,280,4|0,0:0|0:0,0:0:0:0:
256,192,215370,5,4,1:0:0:0:
144,192,216949,1,0,0:0:0:0:
144,192,217175,1,0,0:0:0:0:
368,192,218754,1,0,0:0:0:0:
368,192,218980,1,0,0:0:0:0:
256,304,220558,1,0,0:0:0:0:
256,304,220784,1,0,0:0:0:0:
256,80,222137,2,0,P|184:96|176:208,1,180.000006866455
256,304,222588,6,0,P|296:304|352:296,1,80,8|0,0:0|0:0,0:0:0:0:
328,160,222927,2,0,P|288:160|232:168,1,80,8|0,0:0|0:0,0:0:0:0:
440,224,223265,1,8,0:0:0:0:
328,160,223491,2,0,P|328:120|336:64,1,80,8|0,0:0|0:0,0:0:0:0:
440,224,223830,2,0,P|440:264|432:320,1,80,8|0,0:0|0:0,0:0:0:0:
448,48,224168,1,8,0:0:0:0:
332,80,224393,6,0,L|240:72,1,80,8|0,0:2|0:0,0:0:0:0:
104,136,224731,2,0,L|196:127,1,80,8|0,0:0|0:0,0:0:0:0:
48,40,225070,1,8,1:2:0:0:
183,128,225295,2,0,P|186:169|192:224,1,80,8|0,0:0|0:0,0:0:0:0:
312,320,225633,2,0,L|312:240,1,80,8|0,0:0|0:0,0:0:0:0:
96,280,225972,1,8,1:2:0:0:
312,320,226197,6,0,L|416:328,1,80,8|2,1:2|0:0,0:0:0:0:
232,112,226536,2,0,L|240:216,1,80,8|2,1:2|0:0,0:0:0:0:
336,40,226874,1,8,1:2:0:0:
488,144,227100,6,0,P|450:150|384:152,1,80,8|2,1:2|0:0,0:0:0:0:
248,192,227439,2,0,L|241:271,1,80,8|2,1:2|0:0,0:0:0:0:
56,336,227777,1,8,1:2:0:0:
40,112,228002,1,4,1:0:0:0:
40,112,228904,2,0,L|176:96,2,120,0|8|8,1:0|0:3|1:3,0:0:0:0:
232,176,229806,6,0,P|280:256|240:344,1,180.000006866455,4|4,1:0|0:0,0:0:0:0:
232,80,230709,2,0,L|312:72,1,60.0000022888184,0|0,1:0|0:0,0:0:0:0:
320,72,231047,1,8,0:3:0:0:
352,80,231160,1,0,0:0:0:0:
376,88,231273,1,0,0:0:0:0:
400,96,231385,1,12,1:3:0:0:
288,320,231611,6,4,P|248:272|256:200,1,120.000004577637,4|2,1:3|0:0,1:3:0:0:
400,96,232288,1,4,0:0:0:0:
448,248,232513,2,0,P|414:238|376:240,1,60.0000022888184,8|0,0:0|0:0,0:0:0:0:
288,320,232852,2,0,P|321:329|360:328,1,60.0000022888184,8|8,0:0|0:0,0:0:0:0:
152,328,233190,1,4,1:3:0:0:
72,240,233415,6,0,P|32:168|80:80,1,180.000006866455,4|4,1:3|0:0,0:0:0:0:
184,216,234318,1,0,1:0:0:0:
288,320,234543,1,0,0:0:0:0:
288,160,234769,1,0,0:0:0:0:
400,256,234994,1,0,1:0:0:0:
288,160,235220,2,0,P|272:120|272:64,2,90.0000034332277,4|8|4,1:3|0:0|0:0,0:0:0:0:
432,304,236122,5,8,1:2:0:0:
456,256,236273,1,8,1:2:0:0:
456,200,236423,1,8,1:2:0:0:
432,152,236573,1,12,1:2:0:0:
224,216,236799,1,0,0:0:0:0:
224,216,236912,1,2,0:0:0:0:
224,216,237024,6,8,L|88:208,1,120,4|8,1:0|0:1,0:0:0:0:
32,224,237476,1,0,1:0:0:0:
320,160,237701,1,8,0:1:0:0:
320,160,237927,2,0,P|336:200|328:288,1,120,0|8,1:0|0:1,0:0:0:0:
320,296,238378,1,0,1:0:0:0:
304,312,238491,1,0,0:0:0:0:
288,328,238603,1,8,0:1:0:0:
464,288,238829,6,0,P|480:232|448:152,1,120,4|8,1:0|0:1,0:0:0:0:
264,48,239280,2,0,L|344:64,1,80,0|8,1:0|0:1,0:0:0:0:
40,152,239731,2,0,P|80:128|160:136,1,120,0|8,1:0|0:1,0:0:0:0:
168,152,240182,1,0,1:0:0:0:
176,176,240295,1,0,0:0:0:0:
176,208,240408,1,8,0:1:0:0:
304,216,240633,5,4,1:0:0:0:
312,176,240746,1,0,0:0:0:0:
312,136,240859,1,2,0:0:0:0:
296,96,240972,1,8,0:1:0:0:
272,72,241085,2,0,P|232:48|184:48,1,80,0|8,1:0|0:1,0:0:0:0:
200,288,241536,2,0,P|256:320|328:304,1,120,0|8,1:0|0:1,0:0:0:0:
456,224,241987,2,0,L|480:304,1,80,0|8,1:0|0:1,0:0:0:0:
48,96,242438,5,4,1:0:0:0:
