osu file format v14

[General]
AudioFilename: song.mp3
AudioLeadIn: 0
PreviewTime: 131062
Countdown: 0
SampleSet: Normal
StackLeniency: 0.7
Mode: 0
LetterboxInBreaks: 0
WidescreenStoryboard: 1

[Editor]
Bookmarks: 100159,154069,159934,182490
DistanceSpacing: 1.8
BeatDivisor: 4
GridSize: 32
TimelineZoom: 1.2

[Metadata]
Title:Daft Punk
TitleUnicode:Daft Punk
Artist:Pentatonix
ArtistUnicode:Pentatonix
Creator:DarknessAngel
Version:Insane
Source:
Tags:ptx medley technologic one more time get lucky digital love harder better faster stronger television rules the nation around moway
BeatmapID:659774
BeatmapSetID:292896

[Difficulty]
HPDrainRate:7
CircleSize:4
OverallDifficulty:7
ApproachRate:8.5
SliderMultiplier:2
SliderTickRate:1

[Events]
//Background and Video events
Video,-100,"video.avi"
0,0,"BG.jpg",0,0
//Break Periods
2,189908,203469
//Storyboard Layer 0 (Background)
//Storyboard Layer 1 (Fail)
//Storyboard Layer 2 (Pass)
//Storyboard Layer 3 (Foreground)
//Storyboard Sound Samples

[TimingPoints]
3844,451.127819548872,4,2,1,50,1,0
32716,-100,4,1,2,70,0,0
44445,-100,4,2,1,60,0,0
47152,-100,4,2,1,35,0,0
61588,-100,4,1,1,50,0,0
75573,-66.6666666666667,4,1,2,50,0,0
76024,-100,4,1,1,50,0,0
88656,-100,4,2,1,50,0,0
95874,-100,4,2,1,50,0,0
103092,-100,4,1,2,50,0,0
103317,-100,4,2,1,50,0,0
117528,-100,4,1,1,50,0,0
117640,-100,4,2,1,50,0,0
131964,-100,4,1,1,60,0,1
145949,-100,4,2,1,20,0,1
146400,-100,4,2,1,50,0,0
153618,-100,4,1,2,50,0,0
168054,-100,4,1,1,50,0,0
173468,-200,4,1,1,50,0,0
173919,-100,4,2,1,50,0,0
175272,-100,4,1,2,60,0,0
225347,-100,4,1,2,70,0,0
233016,-133.333333333333,4,1,2,70,0,1
239332,-100,4,1,1,60,0,0
240234,-100,4,1,1,60,0,1
245648,-100,4,2,1,50,0,0
247001,-100,4,2,1,30,0,0

[Colours]
Combo1 : 255,151,47
Combo2 : 223,223,223
Combo3 : 111,255,255
Combo4 : 166,77,255

[HitObjects]
199,134,3843,6,0,L|97:138,1,100,2|0,0:0|0:0,0:0:0:0:
313,250,4295,2,0,L|415:246,1,100
330,122,4746,1,2,0:0:0:0:
182,262,4971,1,0,0:0:0:0:
199,134,5197,1,0,0:0:0:0:
313,250,5422,1,0,0:0:0:0:
403,184,5648,6,0,B|422:135|422:135|415:82,1,100,2|0,0:0|0:0,0:0:0:0:
313,250,6099,2,0,L|387:334,1,100
109,184,6550,2,0,B|90:135|90:135|97:82,1,100,2|0,0:0|0:0,0:0:0:0:
199,250,7001,2,0,L|125:334,1,100
256,160,7453,5,2,0:0:0:0:
350,103,7678,1,0,0:0:0:0:
441,164,7904,2,0,B|482:129|482:129|501:81,1,100
256,160,8355,1,2,0:0:0:0:
162,103,8580,1,0,0:0:0:0:
71,164,8806,2,0,B|30:129|30:129|11:81,1,100
256,160,9257,6,0,L|171:228,1,100,2|0,0:0|0:0,0:0:0:0:
256,160,9708,2,0,L|341:228,1,100
171,318,10159,2,0,B|117:317|117:317|62:286,1,100,2|0,0:0|0:0,0:0:0:0:
341,318,10610,2,0,B|395:317|395:317|450:286,1,100
297,115,11062,5,2,0:0:0:0:
189,137,11287,1,0,0:0:0:0:
210,245,11513,1,0,0:0:0:0:
317,224,11738,1,0,0:0:0:0:
105,210,11964,1,2,0:0:0:0:
399,154,12189,1,0,0:0:0:0:
225,33,12415,1,0,0:0:0:0:
284,329,12640,1,0,0:0:0:0:
189,137,12866,5,2,0:0:0:0:
399,154,13092,1,0,0:0:0:0:
210,245,13317,1,0,0:0:0:0:
225,33,13543,1,0,0:0:0:0:
317,224,13768,1,2,0:0:0:0:
105,210,13994,1,0,0:0:0:0:
284,329,14219,1,0,0:0:0:0:
297,115,14445,1,0,0:0:0:0:
142,110,14671,6,0,B|92:101|92:101|57:62,1,100,2|0,0:0|0:0,0:0:0:0:
105,210,15122,2,0,B|52:203|52:203|2:158,1,100
370,274,15573,2,0,B|420:283|420:283|455:322,1,100,2|0,0:0|0:0,0:0:0:0:
407,174,16024,2,0,B|460:181|460:181|510:226,1,100
297,111,16475,5,2,0:0:0:0:
215,273,16701,1,0,0:0:0:0:
378,91,16926,1,0,0:0:0:0:
134,293,17152,1,0,0:0:0:0:
199,82,17377,1,2,0:0:0:0:
313,302,17603,1,0,0:0:0:0:
211,168,17828,1,0,0:0:0:0:
301,216,18054,1,0,0:0:0:0:
127,212,18280,6,0,B|99:168|99:168|125:91|48:31,1,200,12|0,0:0|0:0,0:0:0:0:
385,212,19182,2,0,B|413:168|413:168|387:91|464:31,1,200,8|0,0:0|0:0,0:0:0:0:
208,317,20084,6,0,P|267:325|311:315,1,100,8|0,0:0|0:0,0:0:0:0:
306,192,20535,2,0,P|257:184|208:193,1,100
80,258,20986,1,8,0:0:0:0:
432,258,21437,1,0,0:0:0:0:
255,87,21889,6,0,B|150:84|129:148|56:89,1,200,8|0,0:0|0:0,0:0:0:0:
257,297,22791,2,0,B|362:300|383:236|456:295,1,200,8|0,0:0|0:0,0:0:0:0:
134,244,23693,6,0,P|126:298|137:350,1,100,8|0,0:0|0:0,0:0:0:0:
378,140,24144,2,0,P|386:86|375:34,1,100
123,78,24595,1,8,0:0:0:0:
389,306,25047,1,0,0:0:0:0:
52,268,25498,5,8,0:0:0:0:
134,195,25723,1,0,0:0:0:0:
215,269,25949,2,0,P|271:266|315:241,1,100
452,139,26400,1,8,0:0:0:0:
370,66,26625,1,0,0:0:0:0:
289,140,26851,2,0,P|233:137|189:112,1,100
80,78,27302,6,0,P|42:172|54:277,1,200,8|0,0:0|0:0,0:0:0:0:
129,345,27979,1,0,0:0:0:0:
203,264,28204,2,0,P|250:249|303:242,1,100,8|0,0:0|0:0,0:0:0:0:
373,325,28656,2,0,P|326:340|273:347,1,100
430,235,29107,5,8,0:0:0:0:
82,149,29558,1,8,0:0:0:0:
370,64,30009,1,8,0:0:0:0:
142,320,30460,1,8,0:0:0:0:
292,38,30911,5,0,0:0:0:0:
176,134,31137,1,0,0:0:0:0:
274,246,31362,1,0,0:0:0:0:
142,320,31588,1,0,0:0:0:0:
38,46,31813,5,2,0:0:0:0:
474,338,32265,1,0,0:0:0:0:
199,149,32716,6,0,B|166:186|163:225|163:225|60:169,1,200,6|0,0:0|0:0,0:0:0:0:
313,149,33392,2,0,B|346:186|349:225|349:225|452:169,1,200,6|0,0:0|0:0,0:0:0:0:
199,172,34069,6,0,B|166:209|163:248|163:248|60:192,1,200,6|0,0:0|0:0,0:0:0:0:
313,172,34745,2,0,B|346:209|349:248|349:248|452:192,1,200,6|0,0:0|0:0,0:0:0:0:
444,84,35422,1,10,0:0:0:0:
337,54,35648,2,0,B|288:46|288:46|239:55,2,100
190,162,36325,6,0,B|76:268|76:268|22:257,1,200,6|0,0:0|0:0,0:0:0:0:
207,185,37001,6,0,B|93:291|93:291|39:280,1,200,6|0,0:0|0:0,0:0:0:0:
222,203,37678,6,0,B|108:309|108:309|54:298,1,200,6|0,0:0|0:0,0:0:0:0:
239,226,38354,6,0,B|125:332|125:332|71:321,1,200,6|0,0:0|0:0,0:0:0:0:
157,155,39031,1,10,0:0:0:0:
277,319,39257,1,10,0:0:0:0:
87,217,39483,1,10,0:0:0:0:
211,378,39708,1,10,0:0:0:0:
334,251,39934,6,0,B|380:230|380:230|394:284|516:298,1,200,6|0,0:0|0:0,0:0:0:0:
334,251,40610,2,0,B|313:205|313:205|367:191|381:69,1,200,6|0,0:0|0:0,0:0:0:0:
178,251,41287,6,0,B|199:205|199:205|145:191|131:69,1,200,6|0,0:0|0:0,0:0:0:0:
178,251,41964,2,0,B|132:230|132:230|118:284|-4:298,1,200,6|0,0:0|0:0,0:0:0:0:
40,192,42640,1,10,0:0:0:0:
122,119,42866,2,0,B|69:106|69:106|32:66,2,100
323,100,43543,6,0,L|436:81,1,100,2|0,0:0|0:0,0:0:0:0:
394,250,43994,2,0,L|507:269,1,100,2|0,0:0|0:0,0:0:0:0:
208,248,44445,6,0,L|271:268,1,66.6666666666667,8|2,0:0|0:0,0:0:0:0:
178,172,44746,2,0,L|246:146,1,66.6666666666667,2|8,0:0|0:0,0:0:0:0:
115,295,45047,2,0,L|183:321,1,66.6666666666667,2|2,0:0|0:0,0:0:0:0:
85,125,45347,5,10,0:0:0:0:
459,103,47152,6,0,P|403:103|352:120,1,100,10|0,0:0|0:0,0:0:0:0:
317,156,47490,1,2,0:0:0:0:
317,156,47603,1,8,0:0:0:0:
67,226,47828,2,0,P|123:226|174:243,1,100,2|8,0:0|0:0,0:0:0:0:
212,275,48166,1,2,0:0:0:0:
212,275,48279,1,0,0:0:0:0:
372,291,48505,1,10,0:0:0:0:
144,102,48843,1,2,0:0:0:0:
144,102,48956,6,0,P|97:111|20:89,2,100,8|2|8,0:0|0:0|0:0,0:0:0:0:
199,79,49520,2,0,P|256:73|311:87,1,100,2|0,0:0|0:0,0:0:0:0:
351,109,49859,2,0,L|440:43,1,100,10|0,0:0|0:0,0:0:0:0:
491,51,50197,1,2,0:0:0:0:
498,110,50310,2,0,L|423:194,1,100,8|2,0:0|0:0,0:0:0:0:
244,304,50761,6,0,L|343:304,1,100,10|0,0:0|0:0,0:0:0:0:
393,269,51099,2,0,L|338:270,1,50,2|8,0:0|0:0,0:0:0:0:
59,242,51437,2,0,L|33:136,1,100,2|8,0:0|0:0,0:0:0:0:
61,90,51776,2,0,L|74:146,1,50,2|0,0:0|0:0,0:0:0:0:
246,171,52114,2,0,L|361:153,1,100,10|0,0:0|0:0,0:0:0:0:
377,104,52453,2,0,L|322:110,1,50,2|8,0:0|0:0,0:0:0:0:
122,175,52791,5,2,0:0:0:0:
161,277,53016,1,8,0:0:0:0:
161,277,53129,2,0,P|236:302|291:354,1,150,2|10,0:0|0:0,0:0:0:0:
397,338,53693,1,0,0:0:0:0:
397,338,53806,1,2,0:0:0:0:
397,338,53919,1,8,0:0:0:0:
481,268,54144,1,2,0:0:0:0:
423,118,54370,5,10,0:0:0:0:
193,48,54708,1,2,0:0:0:0:
241,83,54821,2,0,P|294:80|341:62,2,100,8|2|8,0:0|0:0|0:0,0:0:0:0:
193,48,55385,2,0,P|117:61|48:90,2,150,2|10|2,0:0|0:0|0:0,0:0:0:0:
241,83,56174,6,0,P|266:136|275:185,1,100,8|2,0:0|0:0,0:0:0:0:
176,246,56625,1,8,0:0:0:0:
176,246,56738,1,2,0:0:0:0:
176,246,56851,2,0,P|208:289|250:332,2,100,0|10|0,0:0|0:0|0:0,0:0:0:0:
124,214,57415,2,0,L|69:204,1,50,2|8,0:0|0:0,0:0:0:0:
334,296,57753,1,2,0:0:0:0:
425,197,57979,6,0,P|430:135|423:80,1,100,10|0,0:0|0:0,0:0:0:0:
366,100,58317,2,0,L|389:45,1,50,2|8,0:0|0:0,0:0:0:0:
194,36,58656,2,0,P|189:98|196:153,1,100,2|8,0:0|0:0,0:0:0:0:
253,133,58994,2,0,L|230:188,1,50,2|0,0:0|0:0,0:0:0:0:
150,339,59332,2,0,P|88:344|33:337,1,100,10|0,0:0|0:0,0:0:0:0:
53,280,59670,2,0,L|-2:303,1,50,2|8,0:0|0:0,0:0:0:0:
286,242,60009,5,2,0:0:0:0:
286,242,60122,2,0,L|334:275,1,50,0|8,0:0|0:0,0:0:0:0:
369,337,60347,2,0,L|326:312,1,50,0|2,0:0|0:0,0:0:0:0:
117,246,60686,2,0,B|75:152|163:37|286:53,1,300
451,119,61588,5,4,0:0:0:0:
358,178,61813,1,0,0:0:0:0:
332,176,61926,1,0,0:0:0:0:
307,174,62039,1,0,0:0:0:0:
219,106,62265,2,0,P|168:102|117:115,1,100
37,185,62716,1,0,0:0:0:0:
28,208,62828,1,0,0:0:0:0:
18,231,62941,1,0,0:0:0:0:
74,325,63167,1,0,0:0:0:0:
238,255,63392,5,0,0:0:0:0:
320,328,63618,1,0,0:0:0:0:
343,336,63731,1,0,0:0:0:0:
366,345,63843,1,0,0:0:0:0:
462,291,64069,1,0,0:0:0:0:
410,193,64295,1,0,0:0:0:0:
493,122,64520,1,0,0:0:0:0:
490,97,64633,1,0,0:0:0:0:
488,72,64746,1,0,0:0:0:0:
389,23,64971,1,0,0:0:0:0:
253,140,65197,5,0,0:0:0:0:
165,74,65422,1,0,0:0:0:0:
140,67,65535,1,0,0:0:0:0:
116,59,65648,1,0,0:0:0:0:
10,90,65874,2,0,P|0:144|7:199,1,100
53,286,66325,1,0,0:0:0:0:
72,301,66437,1,0,0:0:0:0:
91,317,66550,1,0,0:0:0:0:
190,269,66776,1,0,0:0:0:0:
357,368,67001,5,0,0:0:0:0:
443,299,67227,1,0,0:0:0:0:
449,274,67340,1,0,0:0:0:0:
456,250,67453,1,0,0:0:0:0:
372,178,67678,1,0,0:0:0:0:
449,99,67904,2,0,L|314:27,1,150
258,44,68355,2,0,L|354:94,1,100
189,139,68806,5,0,0:0:0:0:
103,83,69031,2,0,L|63:114,1,50
0,198,69257,2,0,L|90:131,1,100
189,139,69708,1,0,0:0:0:0:
202,322,69934,2,0,L|242:291,1,50
305,207,70160,2,0,L|215:274,1,100
120,232,70610,5,0,0:0:0:0:
305,207,70836,2,0,L|345:238,1,50
408,322,71062,2,0,L|318:255,1,100
392,172,71513,1,0,0:0:0:0:
189,138,71738,2,0,L|229:107,1,50
292,23,71964,2,0,L|202:90,1,100
68,236,72415,6,0,P|82:158|55:84,1,150
60,92,72866,1,0,0:0:0:0:
192,240,73092,1,0,0:0:0:0:
444,236,73317,2,0,P|430:158|457:84,1,150
451,92,73768,1,0,0:0:0:0:
320,240,73994,1,0,0:0:0:0:
256,97,74219,5,0,0:0:0:0:
130,176,74445,1,0,0:0:0:0:
105,172,74558,1,0,0:0:0:0:
80,170,74671,1,0,0:0:0:0:
382,176,74896,1,0,0:0:0:0:
407,172,75009,1,0,0:0:0:0:
432,170,75122,1,0,0:0:0:0:
231,313,75573,6,0,B|185:288|141:357|141:357|98:338,1,150.000005722046,2|0,0:0|0:0,0:0:0:0:
6,217,76024,5,4,0:0:0:0:
181,72,76250,1,0,0:0:0:0:
81,78,76362,2,0,L|105:128,1,50,0|8,0:0|0:0,0:0:0:0:
197,214,76588,2,0,L|151:123,1,100
308,37,77039,5,0,0:0:0:0:
381,58,77152,1,0,0:0:0:0:
475,207,77377,2,0,L|496:257,2,50,8|0|0,0:0|0:0|0:0,0:0:0:0:
381,58,77828,5,0,0:0:0:0:
246,126,78054,1,0,0:0:0:0:
197,214,78167,2,0,L|254:222,1,50,0|8,0:0|0:0,0:0:0:0:
375,191,78392,2,0,L|273:180,1,100
67,157,78843,5,0,0:0:0:0:
55,81,78956,1,0,0:0:0:0:
231,34,79182,2,0,L|283:21,2,50,8|0|0,0:0|0:0|0:0,0:0:0:0:
67,157,79633,5,0,0:0:0:0:
255,292,79859,1,0,0:0:0:0:
167,341,79971,2,0,L|160:286,1,50,0|8,0:0|0:0,0:0:0:0:
190,163,80197,2,0,L|201:265,1,100
376,340,80648,5,0,0:0:0:0:
446,316,80761,1,0,0:0:0:0:
496,143,80986,2,0,L|510:80,2,50,8|0|0,0:0|0:0|0:0,0:0:0:0:
446,316,81437,5,0,0:0:0:0:
217,159,81664,1,0,0:0:0:0:
305,110,81776,2,0,L|312:165,1,50,0|8,0:0|0:0,0:0:0:0:
282,288,82002,2,0,L|271:186,1,100
237,68,82340,6,0,L|230:16,2,50
83,108,82791,1,8,0:0:0:0:
83,108,82904,1,0,0:0:0:0:
83,108,83016,1,0,0:0:0:0:
63,249,83242,6,0,P|103:284|163:301,1,100
201,273,83580,1,0,0:0:0:0:
201,273,83693,2,0,L|276:260,1,50,8|0,0:0|0:0,0:0:0:0:
375,281,83919,1,0,0:0:0:0:
375,281,84031,2,0,L|265:300,1,100
153,255,84370,5,0,0:0:0:0:
135,76,84595,2,0,L|99:31,2,50,8|0|0,0:0|0:0|0:0,0:0:0:0:
447,108,85047,6,0,P|407:73|347:56,1,100
309,84,85385,1,0,0:0:0:0:
309,84,85498,2,0,L|234:97,1,50,8|0,0:0|0:0,0:0:0:0:
135,76,85724,1,0,0:0:0:0:
135,76,85836,2,0,L|245:57,1,100
357,102,86175,5,0,0:0:0:0:
375,281,86400,2,0,L|411:326,2,50,8|0|0,0:0|0:0|0:0,0:0:0:0:
63,249,86851,6,0,P|103:284|163:301,1,100
201,273,87189,1,0,0:0:0:0:
201,273,87302,2,0,L|276:260,1,50,8|0,0:0|0:0,0:0:0:0:
375,281,87528,1,0,0:0:0:0:
375,281,87640,2,0,L|265:300,1,100
153,255,87979,5,0,0:0:0:0:
135,76,88204,2,0,L|99:31,2,50,8|0|0,0:0|0:0|0:0,0:0:0:0:
485,72,88656,5,8,0:0:0:0:
373,263,89219,2,0,P|323:282|272:286,1,100
199,239,89671,1,0,0:0:0:0:
174,236,89783,1,0,0:0:0:0:
98,284,90009,1,0,0:0:0:0:
39,215,90234,1,0,0:0:0:0:
256,345,90460,5,8,0:0:0:0:
341,164,91024,2,0,P|392:151|445:154,1,100
490,79,91475,1,0,0:0:0:0:
493,54,91588,1,0,0:0:0:0:
409,20,91813,1,0,0:0:0:0:
403,44,91926,2,0,L|357:74,2,50
256,39,92265,5,8,0:0:0:0:
78,130,92828,2,0,P|65:183|65:235,1,100
110,306,93280,1,0,0:0:0:0:
191,344,93505,2,0,L|293:310,1,100
275,371,93843,2,0,L|347:281,1,100
389,255,94182,2,0,P|340:263|292:252,1,100
276,148,94633,1,0,0:0:0:0:
251,144,94746,1,0,0:0:0:0:
382,43,94971,5,0,0:0:0:0:
145,95,95197,1,0,0:0:0:0:
380,170,95422,1,0,0:0:0:0:
143,222,95648,1,0,0:0:0:0:
311,332,95874,5,0,0:0:0:0:
390,256,96099,2,0,P|439:246|495:252,1,100,2|0,0:0|0:0,0:0:0:0:
241,227,96550,2,0,P|192:217|143:222,1,100,2|0,0:0|0:0,0:0:0:0:
285,57,97001,2,0,P|333:66|383:62,1,100,2|0,0:0|0:0,0:0:0:0:
486,146,97453,6,0,P|507:249|476:357,1,200,2|2,0:0|0:0,0:0:0:0:
271,338,98129,2,0,P|328:363|380:369,1,100,0|2,0:0|0:0,0:0:0:0:
286,207,98580,1,0,0:0:0:0:
192,148,98806,1,2,0:0:0:0:
110,221,99031,1,0,0:0:0:0:
24,152,99257,1,2,0:0:0:0:
170,31,99483,5,0,0:0:0:0:
291,105,99708,2,0,P|345:113|393:101,1,100,2|0,0:0|0:0,0:0:0:0:
207,218,100159,2,0,P|158:210|110:221,1,100,2|0,0:0|0:0,0:0:0:0:
24,152,100610,2,0,P|29:99|50:55,1,100,2|0,0:0|0:0,0:0:0:0:
291,105,101062,6,0,P|320:216|298:306,1,200,2|2,0:0|0:0,0:0:0:0:
209,355,101738,2,0,P|135:342|54:357,1,150
61,354,102189,2,0,L|41:255,1,100,0|2,0:0|0:0,0:0:0:0:
27,146,102640,1,0,0:0:0:0:
27,146,102753,1,2,0:0:0:0:
27,146,102866,1,2,0:0:0:0:
196,46,103092,5,4,0:0:0:0:
284,110,103317,2,0,P|333:114|390:97,1,100,2|8,0:0|0:0,0:0:0:0:
465,230,103768,2,0,P|445:284|414:323,1,100,2|0,0:0|0:0,0:0:0:0:
199,308,104219,2,0,P|233:329|302:345,1,100,2|8,0:0|0:0,0:0:0:0:
253,195,104671,2,0,P|151:163|49:175,1,200,2|2,0:0|0:0,0:0:0:0:
104,271,105347,2,0,P|152:200|159:137,1,150,8|0,0:0|0:0,0:0:0:0:
119,92,105798,5,2,0:0:0:0:
296,59,106024,1,2,0:0:0:0:
253,195,106250,1,8,0:0:0:0:
422,134,106475,1,2,0:0:0:0:
504,294,106701,5,0,0:0:0:0:
423,368,106926,2,0,P|374:364|319:368,1,100,2|8,0:0|0:0,0:0:0:0:
153,194,107377,2,0,P|203:198|253:195,1,100,2|0,0:0|0:0,0:0:0:0:
65,304,107828,1,2,0:0:0:0:
65,304,108054,1,8,0:0:0:0:
153,194,108280,2,0,P|124:97|39:42,1,200,2|2,0:0|0:0,0:0:0:0:
32,152,108956,2,0,P|102:126|161:72,1,150,8|0,0:0|0:0,0:0:0:0:
187,24,109407,5,2,0:0:0:0:
286,127,109633,1,2,0:0:0:0:
448,48,109859,1,8,0:0:0:0:
470,58,109971,1,2,0:0:0:0:
492,68,110084,1,2,0:0:0:0:
363,193,110310,5,0,0:0:0:0:
404,294,110535,2,0,P|453:300|502:287,1,100,2|8,0:0|0:0,0:0:0:0:
264,236,110986,2,0,P|215:230|166:243,1,100,2|0,0:0|0:0,0:0:0:0:
63,301,111437,2,0,P|69:251|65:202,1,100,2|8,0:0|0:0,0:0:0:0:
5,74,111889,2,0,P|106:99|202:86,1,200,2|2,0:0|0:0,0:0:0:0:
260,178,112565,2,0,P|183:164|110:175,1,150,8|0,0:0|0:0,0:0:0:0:
62,207,113016,5,2,0:0:0:0:
199,86,113242,1,2,0:0:0:0:
279,260,113468,1,8,0:0:0:0:
434,178,113693,1,2,0:0:0:0:
374,334,113919,5,0,0:0:0:0:
279,260,114144,2,0,P|225:252|179:258,1,100,2|8,0:0|0:0,0:0:0:0:
299,62,114595,2,0,P|353:70|399:64,1,100,2|0,0:0|0:0,0:0:0:0:
508,147,115047,1,2,0:0:0:0:
508,147,115272,1,8,0:0:0:0:
374,334,115498,2,0,P|315:284|274:170,1,200,2|2,0:0|0:0,0:0:0:0:
381,193,116174,2,0,P|327:258|266:281,1,150,8|0,0:0|0:0,0:0:0:0:
207,283,116625,5,2,0:0:0:0:
56,215,116851,1,2,0:0:0:0:
152,73,117077,1,8,0:0:0:0:
167,53,117189,1,2,0:0:0:0:
183,34,117302,1,2,0:0:0:0:
304,105,117528,6,0,P|408:106|495:58,1,200,4|0,0:0|0:0,0:0:0:0:
386,28,118204,1,0,0:0:0:0:
399,137,118656,5,2,0:0:0:0:
444,237,119107,1,2,0:0:0:0:
134,347,119558,5,0,0:0:0:0:
58,267,119783,1,0,0:0:0:0:
44,157,120009,2,0,P|116:74|204:41,1,200
303,74,120686,1,0,0:0:0:0:
303,74,120911,1,0,0:0:0:0:
306,184,121137,2,0,P|261:204|203:210,1,100
102,190,121813,5,2,0:0:0:0:
77,82,122265,1,2,0:0:0:0:
176,35,122716,1,2,0:0:0:0:
413,308,123167,6,0,P|461:297|512:303,2,100
318,363,123843,1,0,0:0:0:0:
236,288,124069,1,0,0:0:0:0:
134,331,124295,1,0,0:0:0:0:
60,249,124520,2,0,P|45:189|43:139,1,100
408,67,125648,5,0,0:0:0:0:
400,146,126550,1,0,0:0:0:0:
367,218,127453,1,0,0:0:0:0:
297,258,128355,5,0,0:0:0:0:
215,258,128806,1,0,0:0:0:0:
145,218,129257,1,0,0:0:0:0:
112,146,129708,1,0,0:0:0:0:
104,67,130159,5,0,0:0:0:0:
408,67,130385,1,0,0:0:0:0:
145,218,130610,1,0,0:0:0:0:
367,218,130836,1,0,0:0:0:0:
256,29,131062,5,8,0:0:0:0:
256,355,131513,1,0,0:0:0:0:
28,138,131964,5,4,0:0:0:0:
156,94,132189,1,0,0:0:0:0:
180,87,132302,1,0,0:0:0:0:
203,78,132415,1,8,0:0:0:0:
245,230,132640,1,0,0:0:0:0:
333,138,132866,1,0,0:0:0:0:
358,131,132979,1,0,0:0:0:0:
382,123,133092,1,0,0:0:0:0:
407,116,133204,1,0,0:0:0:0:
432,109,133317,1,8,0:0:0:0:
354,30,133543,1,0,0:0:0:0:
493,39,133768,5,0,0:0:0:0:
427,217,133994,1,0,0:0:0:0:
225,133,134219,1,8,0:0:0:0:
97,308,134445,2,0,L|90:360,2,50
80,176,134896,1,0,0:0:0:0:
60,159,135009,1,0,0:0:0:0:
40,143,135122,2,0,L|-7:108,2,50,8|0|0,0:0|0:0|0:0,0:0:0:0:
141,97,135573,6,0,P|214:93|285:54,1,150
280,57,136024,2,0,L|374:120,1,100,8|0,0:0|0:0,0:0:0:0:
458,283,136475,2,0,L|374:227,1,100
316,215,136813,1,0,0:0:0:0:
260,239,136926,2,0,P|212:264|153:257,1,100,8|0,0:0|0:0,0:0:0:0:
60,207,137377,5,0,0:0:0:0:
163,78,137603,2,0,L|262:44,1,100,0|8,0:0|0:0,0:0:0:0:
220,93,137941,2,0,L|323:123,1,100,0|8,0:0|0:0,0:0:0:0:
375,59,138280,2,0,L|399:121,1,50,0|8,0:0|0:0,0:0:0:0:
476,87,138505,2,0,L|471:152,1,50
512,221,138731,1,8,0:0:0:0:
363,356,138956,1,0,0:0:0:0:
235,225,139182,5,0,0:0:0:0:
121,278,139407,1,0,0:0:0:0:
95,277,139520,1,0,0:0:0:0:
69,277,139633,1,8,0:0:0:0:
37,156,139859,1,0,0:0:0:0:
49,134,139971,1,0,0:0:0:0:
63,113,140084,2,0,L|88:70,1,50
173,79,140310,2,0,L|198:36,1,50
279,59,140535,2,0,P|331:48|386:47,1,100,8|0,0:0|0:0,0:0:0:0:
493,171,140986,5,0,0:0:0:0:
414,273,141212,1,0,0:0:0:0:
390,280,141325,1,0,0:0:0:0:
367,289,141437,1,8,0:0:0:0:
275,224,141663,1,0,0:0:0:0:
250,220,141776,1,0,0:0:0:0:
225,217,141889,1,0,0:0:0:0:
200,215,142001,1,0,0:0:0:0:
174,213,142114,1,0,0:0:0:0:
76,286,142340,1,8,0:0:0:0:
8,141,142565,1,0,0:0:0:0:
124,35,142791,6,0,L|224:56,1,100
367,165,143129,1,0,0:0:0:0:
367,165,143242,2,0,L|269:144,1,100
102,194,143580,1,0,0:0:0:0:
102,194,143693,2,0,L|199:214,1,100
332,325,144031,1,0,0:0:0:0:
332,325,144144,2,0,L|234:304,1,100
84,355,144483,2,0,L|135:367,1,50,0|4,0:0|0:0,0:0:0:0:
256,192,144708,12,0,146174,0:0:0:0:
384,96,146400,5,8,0:0:0:0:
384,96,146625,1,0,0:0:0:0:
320,224,146851,2,0,L|416:256,1,100,2|0,0:0|0:0,0:0:0:0:
128,96,147302,5,0,0:0:0:0:
128,96,147527,1,0,0:0:0:0:
192,224,147753,2,0,L|96:256,1,100,2|0,0:0|0:0,0:0:0:0:
320,64,148204,5,0,0:0:0:0:
416,128,148430,1,0,0:0:0:0:
352,224,148656,1,2,0:0:0:0:
352,224,148768,1,0,0:0:0:0:
352,224,148881,1,0,0:0:0:0:
64,96,149107,5,0,0:0:0:0:
163,48,149332,1,0,0:0:0:0:
163,48,149445,1,0,0:0:0:0:
163,48,149558,1,2,0:0:0:0:
81,121,149783,1,0,0:0:0:0:
352,96,150009,5,0,0:0:0:0:
352,96,150234,1,0,0:0:0:0:
448,224,150460,2,0,L|384:320,1,100,2|0,0:0|0:0,0:0:0:0:
204,301,150911,5,0,0:0:0:0:
130,219,151137,1,0,0:0:0:0:
34,272,151362,1,2,0:0:0:0:
34,272,151475,1,0,0:0:0:0:
34,272,151588,1,0,0:0:0:0:
288,128,151813,5,0,0:0:0:0:
288,128,152039,1,0,0:0:0:0:
384,256,152265,1,2,0:0:0:0:
485,298,152490,1,0,0:0:0:0:
408,34,152716,5,0,0:0:0:0:
288,128,152941,1,0,0:0:0:0:
387,124,153167,1,2,0:0:0:0:
304,30,153392,1,0,0:0:0:0:
56,100,153618,5,2,0:0:0:0:
456,284,154069,1,2,0:0:0:0:
56,100,154520,1,2,0:0:0:0:
456,100,155422,5,2,0:0:0:0:
56,284,155873,1,2,0:0:0:0:
456,100,156324,1,2,0:0:0:0:
56,100,157227,5,2,0:0:0:0:
456,100,157678,1,2,0:0:0:0:
56,284,158129,1,2,0:0:0:0:
456,284,158580,1,2,0:0:0:0:
256,32,159031,1,2,0:0:0:0:
256,352,159934,5,0,0:0:0:0:
222,279,160159,1,0,0:0:0:0:
287,232,160385,1,0,0:0:0:0:
291,217,160498,1,0,0:0:0:0:
296,203,160610,2,0,L|313:145,1,50
339,55,160836,6,0,L|439:44,1,100,6|0,0:0|0:0,0:0:0:0:
481,85,161174,1,0,0:0:0:0:
487,144,161287,2,0,L|407:222,1,100,2|0,0:0|0:0,0:0:0:0:
215,323,161738,2,0,P|276:326|327:338,1,100,2|0,0:0|0:0,0:0:0:0:
364,367,162077,2,0,L|330:271,1,100
309,216,162415,1,0,0:0:0:0:
109,72,162640,6,0,L|30:134,1,100,2|0,0:0|0:0,0:0:0:0:
29,193,162978,1,0,0:0:0:0:
67,239,163091,2,0,L|178:237,1,100,2|0,0:0|0:0,0:0:0:0:
361,134,163543,2,0,P|300:137|249:149,1,100,2|0,0:0|0:0,0:0:0:0:
212,178,163882,2,0,L|246:82,1,100
267,27,164220,1,0,0:0:0:0:
466,173,164445,5,2,0:0:0:0:
466,173,164558,1,0,0:0:0:0:
408,294,164783,2,0,B|357:281|357:281|321:240,1,100
336,347,165122,2,0,B|298:310|298:310|287:256,1,100,0|2,0:0|0:0,0:0:0:0:
235,250,165460,1,0,0:0:0:0:
235,250,165573,2,0,L|169:275,1,50
105,301,165798,2,0,L|138:195,1,100,2|0,0:0|0:0,0:0:0:0:
60,261,166137,6,0,L|79:209,1,50,0|2,0:0|0:0,0:0:0:0:
16,147,166362,2,0,L|35:95,1,50
112,56,166588,2,0,B|164:41|164:41|209:43,1,100
257,80,166926,2,0,L|310:65,1,50
406,44,167152,1,2,0:0:0:0:
329,160,167377,1,0,0:0:0:0:
442,223,167603,1,2,0:0:0:0:
366,315,167828,1,0,0:0:0:0:
220,287,168054,6,0,B|166:280|166:280|112:252,1,100,8|0,0:0|0:0,0:0:0:0:
120,123,168392,2,0,B|163:156|163:156|196:207,1,100,8|0,0:0|0:0,0:0:0:0:
125,259,168731,1,8,0:0:0:0:
248,103,168956,2,0,B|292:71|292:71|350:54,1,100,8|0,0:0|0:0,0:0:0:0:
432,154,169294,2,0,B|378:159|378:159|319:144,1,100,8|0,0:0|0:0,0:0:0:0:
336,58,169633,1,8,0:0:0:0:
414,263,169859,6,0,L|452:362,1,100,8|0,0:0|0:0,0:0:0:0:
323,245,170197,2,0,L|361:344,1,100,8|0,0:0|0:0,0:0:0:0:
449,356,170535,1,8,0:0:0:0:
189,245,170761,2,0,L|151:344,1,100,8|0,0:0|0:0,0:0:0:0:
98,263,171099,2,0,L|60:362,1,100,8|0,0:0|0:0,0:0:0:0:
153,338,171437,1,8,0:0:0:0:
256,110,171663,6,0,B|209:84|209:84|160:76,1,100,8|0,0:0|0:0,0:0:0:0:
78,165,172001,2,0,B|131:172|131:172|179:162,1,100,8|0,0:0|0:0,0:0:0:0:
256,110,172340,2,0,L|256:56,1,50,8|0,0:0|0:0,0:0:0:0:
434,165,172565,2,0,B|380:172|380:172|332:162,1,100,8|0,0:0|0:0,0:0:0:0:
256,110,172904,2,0,B|303:84|303:84|352:76,1,100,8|0,0:0|0:0,0:0:0:0:
437,78,173242,1,8,0:0:0:0:
497,300,173468,6,0,B|468:331|468:331|444:297|385:306|415:304,1,100
80,313,174370,5,0,0:0:0:0:
99,308,174595,1,0,0:0:0:0:
118,303,174821,1,0,0:0:0:0:
137,298,175047,1,0,0:0:0:0:
231,98,175272,6,0,B|191:67|191:67|160:118|160:118|107:130|43:102|50:38|142:17,1,300,6|0,0:0|0:0,0:0:0:0:
383,58,176174,1,10,0:0:0:0:
337,158,176400,2,0,P|312:208|270:246,1,100
391,241,176851,2,0,P|416:291|458:329,1,100,2|0,0:0|0:0,0:0:0:0:
337,330,177302,2,0,P|286:323|232:332,1,100,2|0,0:0|0:0,0:0:0:0:
134,295,177753,1,0,0:0:0:0:
58,213,177979,2,0,L|97:109,1,100,10|0,0:0|0:0,0:0:0:0:
38,115,178317,2,0,L|138:84,1,100,10|2,0:0|0:0,0:0:0:0:
114,33,178656,1,10,0:0:0:0:
179,168,178881,6,0,B|226:205|226:205|239:244|227:161|262:98|314:122|314:122|348:209,1,300,2|0,0:0|0:0,0:0:0:0:
409,328,179783,1,10,0:0:0:0:
468,235,180009,1,0,0:0:0:0:
468,235,180122,1,0,0:0:0:0:
468,235,180234,1,0,0:0:0:0:
394,152,180460,2,0,L|463:66,1,100,2|0,0:0|0:0,0:0:0:0:
346,62,180911,2,0,P|297:86|238:94,1,100,0|2,0:0|0:0,0:0:0:0:
149,53,181362,1,0,0:0:0:0:
53,106,181588,2,0,L|14:208,1,100,10|0,0:0|0:0,0:0:0:0:
109,166,181926,2,0,L|148:268,1,100,2|0,0:0|0:0,0:0:0:0:
83,302,182265,2,0,L|61:248,1,50,2|0,0:0|0:0,0:0:0:0:
214,235,182490,6,0,B|257:212|257:212|302:196|299:268|174:322|297:340|297:340|354:294,1,300,2|0,0:0|0:0,0:0:0:0:
346,115,183392,1,10,0:0:0:0:
439,57,183618,2,0,P|486:82|511:121,1,100
502,230,184069,2,0,P|456:258|410:260,1,100,2|0,0:0|0:0,0:0:0:0:
309,215,184520,1,2,0:0:0:0:
199,202,184746,2,0,P|155:234|124:275,1,100,2|0,0:0|0:0,0:0:0:0:
58,169,185197,2,0,L|3:223,2,66.6666666666667,10|0|0,0:0|0:0|0:0,0:0:0:0:
63,95,185648,2,0,L|8:149,2,66.6666666666667,0|0|2,0:0|0:0|0:0,0:0:0:0:
20,35,186099,6,0,B|110:94|118:69|118:70|118:70|151:34|229:49|229:49|304:123,1,300,2|0,0:0|0:0,0:0:0:0:
456,165,187001,2,0,P|459:113|447:62,1,100,10|0,0:0|0:0,0:0:0:0:
499,33,187340,1,0,0:0:0:0:
499,33,187453,2,0,L|387:39,1,100
299,65,187904,6,0,L|201:49,1,100,2|10,0:0|0:0,0:0:0:0:
102,111,188242,2,0,L|202:122,1,100,2|10,0:0|0:0,0:0:0:0:
279,192,188580,2,0,L|162:191,1,100,2|10,0:0|0:0,0:0:0:0:
102,272,188919,2,0,L|202:262,1,100,2|10,0:0|0:0,0:0:0:0:
299,318,189257,2,0,L|201:335,1,100,2|0,0:0|0:0,0:0:0:0:
23,192,189708,1,4,0:0:0:0:
372,57,204144,6,0,L|392:215,1,150,6|0,0:0|0:0,0:0:0:0:
390,205,204595,1,2,0:0:0:0:
342,305,204821,2,0,L|237:324,1,100,0|2,0:0|0:0,0:0:0:0:
134,309,205272,1,0,0:0:0:0:
134,309,205385,1,0,0:0:0:0:
134,309,205498,1,2,0:0:0:0:
67,221,205723,1,0,0:0:0:0:
94,114,205949,6,0,L|249:90,1,150,2|0,0:0|0:0,0:0:0:0:
243,91,206400,1,2,0:0:0:0:
345,52,206625,2,0,L|360:152,1,100,0|2,0:0|0:0,0:0:0:0:
441,208,207077,1,0,0:0:0:0:
344,260,207302,1,2,0:0:0:0:
437,317,207528,1,0,0:0:0:0:
344,260,207753,6,0,L|187:261,1,150,2|0,0:0|0:0,0:0:0:0:
194,260,208204,1,2,0:0:0:0:
100,319,208430,1,0,0:0:0:0:
45,223,208656,2,0,L|49:119,1,100,2|0,0:0|0:0,0:0:0:0:
48,123,208994,1,0,0:0:0:0:
48,123,209107,1,2,0:0:0:0:
119,39,209332,1,0,0:0:0:0:
211,99,209558,6,0,L|368:100,1,150,2|0,0:0|0:0,0:0:0:0:
361,100,210009,1,2,0:0:0:0:
467,72,210234,2,0,L|471:178,1,100,0|2,0:0|0:0,0:0:0:0:
394,251,210686,1,0,0:0:0:0:
472,327,210911,1,2,0:0:0:0:
394,251,211137,1,0,0:0:0:0:
306,317,211362,6,0,L|152:315,1,150,2|0,0:0|0:0,0:0:0:0:
156,315,211813,1,2,0:0:0:0:
70,246,212039,1,0,0:0:0:0:
83,136,212265,1,2,0:0:0:0:
164,62,212490,1,0,0:0:0:0:
164,62,212603,1,0,0:0:0:0:
164,62,212716,1,2,0:0:0:0:
267,99,212941,1,0,0:0:0:0:
371,62,213167,6,0,L|399:217,1,150,2|0,0:0|0:0,0:0:0:0:
397,209,213618,1,2,0:0:0:0:
449,306,213843,2,0,L|345:327,1,100,0|2,0:0|0:0,0:0:0:0:
256,267,214295,1,0,0:0:0:0:
161,325,214520,2,0,L|63:306,1,100,2|0,0:0|0:0,0:0:0:0:
114,209,214971,6,0,L|141:62,1,150,2|0,0:0|0:0,0:0:0:0:
141,62,215422,1,2,0:0:0:0:
248,37,215648,1,0,0:0:0:0:
340,96,215874,1,2,0:0:0:0:
441,53,216099,1,0,0:0:0:0:
500,146,216325,2,0,L|499:258,1,100,2|0,0:0|0:0,0:0:0:0:
383,351,216776,5,2,0:0:0:0:
139,291,217001,1,0,0:0:0:0:
422,184,217227,1,0,0:0:0:0:
112,112,217453,1,0,0:0:0:0:
256,192,217678,12,2,218580,0:0:0:0:
256,64,220159,5,2,0:0:0:0:
256,320,220385,1,2,0:0:0:0:
96,192,221964,5,2,0:0:0:0:
416,192,222189,1,2,0:0:0:0:
352,96,223768,5,2,0:0:0:0:
160,288,223994,1,2,0:0:0:0:
160,288,225347,2,0,P|218:281|288:288,1,100
408,315,225798,6,0,B|441:260|441:260|447:213,1,100,10|0,0:0|0:0,0:0:0:0:
348,131,226137,2,0,B|346:195|346:195|365:238,1,100,10|0,0:0|0:0,0:0:0:0:
422,155,226475,1,10,0:0:0:0:
286,46,226701,5,10,0:0:0:0:
11,165,227039,1,10,0:0:0:0:
286,46,227377,1,10,0:0:0:0:
223,306,227603,6,0,B|168:339|168:339|121:345,1,100,10|0,0:0|0:0,0:0:0:0:
39,246,227942,2,0,B|103:244|103:244|146:263,1,100,10|0,0:0|0:0,0:0:0:0:
63,320,228280,1,10,0:0:0:0:
11,165,228505,5,10,0:0:0:0:
6,140,228843,1,10,0:0:0:0:
2,115,229182,1,10,0:0:0:0:
269,240,229407,6,0,B|333:241|333:241|376:222,1,100,10|0,0:0|0:0,0:0:0:0:
399,97,229746,2,0,B|342:128|342:128|314:165,1,100,10|0,0:0|0:0,0:0:0:0:
415,173,230084,1,10,0:0:0:0:
219,60,230310,5,10,0:0:0:0:
79,325,230648,1,10,0:0:0:0:
378,325,230986,1,10,0:0:0:0:
227,219,231212,1,10,0:0:0:0:
355,65,232114,6,0,L|328:109,1,50
432,139,232453,2,0,L|459:183,1,50
465,301,232791,1,10,0:0:0:0:
306,225,233016,6,0,B|208:220|208:220|181:229,1,112.500004291535,6|0,0:0|0:0,0:0:0:0:
161,255,233468,2,0,L|84:222,1,75.0000028610231
43,75,233919,2,0,L|120:108,1,75.0000028610231,10|0,0:0|0:0,0:0:0:0:
111,104,234257,1,0,0:0:0:0:
111,104,234370,1,0,0:0:0:0:
308,47,234595,1,2,0:0:0:0:
415,177,234821,6,0,B|412:259|412:259|379:290,1,112.500004291535,2|0,0:0|0:0,0:0:0:0:
389,279,235272,2,0,L|305:318,1,75.0000028610231
201,238,235723,1,10,0:0:0:0:
105,309,235949,1,0,0:0:0:0:
105,309,236062,1,10,0:0:0:0:
105,309,236174,1,0,0:0:0:0:
13,175,236400,1,2,0:0:0:0:
117,65,236625,6,0,L|283:53,2,150.000005722046,2|0|10,0:0|0:0|0:0,0:0:0:0:
13,175,237753,1,0,0:0:0:0:
13,175,237866,1,0,0:0:0:0:
13,175,237979,2,0,L|94:173,1,75.0000028610231,0|2,0:0|0:0,0:0:0:0:
275,236,238430,2,0,L|201:238,1,75.0000028610231,2|0,0:0|0:0,0:0:0:0:
101,314,238881,1,0,0:0:0:0:
200,238,239107,1,0,0:0:0:0:
152,98,239332,6,0,B|162:62|162:62|199:50,1,66.6666666666667,8|8,0:0|0:0,0:0:0:0:
313,190,239633,2,0,B|303:226|303:226|276:236,1,66.6666666666667,8|8,0:0|0:0,0:0:0:0:
235,140,240009,5,0,0:0:0:0:
235,140,240122,1,0,0:0:0:0:
235,140,240234,2,0,B|273:99|273:99|320:82,1,100,4|0,0:0|0:0,0:0:0:0:
374,92,240573,1,0,0:0:0:0:
374,92,240686,1,8,0:0:0:0:
473,197,240911,1,8,0:0:0:0:
319,334,241137,2,0,L|213:336,1,100
219,335,241475,1,0,0:0:0:0:
219,335,241588,1,8,0:0:0:0:
99,275,241813,1,8,0:0:0:0:
106,88,242039,6,0,B|162:78|162:78|209:93,1,100
252,125,242377,1,0,0:0:0:0:
252,125,242490,1,8,0:0:0:0:
403,77,242716,1,8,0:0:0:0:
245,238,242941,2,0,B|189:228|189:228|142:243,1,100
99,275,243279,1,0,0:0:0:0:
99,275,243392,1,8,0:0:0:0:
8,170,243618,1,8,0:0:0:0:
134,55,243843,5,0,0:0:0:0:
245,238,244069,1,0,0:0:0:0:
245,238,244182,1,0,0:0:0:0:
245,238,244295,1,8,0:0:0:0:
403,77,244520,1,8,0:0:0:0:
165,169,244746,1,0,0:0:0:0:
343,190,244971,1,0,0:0:0:0:
343,190,245084,1,0,0:0:0:0:
343,190,245197,1,8,0:0:0:0:
273,35,245422,1,8,0:0:0:0:
134,55,245648,5,0,0:0:0:0:
343,190,245874,1,2,0:0:0:0:
165,169,246099,1,0,0:0:0:0:
273,35,246325,1,2,0:0:0:0:
245,238,246550,5,0,0:0:0:0:
403,77,246776,1,0,0:0:0:0:
165,169,247001,1,0,0:0:0:0:
343,190,247227,1,0,0:0:0:0:
