osu file format v14

[General]
AudioFilename: song.mp3
AudioLeadIn: 0
PreviewTime: 131062
Countdown: 0
SampleSet: Soft
StackLeniency: 0.7
Mode: 0
LetterboxInBreaks: 0
WidescreenStoryboard: 1

[Editor]
Bookmarks: 182490
DistanceSpacing: 1.4
BeatDivisor: 4
GridSize: 32
TimelineZoom: 1.2

[Metadata]
Title:Daft Punk
TitleUnicode:Daft Punk
Artist:Pentatonix
ArtistUnicode:Pentatonix
Creator:DarknessAngel
Version:Hard
Source:
Tags:ptx medley technologic one more time get lucky digital love harder better faster stronger television rules the nation around moway
BeatmapID:659475
BeatmapSetID:292896

[Difficulty]
HPDrainRate:5
CircleSize:4
OverallDifficulty:6
ApproachRate:7.3
SliderMultiplier:1.4
SliderTickRate:1

[Events]
//Background and Video events
Video,-100,"video.avi"
0,0,"BG.jpg",0,0
//Break Periods
2,189908,203290
//Storyboard Layer 0 (Background)
//Storyboard Layer 1 (Fail)
//Storyboard Layer 2 (Pass)
//Storyboard Layer 3 (Foreground)
//Storyboard Sound Samples

[TimingPoints]
3844,451.127819548872,4,2,1,50,1,0
32716,-100,4,1,2,70,0,0
47152,-100,4,2,1,50,0,0
61588,-100,4,1,1,50,0,0
75573,-66.6666666666667,4,1,2,50,0,0
76024,-100,4,1,1,50,0,0
88656,-100,4,2,1,50,0,0
95874,-100,4,2,1,50,0,0
103092,-100,4,1,1,50,0,0
103543,-100,4,2,1,50,0,0
117528,-100,4,1,1,50,0,0
117640,-100,4,2,1,50,0,0
131964,-100,4,1,1,60,0,1
146400,-100,4,2,1,50,0,0
153618,-100,4,1,2,50,0,0
159934,-100,4,1,2,60,0,0
168054,-100,4,1,1,50,0,0
173693,-100,4,2,1,50,0,0
174370,-100,4,2,1,50,0,0
175272,-100,4,1,2,70,0,0
204144,-100,4,1,2,60,0,0
233016,-100,4,1,2,70,0,1
239332,-100,4,1,1,60,0,0
240234,-100,4,1,1,60,0,1
245648,-100,4,2,1,50,0,0
247001,-100,4,2,1,30,0,0

[Colours]
Combo1 : 255,151,47
Combo2 : 223,223,223
Combo3 : 111,255,255
Combo4 : 166,77,255

[HitObjects]
150,153,3843,6,0,L|227:130,1,70,2|0,0:0|0:0,0:0:0:0:
191,36,4295,2,0,L|234:110,1,70
280,194,4746,2,0,L|203:217,1,70,2|0,0:0|0:0,0:0:0:0:
239,311,5198,2,0,L|196:237,1,70
402,312,5648,6,0,L|478:309,1,70,2|0,0:0|0:0,0:0:0:0:
383,294,6099,2,0,L|307:291,1,70
395,221,6550,1,2,0:0:0:0:
424,149,6776,1,0,0:0:0:0:
348,161,7001,1,0,0:0:0:0:
376,89,7227,1,0,0:0:0:0:
285,62,7453,6,0,P|236:48|208:48,1,70,2|0,0:0|0:0,0:0:0:0:
280,146,7904,2,0,P|313:157|348:161,1,70
202,129,8355,1,2,0:0:0:0:
285,62,8580,1,0,0:0:0:0:
280,146,8806,2,0,P|263:178|233:204,1,70
117,245,9257,6,0,P|162:261|196:258,1,70,2|0,0:0|0:0,0:0:0:0:
105,147,9708,2,0,P|73:132|38:130,1,70
51,211,10159,1,2,0:0:0:0:
239,201,10385,1,0,0:0:0:0:
105,147,10610,1,0,0:0:0:0:
183,261,10836,1,0,0:0:0:0:
187,129,11062,6,0,L|208:54,1,70,2|0,0:0|0:0,0:0:0:0:
276,31,11513,2,0,L|240:91,1,70
357,65,11964,2,0,L|432:86,1,70,2|0,0:0|0:0,0:0:0:0:
455,154,12415,2,0,L|394:118,1,70
315,183,12866,5,2,0:0:0:0:
275,249,13092,1,0,0:0:0:0:
339,290,13317,1,0,0:0:0:0:
380,225,13543,1,0,0:0:0:0:
237,183,13768,1,2,0:0:0:0:
416,293,13994,1,0,0:0:0:0:
384,147,14219,1,0,0:0:0:0:
271,327,14445,1,0,0:0:0:0:
167,269,14671,6,0,L|98:262,1,70,2|0,0:0|0:0,0:0:0:0:
27,225,15122,2,0,L|96:232,1,70
222,88,15573,2,0,L|168:131,1,70,2|0,0:0|0:0,0:0:0:0:
91,155,16024,2,0,L|144:111,1,70
222,88,16475,5,2,0:0:0:0:
91,155,16701,1,0,0:0:0:0:
129,35,16926,1,0,0:0:0:0:
235,183,17152,1,0,0:0:0:0:
351,120,17377,1,2,0:0:0:0:
418,157,17603,1,0,0:0:0:0:
482,115,17828,1,0,0:0:0:0:
477,38,18054,1,0,0:0:0:0:
351,120,18280,6,0,P|350:184|414:230,1,140,12|0,0:0|0:0,0:0:0:0:
248,345,19182,2,0,P|216:289|138:281,1,140,8|0,0:0|0:0,0:0:0:0:
15,131,20084,6,0,P|91:118|155:74,1,140,8|0,0:0|0:0,0:0:0:0:
339,83,20986,2,0,P|263:96|199:140,1,140,8|0,0:0|0:0,0:0:0:0:
403,165,21889,5,8,0:0:0:0:
109,219,22340,1,0,0:0:0:0:
192,60,22791,1,8,0:0:0:0:
320,324,23242,1,0,0:0:0:0:
184,174,23693,6,0,P|126:136|51:153,1,140,8|0,0:0|0:0,0:0:0:0:
328,174,24595,2,0,P|386:136|461:153,1,140,8|0,0:0|0:0,0:0:0:0:
290,316,25498,6,0,P|254:309|219:317,1,70,8|0,0:0|0:0,0:0:0:0:
152,349,25949,2,0,P|88:318|42:268,1,140,0|8,0:0|0:0,0:0:0:0:
27,72,26851,1,0,0:0:0:0:
222,68,27302,6,0,P|258:75|293:67,1,70,8|0,0:0|0:0,0:0:0:0:
360,35,27753,2,0,P|424:66|470:116,1,140,0|8,0:0|0:0,0:0:0:0:
485,312,28655,1,0,0:0:0:0:
213,329,29107,6,0,L|138:329,1,70,8|0,0:0|0:0,0:0:0:0:
299,275,29558,2,0,L|369:275,1,70,8|0,0:0|0:0,0:0:0:0:
213,215,30009,2,0,L|138:215,1,70,8|0,0:0|0:0,0:0:0:0:
299,161,30460,2,0,L|369:161,1,70,8|0,0:0|0:0,0:0:0:0:
213,78,30911,5,0,0:0:0:0:
299,78,31137,1,0,0:0:0:0:
213,78,31362,1,0,0:0:0:0:
299,78,31588,1,0,0:0:0:0:
118,132,31813,5,2,0:0:0:0:
394,132,32265,1,0,0:0:0:0:
256,322,32716,6,0,B|178:311|178:311|116:328,1,140,6|0,0:0|0:0,0:0:0:0:
211,237,33392,2,0,B|289:248|289:248|351:231,1,140,6|0,0:0|0:0,0:0:0:0:
405,99,34069,2,0,L|491:224,1,140,6|0,0:0|0:0,0:0:0:0:
401,162,34746,2,0,L|487:287,1,140,6|0,0:0|0:0,0:0:0:0:
503,350,35422,1,10,0:0:0:0:
428,328,35648,2,0,B|386:319|386:319|342:327,1,70
89,317,36325,6,0,B|65:244|65:244|85:184,1,140,6|0,0:0|0:0,0:0:0:0:
81,51,37001,2,0,B|105:124|105:124|85:184,1,140,6|0,0:0|0:0,0:0:0:0:
217,180,37678,2,0,B|144:204|144:204|85:184,1,140,6|0,0:0|0:0,0:0:0:0:
217,180,38355,2,0,B|290:204|290:204|349:183,1,140,6|0,0:0|0:0,0:0:0:0:
451,79,39031,5,10,0:0:0:0:
283,115,39257,1,10,0:0:0:0:
349,183,39483,1,10,0:0:0:0:
319,31,39708,1,10,0:0:0:0:
451,79,39934,6,0,B|494:170|494:170|490:217,1,140,6|0,0:0|0:0,0:0:0:0:
408,317,40610,2,0,B|479:246|479:246|490:209,1,140,6|0,0:0|0:0,0:0:0:0:
351,184,41287,2,0,L|492:209,1,140,6|0,0:0|0:0,0:0:0:0:
488,208,41964,1,6,0:0:0:0:
157,342,42640,1,10,0:0:0:0:
94,296,42866,2,0,B|59:287|59:287|25:297,2,70
177,218,43543,6,0,B|220:220|220:220|245:212,1,70,2|0,0:0|0:0,0:0:0:0:
151,107,43994,2,0,B|108:105|108:105|72:116,1,70,2|0,0:0|0:0,0:0:0:0:
246,212,44445,2,0,B|289:214|289:214|325:203,1,70,2|0,0:0|0:0,0:0:0:0:
220,101,44896,2,0,B|177:99|177:99|141:110,1,70,2|0,0:0|0:0,0:0:0:0:
398,183,45347,5,2,0:0:0:0:
398,183,47152,6,0,P|418:259|408:307,1,105,2|0,0:0|0:0,0:0:0:0:
290,361,47828,2,0,P|270:285|280:237,1,105,2|0,0:0|0:0,0:0:0:0:
290,113,48505,2,0,P|343:113|388:82,1,105,2|0,0:0|0:0,0:0:0:0:
220,84,49182,6,0,P|170:93|126:132,1,105,2|0,0:0|0:0,0:0:0:0:
64,259,49859,2,0,P|104:314|136:335,1,105,2|0,0:0|0:0,0:0:0:0:
172,337,50310,2,0,L|241:337,1,70
319,337,50761,5,2,0:0:0:0:
208,242,51099,1,0,0:0:0:0:
353,262,51437,1,2,0:0:0:0:
242,165,51776,1,0,0:0:0:0:
387,185,52114,1,2,0:0:0:0:
276,88,52453,6,0,P|223:84|171:114,1,105,0|2,0:0|0:0,0:0:0:0:
50,180,53129,2,0,P|97:196|148:180,1,105,0|2,0:0|0:0,0:0:0:0:
161,143,53580,2,0,L|192:249,1,105
215,316,54144,1,0,0:0:0:0:
139,302,54370,5,2,0:0:0:0:
301,228,54708,1,0,0:0:0:0:
139,302,55047,1,2,0:0:0:0:
316,321,55385,1,0,0:0:0:0:
139,302,55723,1,2,0:0:0:0:
241,155,56062,5,0,0:0:0:0:
63,137,56400,1,2,0:0:0:0:
241,155,56739,1,0,0:0:0:0:
97,49,57077,1,2,0:0:0:0:
241,155,57415,1,0,0:0:0:0:
395,65,57753,1,0,0:0:0:0:
289,63,57979,5,2,0:0:0:0:
396,243,58317,1,0,0:0:0:0:
185,247,58656,1,2,0:0:0:0:
366,141,58994,1,0,0:0:0:0:
157,115,59332,1,2,0:0:0:0:
240,308,59671,5,0,0:0:0:0:
31,282,60009,1,2,0:0:0:0:
240,308,60347,1,0,0:0:0:0:
283,102,60686,2,0,P|371:69|495:94,1,210
506,161,61588,5,4,0:0:0:0:
467,227,61813,1,0,0:0:0:0:
467,227,61926,1,0,0:0:0:0:
467,227,62039,1,0,0:0:0:0:
489,300,62265,1,0,0:0:0:0:
299,350,62716,1,0,0:0:0:0:
374,361,62941,1,0,0:0:0:0:
189,294,63392,5,0,0:0:0:0:
187,216,63618,1,0,0:0:0:0:
187,216,63731,1,0,0:0:0:0:
187,216,63843,1,0,0:0:0:0:
121,256,64069,1,0,0:0:0:0:
152,62,64520,1,0,0:0:0:0:
77,42,64746,1,0,0:0:0:0:
260,111,65197,5,0,0:0:0:0:
322,66,65422,1,0,0:0:0:0:
322,66,65535,1,0,0:0:0:0:
322,66,65648,1,0,0:0:0:0:
384,111,65874,1,0,0:0:0:0:
484,279,66325,1,0,0:0:0:0:
436,339,66550,1,0,0:0:0:0:
252,270,67001,5,0,0:0:0:0:
204,330,67226,1,0,0:0:0:0:
204,330,67340,1,0,0:0:0:0:
204,330,67453,1,0,0:0:0:0:
155,270,67678,2,0,P|119:266|74:271,1,70
15,302,68129,1,0,0:0:0:0:
15,302,68242,2,0,P|26:245|15:185,1,105
2,123,68806,5,0,0:0:0:0:
128,48,69144,1,0,0:0:0:0:
128,48,69257,1,0,0:0:0:0:
199,77,69483,2,0,P|281:92|348:88,1,140
412,72,70159,1,0,0:0:0:0:
412,72,70610,5,0,0:0:0:0:
489,197,70949,1,0,0:0:0:0:
489,197,71062,1,0,0:0:0:0:
450,263,71287,2,0,P|397:312|334:333,1,140
256,333,71964,1,0,0:0:0:0:
256,333,72415,5,0,0:0:0:0:
118,281,72753,1,0,0:0:0:0:
118,281,72866,1,0,0:0:0:0:
61,228,73092,2,0,L|61:87,1,140
6,33,73768,1,0,0:0:0:0:
6,33,74219,5,0,0:0:0:0:
136,101,74558,1,0,0:0:0:0:
136,101,74671,1,0,0:0:0:0:
195,51,74896,1,0,0:0:0:0:
253,101,75122,1,0,0:0:0:0:
497,215,75573,6,0,B|461:206|461:206|446:228|418:192|392:195,1,105.000004005432,2|0,0:0|0:0,0:0:0:0:
324,207,76024,5,4,0:0:0:0:
275,266,76250,1,0,0:0:0:0:
275,266,76362,2,0,L|276:306,2,35,0|8|0,0:0|0:0|0:0,0:0:0:0:
208,226,76813,2,0,P|167:228|130:235,1,70
104,250,77152,2,0,P|69:255|34:256,1,70,0|8,0:0|0:0,0:0:0:0:
10,227,77490,2,0,L|6:187,1,35
87,108,77828,5,0,0:0:0:0:
156,73,78054,1,0,0:0:0:0:
156,73,78166,2,0,L|170:35,2,35,0|8|0,0:0|0:0|0:0,0:0:0:0:
202,135,78617,2,0,P|240:149|277:157,1,70
307,154,78956,2,0,P|340:145|373:133,1,70,0|8,0:0|0:0,0:0:0:0:
409,118,79295,2,0,L|432:153,1,35
457,257,79633,6,0,P|417:283|388:290,1,70
359,302,79971,2,0,L|347:334,2,35,0|8|0,0:0|0:0|0:0,0:0:0:0:
284,280,80422,1,0,0:0:0:0:
221,324,80648,1,0,0:0:0:0:
221,324,80761,1,0,0:0:0:0:
153,287,80986,2,0,L|132:322,2,35,8|0|0,0:0|0:0|0:0,0:0:0:0:
93,204,81437,6,0,P|88:165|92:127,1,70
92,95,81776,2,0,L|58:91,2,35,0|8|0,0:0|0:0|0:0,0:0:0:0:
157,54,82227,1,0,0:0:0:0:
224,91,82453,1,0,0:0:0:0:
224,91,82565,1,0,0:0:0:0:
349,28,82791,5,8,0:0:0:0:
442,131,83016,1,0,0:0:0:0:
374,211,83242,6,0,P|337:223|298:230,1,70
269,218,83580,2,0,L|235:197,2,35,0|8|0,0:0|0:0|0:0,0:0:0:0:
223,280,84031,1,0,0:0:0:0:
146,267,84257,1,0,0:0:0:0:
146,267,84370,1,0,0:0:0:0:
91,321,84595,2,0,L|88:366,2,35,8|0|0,0:0|0:0|0:0,0:0:0:0:
32,219,85047,5,0,0:0:0:0:
82,161,85272,1,0,0:0:0:0:
82,161,85385,2,0,L|130:178,2,35,0|8|0,0:0|0:0|0:0,0:0:0:0:
40,96,85836,2,0,P|62:60|84:40,1,70
119,51,86174,2,0,P|159:66|190:66,1,70,0|8,0:0|0:0,0:0:0:0:
222,52,86513,2,0,L|264:58,1,35
377,76,86851,6,0,P|410:97|439:129,1,70
449,152,87189,2,0,L|484:153,2,35,0|8|0,0:0|0:0|0:0,0:0:0:0:
404,215,87640,1,0,0:0:0:0:
454,273,87866,1,0,0:0:0:0:
454,273,87979,1,0,0:0:0:0:
402,330,88204,2,0,L|416:371,2,35,8|0|0,0:0|0:0|0:0,0:0:0:0:
310,273,88656,5,8,0:0:0:0:
50,126,89783,1,0,0:0:0:0:
52,217,90009,1,0,0:0:0:0:
130,171,90234,1,0,0:0:0:0:
23,39,90460,5,8,0:0:0:0:
462,126,91588,1,0,0:0:0:0:
382,171,91814,1,0,0:0:0:0:
460,217,92039,1,0,0:0:0:0:
489,39,92265,5,8,0:0:0:0:
132,101,93054,2,0,L|57:99,2,70
105,236,93843,1,0,0:0:0:0:
179,215,94069,2,0,L|214:326,2,105
257,98,94971,5,0,0:0:0:0:
352,200,95197,1,0,0:0:0:0:
467,122,95422,1,0,0:0:0:0:
352,200,95648,1,0,0:0:0:0:
420,298,95874,5,0,0:0:0:0:
420,298,96099,2,0,P|463:308|505:309,1,70,2|0,0:0|0:0,0:0:0:0:
334,288,96550,2,0,P|312:317|296:356,1,70,2|0,0:0|0:0,0:0:0:0:
217,251,97001,2,0,P|213:290|217:336,1,70,2|0,0:0|0:0,0:0:0:0:
70,246,97453,6,0,P|94:307|145:367,1,140,2|2,0:0|0:0,0:0:0:0:
217,251,98129,2,0,P|205:220|179:190,1,70,0|2,0:0|0:0,0:0:0:0:
63,142,98580,1,0,0:0:0:0:
137,120,98806,1,2,0:0:0:0:
205,85,99031,1,0,0:0:0:0:
261,32,99257,1,2,0:0:0:0:
338,32,99483,6,0,P|378:35|407:41,1,70,0|2,0:0|0:0,0:0:0:0:
476,74,99934,1,0,0:0:0:0:
326,122,100159,2,0,P|288:133|253:153,1,70,2|0,0:0|0:0,0:0:0:0:
419,153,100610,2,0,P|457:164|492:184,1,70,2|0,0:0|0:0,0:0:0:0:
414,274,101062,2,0,P|345:318|281:329,1,140,2|2,0:0|0:0,0:0:0:0:
213,312,101738,2,0,P|132:306|62:318,1,140
4,226,102415,5,2,0:0:0:0:
99,167,102640,1,0,0:0:0:0:
99,167,102753,1,2,0:0:0:0:
99,167,102866,1,2,0:0:0:0:
42,70,103092,5,4,0:0:0:0:
216,158,103543,1,8,0:0:0:0:
383,57,103994,1,8,0:0:0:0:
484,224,104445,1,8,0:0:0:0:
317,326,104896,6,0,P|256:312|206:316,1,105,8|0,0:0|0:0,0:0:0:0:
182,336,105347,2,0,L|112:293,1,70,8|0,0:0|0:0,0:0:0:0:
73,239,105798,1,8,0:0:0:0:
149,227,106024,1,0,0:0:0:0:
99,168,106250,1,8,0:0:0:0:
174,153,106475,1,0,0:0:0:0:
123,95,106701,5,8,0:0:0:0:
302,173,107152,1,8,0:0:0:0:
465,65,107603,1,8,0:0:0:0:
402,250,108054,1,8,0:0:0:0:
285,92,108505,6,0,P|239:118|218:180,1,105,8|0,0:0|0:0,0:0:0:0:
213,202,108956,2,0,L|137:227,1,70,8|0,0:0|0:0,0:0:0:0:
70,237,109407,1,8,0:0:0:0:
120,295,109633,1,0,0:0:0:0:
44,310,109859,1,8,0:0:0:0:
95,367,110084,1,0,0:0:0:0:
120,295,110310,5,8,0:0:0:0:
309,343,110761,1,8,0:0:0:0:
426,186,111212,1,8,0:0:0:0:
301,34,111663,1,8,0:0:0:0:
116,100,112114,6,0,P|166:119|219:117,1,105,8|0,0:0|0:0,0:0:0:0:
248,95,112565,2,0,L|294:153,1,70,8|0,0:0|0:0,0:0:0:0:
337,211,113016,1,8,0:0:0:0:
260,220,113242,1,0,0:0:0:0:
305,282,113468,2,0,P|350:289|379:275,1,70,8|0,0:0|0:0,0:0:0:0:
337,211,113919,5,8,0:0:0:0:
197,349,114370,1,8,0:0:0:0:
25,253,114821,1,8,0:0:0:0:
109,76,115272,1,8,0:0:0:0:
184,60,115498,6,0,P|254:83|334:78,1,140
393,61,116174,2,0,P|428:107|447:153,1,105,8|0,0:0|0:0,0:0:0:0:
450,188,116625,2,0,L|427:266,1,70,8|0,0:0|0:0,0:0:0:0:
405,328,117077,1,8,0:0:0:0:
480,314,117302,1,0,0:0:0:0:
355,271,117528,6,0,P|278:256|207:266,1,140,4|0,0:0|0:0,0:0:0:0:
149,298,118204,1,2,0:0:0:0:
136,304,118656,1,2,0:0:0:0:
124,311,119107,1,2,0:0:0:0:
28,140,119558,5,0,0:0:0:0:
84,88,119783,1,0,0:0:0:0:
148,129,120009,2,0,P|225:130|283:99,1,140
346,62,120686,1,0,0:0:0:0:
346,62,120911,1,0,0:0:0:0:
416,94,121137,6,0,P|438:131|446:164,1,70
448,170,121813,1,2,0:0:0:0:
451,183,122265,1,2,0:0:0:0:
454,196,122716,1,2,0:0:0:0:
310,329,123167,5,0,0:0:0:0:
240,297,123392,1,0,0:0:0:0:
168,326,123618,1,0,0:0:0:0:
96,297,123843,2,0,P|71:262|59:229,1,70
138,229,124295,1,0,0:0:0:0:
92,166,124520,2,0,P|58:138|31:124,1,70
296,58,125648,5,0,0:0:0:0:
354,136,126550,1,0,0:0:0:0:
290,210,127453,1,0,0:0:0:0:
348,288,128355,5,0,0:0:0:0:
290,210,128806,1,0,0:0:0:0:
354,136,129257,1,0,0:0:0:0:
296,58,129708,1,0,0:0:0:0:
230,131,130159,5,0,0:0:0:0:
290,210,130385,1,0,0:0:0:0:
354,136,130610,1,0,0:0:0:0:
296,58,130836,1,0,0:0:0:0:
116,72,131062,5,8,0:0:0:0:
396,312,131513,1,0,0:0:0:0:
139,328,131964,5,4,0:0:0:0:
72,289,132189,1,0,0:0:0:0:
57,289,132302,1,0,0:0:0:0:
43,289,132415,1,8,0:0:0:0:
10,219,132640,1,0,0:0:0:0:
34,145,132866,1,0,0:0:0:0:
45,137,132979,1,0,0:0:0:0:
57,129,133092,1,0,0:0:0:0:
69,122,133204,1,0,0:0:0:0:
81,115,133317,1,8,0:0:0:0:
150,80,133543,2,0,P|190:74|228:75,1,70
290,104,133994,5,0,0:0:0:0:
303,107,134107,1,0,0:0:0:0:
316,111,134219,1,8,0:0:0:0:
385,77,134445,1,0,0:0:0:0:
440,130,134671,1,0,0:0:0:0:
402,196,134896,1,0,0:0:0:0:
407,209,135009,1,0,0:0:0:0:
412,222,135122,2,0,L|441:293,1,70,8|0,0:0|0:0,0:0:0:0:
346,320,135573,6,0,P|268:311|236:317,1,105
207,331,136024,2,0,L|143:287,1,70,8|0,0:0|0:0,0:0:0:0:
29,231,136475,2,0,L|101:231,1,70
207,129,136926,2,0,L|143:173,1,70,8|0,0:0|0:0,0:0:0:0:
60,77,137377,5,0,0:0:0:0:
126,38,137603,1,0,0:0:0:0:
139,34,137716,1,0,0:0:0:0:
152,30,137828,1,8,0:0:0:0:
223,58,138054,2,0,L|263:46,1,35,0|8,0:0|0:0,0:0:0:0:
318,93,138392,2,0,L|358:81,1,35,0|8,0:0|0:0,0:0:0:0:
427,69,138731,1,8,0:0:0:0:
487,116,138956,1,0,0:0:0:0:
494,192,139182,6,0,P|482:240|450:284,1,105
418,306,139633,2,0,L|346:298,1,70,8|0,0:0|0:0,0:0:0:0:
272,285,140084,1,0,0:0:0:0:
210,331,140310,1,0,0:0:0:0:
196,333,140422,1,0,0:0:0:0:
182,335,140535,1,8,0:0:0:0:
109,308,140761,2,0,P|86:268|77:246,1,70
65,169,141212,5,0,0:0:0:0:
63,155,141325,1,0,0:0:0:0:
61,141,141437,1,8,0:0:0:0:
88,69,141663,1,0,0:0:0:0:
161,91,141889,1,0,0:0:0:0:
174,88,142001,1,0,0:0:0:0:
187,86,142114,1,0,0:0:0:0:
255,122,142340,1,8,0:0:0:0:
317,77,142565,1,0,0:0:0:0:
412,127,142791,6,0,P|440:189|443:242,1,105
359,273,143242,2,0,P|383:209|418:169,1,105
413,280,143693,2,0,P|351:308|298:311,1,105
266,226,144144,2,0,P|316:242|359:273,1,105
359,273,144595,1,4,0:0:0:0:
256,192,144708,12,8,146400,0:0:0:0:
54,115,148204,6,0,L|54:42,1,70
92,135,150009,6,0,L|92:62,1,70
128,155,151813,6,0,L|128:82,1,70
420,116,152716,1,0,0:0:0:0:
351,80,152941,1,0,0:0:0:0:
416,40,153167,1,0,0:0:0:0:
355,158,153392,1,0,0:0:0:0:
215,69,153618,5,2,0:0:0:0:
37,181,154069,1,2,0:0:0:0:
125,371,154520,1,2,0:0:0:0:
297,69,155422,5,2,0:0:0:0:
475,181,155873,1,2,0:0:0:0:
387,371,156324,1,2,0:0:0:0:
136,90,157227,5,2,0:0:0:0:
376,90,157678,1,2,0:0:0:0:
136,294,158129,1,2,0:0:0:0:
376,294,158580,1,2,0:0:0:0:
256,192,159031,1,10,0:0:0:0:
256,192,159934,5,0,0:0:0:0:
311,199,160159,1,0,0:0:0:0:
363,178,160385,1,0,0:0:0:0:
415,195,160610,1,0,0:0:0:0:
495,142,160836,6,0,P|495:100|461:39,1,105,6|0,0:0|0:0,0:0:0:0:
444,27,161287,1,2,0:0:0:0:
366,27,161513,1,0,0:0:0:0:
302,70,161738,2,0,P|267:76|232:80,1,70,2|0,0:0|0:0,0:0:0:0:
188,54,162077,2,0,L|150:73,1,35,0|2,0:0|0:0,0:0:0:0:
70,142,162415,6,0,P|60:226|87:295,1,140
104,304,162979,2,0,L|144:328,1,35,0|2,0:0|0:0,0:0:0:0:
206,294,163317,1,0,0:0:0:0:
273,331,163543,2,0,P|319:328|351:312,1,70,2|0,0:0|0:0,0:0:0:0:
358,284,163881,2,0,L|399:283,1,35,0|2,0:0|0:0,0:0:0:0:
463,315,164219,1,0,0:0:0:0:
486,196,164445,5,2,0:0:0:0:
486,196,164558,2,0,P|488:150|485:122,1,70
429,73,165009,1,0,0:0:0:0:
415,69,165122,1,0,0:0:0:0:
353,114,165347,1,2,0:0:0:0:
285,76,165573,1,0,0:0:0:0:
220,118,165798,1,2,0:0:0:0:
157,72,166024,1,0,0:0:0:0:
142,72,166137,1,0,0:0:0:0:
75,110,166362,6,0,B|55:147|49:180,1,70
71,250,166813,1,0,0:0:0:0:
74,263,166926,1,0,0:0:0:0:
127,318,167152,1,2,0:0:0:0:
200,295,167377,1,0,0:0:0:0:
263,338,167603,1,2,0:0:0:0:
334,309,167828,1,0,0:0:0:0:
393,358,168054,6,0,L|448:250,1,105,8|8,0:0|0:0,0:0:0:0:
354,145,168731,1,8,0:0:0:0:
410,197,168956,2,0,B|475:170|475:170|493:131,1,105,8|8,0:0|0:0,0:0:0:0:
359,69,169633,1,8,0:0:0:0:
283,54,169859,6,0,B|203:54|203:54|180:68,1,105,8|8,0:0|0:0,0:0:0:0:
114,197,170535,1,8,0:0:0:0:
189,215,170761,1,8,0:0:0:0:
181,66,171099,1,8,0:0:0:0:
57,145,171437,1,8,0:0:0:0:
114,197,171663,6,0,B|90:266|90:266|57:277,1,105,8|8,0:0|0:0,0:0:0:0:
173,369,172340,1,8,0:0:0:0:
229,317,172565,2,0,B|284:269|284:269|318:276,1,105,8|8,0:0|0:0,0:0:0:0:
452,330,173242,1,8,0:0:0:0:
452,252,173468,2,0,L|452:180,1,70,8|0,0:0|0:0,0:0:0:0:
173,88,174370,5,0,0:0:0:0:
243,118,174595,1,0,0:0:0:0:
234,41,174821,1,0,0:0:0:0:
181,164,175047,1,0,0:0:0:0:
77,163,175272,6,0,P|23:147|21:71,1,140,6|0,0:0|0:0,0:0:0:0:
181,164,176174,1,10,0:0:0:0:
218,231,176400,2,0,P|272:279|342:310,2,140,0|2|2,0:0|0:0|0:0,0:0:0:0:
464,71,177979,1,10,0:0:0:0:
422,135,178204,2,0,L|408:167,1,35,0|10,0:0|0:0,0:0:0:0:
478,198,178543,2,0,L|492:230,1,35,2|10,0:0|0:0,0:0:0:0:
470,313,178881,6,0,P|411:284|363:336,1,140,2|0,0:0|0:0,0:0:0:0:
168,321,179783,1,10,0:0:0:0:
97,290,180009,2,0,P|61:226|50:151,2,140,0|2|0,0:0|0:0|0:0,0:0:0:0:
160,245,181137,1,2,0:0:0:0:
265,80,181588,1,10,0:0:0:0:
340,66,181813,2,0,P|374:64|419:71,1,70,2|0,0:0|0:0,0:0:0:0:
448,74,182152,2,0,L|471:106,1,35,2|0,0:0|0:0,0:0:0:0:
485,197,182490,6,0,P|451:264|399:239,1,140,2|0,0:0|0:0,0:0:0:0:
211,207,183392,1,10,0:0:0:0:
140,237,183618,2,0,P|85:291|54:351,2,140,0|2|2,0:0|0:0|0:0,0:0:0:0:
200,284,184746,1,2,0:0:0:0:
269,100,185197,2,0,P|207:64|129:48,1,140,10|0,0:0|0:0,0:0:0:0:
65,65,185874,1,2,0:0:0:0:
20,127,186099,6,0,P|69:165|118:120,1,140,2|0,0:0|0:0,0:0:0:0:
176,306,187001,2,0,P|281:271|388:286,1,210,10|0,0:0|0:0,0:0:0:0:
468,321,187904,6,0,L|491:245,1,70,2|10,0:0|0:0,0:0:0:0:
449,251,188242,2,0,L|426:175,1,70,2|10,0:0|0:0,0:0:0:0:
467,185,188580,2,0,L|490:109,1,70,2|10,0:0|0:0,0:0:0:0:
464,86,188919,2,0,L|397:56,1,70,2|10,0:0|0:0,0:0:0:0:
375,87,189257,2,0,L|308:57,1,70,2|0,0:0|0:0,0:0:0:0:
203,56,189708,5,6,0:0:0:0:
414,127,204144,6,0,P|345:107|271:109,1,140,6|2,0:0|0:0,0:0:0:0:
98,257,205047,2,0,P|167:277|241:275,1,140,2|2,0:0|0:0,0:0:0:0:
160,116,205949,6,0,P|127:145|102:159,2,70,2|0|2,0:0|0:0|0:0,0:0:0:0:
352,268,206851,2,0,P|385:239|410:225,2,70,2|0|2,0:0|0:0|0:0,0:0:0:0:
162,316,207753,5,2,0:0:0:0:
188,243,207979,1,0,0:0:0:0:
112,258,208204,1,2,0:0:0:0:
350,68,208656,1,2,0:0:0:0:
324,141,208882,1,0,0:0:0:0:
400,126,209107,1,2,0:0:0:0:
319,304,209558,6,0,P|393:278|403:223,1,140,2|2,0:0|0:0,0:0:0:0:
193,80,210460,2,0,P|119:106|109:161,1,140,2|2,0:0|0:0,0:0:0:0:
218,322,211362,5,2,0:0:0:0:
281,278,211588,1,0,0:0:0:0:
281,278,211701,1,0,0:0:0:0:
281,278,211813,1,2,0:0:0:0:
288,354,212039,1,0,0:0:0:0:
352,311,212265,2,0,P|388:308|424:317,1,70,2|0,0:0|0:0,0:0:0:0:
489,349,212716,2,0,P|501:274|484:201,1,140,2|2,0:0|0:0,0:0:0:0:
350,72,213618,5,2,0:0:0:0:
159,117,214069,1,2,0:0:0:0:
99,67,214295,1,0,0:0:0:0:
171,41,214520,1,2,0:0:0:0:
81,215,214971,5,2,0:0:0:0:
14,254,215197,1,0,0:0:0:0:
14,254,215310,1,0,0:0:0:0:
14,254,215422,1,2,0:0:0:0:
54,319,215648,1,0,0:0:0:0:
121,281,215874,1,2,0:0:0:0:
190,313,216099,1,0,0:0:0:0:
253,269,216325,2,0,P|292:264|325:269,1,70,2|0,0:0|0:0,0:0:0:0:
414,297,216776,5,2,0:0:0:0:
352,171,217001,1,0,0:0:0:0:
484,216,217227,1,0,0:0:0:0:
363,143,217453,1,0,0:0:0:0:
499,112,217678,2,0,P|473:62|399:17,1,140
32,192,218580,5,2,0:0:0:0:
452,70,220159,5,2,0:0:0:0:
332,67,220385,2,0,P|290:70|249:84,1,70,2|0,0:0|0:0,0:0:0:0:
38,264,221964,5,2,0:0:0:0:
158,261,222190,2,0,P|200:264|241:278,1,70,2|0,0:0|0:0,0:0:0:0:
468,110,223768,5,2,0:0:0:0:
471,230,223994,2,0,P|468:272|454:313,1,70,2|0,0:0|0:0,0:0:0:0:
155,354,225347,1,0,0:0:0:0:
85,170,225798,6,0,B|118:124|118:124|167:105,2,105,10|10|10,0:0|0:0|0:0,0:0:0:0:
63,244,226701,1,10,0:0:0:0:
45,98,227039,1,10,0:0:0:0:
162,185,227377,1,10,0:0:0:0:
237,201,227603,6,0,B|301:191|301:191|339:160,2,105,10|10|10,0:0|0:0|0:0,0:0:0:0:
162,185,228505,1,10,0:0:0:0:
283,266,228843,1,10,0:0:0:0:
263,119,229182,1,10,0:0:0:0:
199,75,229407,6,0,B|138:61|138:61|84:68,1,105,10|10,0:0|0:0,0:0:0:0:
8,185,230084,1,10,0:0:0:0:
82,169,230310,2,0,B|99:109|99:109|96:67,1,105,10|10,0:0|0:0,0:0:0:0:
8,185,230986,1,10,0:0:0:0:
8,262,231212,2,0,L|8:347,1,70,10|0,0:0|0:0,0:0:0:0:
299,364,232114,5,0,0:0:0:0:
379,307,232340,2,0,L|421:304,2,35
299,249,232791,1,0,0:0:0:0:
378,191,233016,6,0,P|413:140|484:148,1,140,6|0,0:0|0:0,0:0:0:0:
312,51,233919,1,10,0:0:0:0:
243,86,234144,1,0,0:0:0:0:
243,86,234257,1,0,0:0:0:0:
243,86,234370,1,0,0:0:0:0:
173,53,234595,1,2,0:0:0:0:
113,101,234821,6,0,P|71:151|116:201,1,140,2|0,0:0|0:0,0:0:0:0:
244,344,235723,1,10,0:0:0:0:
295,286,235949,1,0,0:0:0:0:
295,286,236062,1,10,0:0:0:0:
295,286,236174,1,0,0:0:0:0:
364,319,236400,1,2,0:0:0:0:
433,285,236625,6,0,P|459:223|403:205,1,140,2|0,0:0|0:0,0:0:0:0:
227,120,237528,2,0,P|313:118|370:97,1,140,10|0,0:0|0:0,0:0:0:0:
422,50,238204,1,2,0:0:0:0:
422,50,238430,1,2,0:0:0:0:
226,32,238881,1,0,0:0:0:0:
63,164,239332,6,0,L|20:204,1,46.6666666666667,8|8,0:0|0:0,0:0:0:0:
58,254,239633,2,0,L|23:222,1,46.6666666666667,8|8,0:0|0:0,0:0:0:0:
142,218,240009,1,0,0:0:0:0:
250,264,240234,5,4,0:0:0:0:
313,307,240460,1,0,0:0:0:0:
326,308,240573,1,0,0:0:0:0:
339,310,240686,1,8,0:0:0:0:
403,268,240911,1,8,0:0:0:0:
470,304,241137,1,0,0:0:0:0:
507,236,241362,1,0,0:0:0:0:
507,222,241475,1,0,0:0:0:0:
509,208,241588,1,8,0:0:0:0:
493,132,241813,2,0,B|466:105|466:105|434:97,1,70,8|0,0:0|0:0,0:0:0:0:
358,84,242265,5,0,0:0:0:0:
344,84,242377,1,0,0:0:0:0:
329,84,242490,1,8,0:0:0:0:
259,50,242716,1,8,0:0:0:0:
211,110,242941,1,0,0:0:0:0:
144,70,243167,1,0,0:0:0:0:
130,72,243280,1,0,0:0:0:0:
116,74,243392,1,8,0:0:0:0:
73,138,243618,2,0,B|68:182|68:182|77:220,1,70,8|0,0:0|0:0,0:0:0:0:
104,277,244069,5,0,0:0:0:0:
114,286,244182,1,0,0:0:0:0:
123,295,244295,1,8,0:0:0:0:
198,282,244520,1,8,0:0:0:0:
256,332,244746,1,0,0:0:0:0:
315,283,244971,1,0,0:0:0:0:
328,279,245084,1,0,0:0:0:0:
341,275,245197,1,8,0:0:0:0:
411,304,245422,1,8,0:0:0:0:
470,235,245648,6,0,B|481:187|481:187|481:150,1,70,0|2,0:0|0:0,0:0:0:0:
396,89,246099,2,0,B|385:137|385:137|385:174,1,70,0|2,0:0|0:0,0:0:0:0:
477,78,246550,5,0,0:0:0:0:
477,78,246776,1,0,0:0:0:0:
321,29,247001,1,0,0:0:0:0:
226,148,247227,1,0,0:0:0:0:
