osu file format v14

[General]
AudioFilename: song.mp3
AudioLeadIn: 0
PreviewTime: 131062
Countdown: 0
SampleSet: Soft
StackLeniency: 0.7
Mode: 0
LetterboxInBreaks: 0
WidescreenStoryboard: 1

[Editor]
Bookmarks: 182490
DistanceSpacing: 1.2
BeatDivisor: 2
GridSize: 32
TimelineZoom: 1

[Metadata]
Title:Daft Punk
TitleUnicode:Daft Punk
Artist:Pentatonix
ArtistUnicode:Pentatonix
Creator:DarknessAngel
Version:Easy
Source:
Tags:ptx medley technologic one more time get lucky digital love harder better faster stronger television rules the nation around moway
BeatmapID:659046
BeatmapSetID:292896

[Difficulty]
HPDrainRate:3
CircleSize:3
OverallDifficulty:3
ApproachRate:3
SliderMultiplier:0.8
SliderTickRate:1

[Events]
//Background and Video events
Video,-100,"video.avi"
0,0,"BG.jpg",0,0
//Break Periods
2,189908,202704
//Storyboard Layer 0 (Background)
//Storyboard Layer 1 (Fail)
//Storyboard Layer 2 (Pass)
//Storyboard Layer 3 (Foreground)
//Storyboard Sound Samples

[TimingPoints]
3844,451.127819548872,4,2,1,50,1,0
32716,-100,4,1,1,60,0,0
47152,-100,4,2,1,50,0,0
61588,-100,4,1,1,50,0,0
95874,-100,4,2,1,50,0,0
103092,-100,4,1,1,50,0,0
117528,-100,4,2,1,50,0,0
131964,-100,4,1,1,60,0,1
145949,-100,4,2,1,50,0,1
146400,-100,4,2,1,50,0,0
160836,-100,4,1,1,50,0,0
174370,-100,4,2,1,50,0,0
175272,-100,4,1,1,50,0,0
175723,-100,4,1,2,60,0,0
204144,-100,4,1,1,50,0,0
233016,-100,4,1,1,60,0,1
239332,-100,4,1,1,60,0,0
240234,-100,4,1,1,60,0,1
245648,-100,4,2,1,50,0,0
246776,-100,4,2,1,30,0,0

[Colours]
Combo1 : 255,151,47
Combo2 : 223,223,223
Combo3 : 111,255,255
Combo4 : 166,77,255

[HitObjects]
460,112,3843,6,0,L|408:355,1,240,2|0,0:0|0:0,0:0:0:0:
332,326,5648,2,0,L|380:91,1,240
315,43,7453,6,0,P|199:23|75:34,1,240,2|0,0:0|0:0,0:0:0:0:
66,113,9257,2,0,P|182:133|306:122,1,240
385,123,11062,6,0,P|369:78|341:48,2,80,2|0|0,0:0|0:0|0:0,0:0:0:0:
358,203,12415,1,0,0:0:0:0:
335,279,12866,2,0,P|351:324|379:354,2,80,2|0|0,0:0|0:0|0:0,0:0:0:0:
358,203,14219,1,0,0:0:0:0:
279,221,14671,6,0,P|233:236|184:241,1,80,2|0,0:0|0:0,0:0:0:0:
130,204,15573,2,0,P|115:158|110:109,1,80
153,59,16475,2,0,P|199:44|248:39,1,80
302,76,17377,2,0,P|317:122|322:171,1,80
319,233,18280,5,12,0:0:0:0:
166,349,19182,1,8,0:0:0:0:
46,199,20084,1,8,0:0:0:0:
200,84,20986,1,8,0:0:0:0:
259,266,21889,5,8,0:0:0:0:
447,307,22791,1,8,0:0:0:0:
492,120,23693,1,8,0:0:0:0:
304,82,24595,1,8,0:0:0:0:
244,264,25498,6,0,L|183:327,1,80,8|0,0:0|0:0,0:0:0:0:
150,251,26400,2,0,L|82:302,1,80,8|0,0:0|0:0,0:0:0:0:
53,225,27302,2,0,L|8:148,1,80,8|0,0:0|0:0,0:0:0:0:
90,137,28204,2,0,L|77:52,1,80,8|0,0:0|0:0,0:0:0:0:
157,47,29107,5,8,0:0:0:0:
223,90,29558,1,8,0:0:0:0:
289,46,30009,1,8,0:0:0:0:
359,83,30460,1,8,0:0:0:0:
407,146,30911,2,0,B|426:205|426:205|414:242,1,80
407,300,31813,5,2,0:0:0:0:
334,334,32265,1,0,0:0:0:0:
254,328,32716,6,0,B|188:310|188:310|125:326,1,120,4|4,0:0|0:0,0:0:0:0:
22,235,34069,2,0,B|88:253|88:253|151:237,1,120,4|4,0:0|0:0,0:0:0:0:
208,114,35422,2,0,L|208:56,2,40,8|0|0,0:0|0:0|0:0,0:0:0:0:
279,150,36325,6,0,B|345:168|345:168|408:152,1,120,4|4,0:0|0:0,0:0:0:0:
454,286,37678,2,0,B|388:268|388:268|337:280,1,120,4|4,0:0|0:0,0:0:0:0:
212,351,39031,1,8,0:0:0:0:
136,323,39483,1,8,0:0:0:0:
81,264,39934,6,0,B|66:178|66:178|72:138,1,120,4|4,0:0|0:0,0:0:0:0:
186,59,41287,2,0,B|201:145|201:145|196:177,1,120,4|4,0:0|0:0,0:0:0:0:
259,306,42640,2,0,L|288:344,2,40,8|0|0,0:0|0:0|0:0,0:0:0:0:
289,231,43543,5,0,0:0:0:0:
368,223,43994,1,0,0:0:0:0:
392,148,44445,1,0,0:0:0:0:
471,148,44896,1,0,0:0:0:0:
484,69,45347,1,0,0:0:0:0:
164,48,47152,6,0,P|83:66|46:87,1,120,0|2,0:0|0:0,0:0:0:0:
22,224,48505,2,0,P|103:206|140:185,1,120,0|2,0:0|0:0,0:0:0:0:
256,111,49859,1,0,0:0:0:0:
256,190,50310,1,0,0:0:0:0:
282,265,50761,6,0,P|352:309|393:320,1,120,0|2,0:0|0:0,0:0:0:0:
507,241,52114,2,0,P|436:196|395:185,1,120,0|2,0:0|0:0,0:0:0:0:
312,73,53468,1,0,0:0:0:0:
232,83,53919,1,0,0:0:0:0:
173,137,54370,6,0,P|106:122|56:91,1,120,0|2,0:0|0:0,0:0:0:0:
14,232,55723,2,0,P|81:247|131:278,1,120,0|2,0:0|0:0,0:0:0:0:
240,359,57077,1,0,0:0:0:0:
312,325,57528,1,0,0:0:0:0:
384,359,57979,6,0,P|436:309|461:257,1,120,0|2,0:0|0:0,0:0:0:0:
408,131,59332,2,0,P|363:170|334:222,2,120,0|2|0,0:0|0:0|0:0,0:0:0:0:
473,84,61137,1,0,0:0:0:0:
399,51,61588,6,0,P|355:38|317:32,1,80,4|0,0:0|0:0,0:0:0:0:
177,39,62716,2,0,L|141:81,1,40
108,136,63392,2,0,P|90:182|83:216,1,80
165,330,64520,2,0,L|201:288,1,40
234,233,65196,6,0,P|252:187|259:153,1,80
360,54,66325,2,0,L|395:76,1,40
449,133,67001,2,0,P|463:188|466:218,1,80
383,329,68129,2,0,L|348:307,1,40
278,269,68806,5,0,0:0:0:0:
199,252,69257,1,0,0:0:0:0:
70,317,69934,2,0,L|35:274,1,40
15,212,70610,2,0,P|10:150|13:122,1,80
129,50,71738,2,0,L|154:81,1,40
214,133,72415,5,0,0:0:0:0:
238,209,72866,1,0,0:0:0:0:
229,352,73543,2,0,L|267:337,1,40
344,318,74219,2,0,P|385:313|430:321,1,80
491,277,75122,1,8,0:0:0:0:
450,207,75573,1,0,0:0:0:0:
462,127,76024,5,4,0:0:0:0:
396,81,76475,2,0,P|353:68|306:64,1,80,8|0,0:0|0:0,0:0:0:0:
240,81,77377,1,8,0:0:0:0:
168,117,77828,2,0,P|122:139|95:147,1,80,0|8,0:0|0:0,0:0:0:0:
14,145,78731,2,0,P|23:189|61:218,1,80,0|8,0:0|0:0,0:0:0:0:
126,222,79633,5,0,0:0:0:0:
195,260,80084,2,0,P|234:282|267:313,1,80,8|0,0:0|0:0,0:0:0:0:
318,359,80986,1,8,0:0:0:0:
391,327,81437,2,0,P|455:311|508:314,2,120,0|0|8,0:0|0:0|0:0,0:0:0:0:
318,359,83242,5,0,0:0:0:0:
327,279,83693,2,0,P|345:200|391:131,1,160,8|8,0:0|0:0,0:0:0:0:
462,162,85047,1,0,0:0:0:0:
417,228,85498,2,0,P|338:210|269:164,1,160,8|8,0:0|0:0,0:0:0:0:
211,115,86851,1,0,0:0:0:0:
138,148,87302,2,0,P|76:208|39:282,1,160,8|8,0:0|0:0,0:0:0:0:
35,352,88656,5,0,0:0:0:0:
477,352,90460,5,0,0:0:0:0:
256,32,92265,5,0,0:0:0:0:
164,289,95874,6,0,L|28:270,2,120,2|0|0,0:0|0:0|0:0,0:0:0:0:
242,302,97678,2,0,P|279:224|269:144,1,160,2|0,0:0|0:0,0:0:0:0:
212,99,99031,1,0,0:0:0:0:
288,74,99483,6,0,L|406:37,2,120,2|0|0,0:0|0:0|0:0,0:0:0:0:
212,99,101287,2,0,P|137:130|43:133,1,160,2|0,0:0|0:0,0:0:0:0:
5,194,102640,1,0,0:0:0:0:
41,265,103092,6,0,P|70:297|105:320,1,80,4|0,0:0|0:0,0:0:0:0:
178,335,103994,1,0,0:0:0:0:
256,349,104445,1,0,0:0:0:0:
321,302,104896,2,0,P|366:286|403:282,2,80
248,266,106250,1,0,0:0:0:0:
249,186,106701,6,0,P|258:140|272:106,1,80
337,152,107603,2,0,P|357:109|379:80,1,80
452,58,108505,1,0,0:0:0:0:
479,133,108956,1,0,0:0:0:0:
444,205,109407,1,0,0:0:0:0:
469,281,109859,1,0,0:0:0:0:
408,333,110310,6,0,P|359:322|239:330,1,160
174,353,111663,1,0,0:0:0:0:
99,324,112114,2,0,P|57:246|44:173,1,160
70,100,113468,1,0,0:0:0:0:
136,55,113919,6,0,P|180:41|228:38,1,80
245,111,114821,2,0,P|284:106|322:93,1,80
383,42,115723,2,0,P|424:112|438:191,1,160
419,266,117077,1,0,0:0:0:0:
367,327,117528,6,0,L|277:333,1,80,4|0,0:0|0:0,0:0:0:0:
56,248,119783,2,0,L|72:210,1,40,2|0,0:0|0:0,0:0:0:0:
141,249,120460,2,0,L|157:211,1,40
166,132,121137,6,0,L|74:131,1,80,2|0,0:0|0:0,0:0:0:0:
465,76,123392,2,0,L|449:114,1,40,2|0,0:0|0:0,0:0:0:0:
380,75,124069,2,0,L|364:113,1,40
355,192,124746,6,0,L|447:193,1,80,2|0,0:0|0:0,0:0:0:0:
508,223,125648,1,0,0:0:0:0:
412,350,126550,1,0,0:0:0:0:
276,264,127453,1,0,0:0:0:0:
138,345,128355,5,0,0:0:0:0:
73,298,128806,1,0,0:0:0:0:
85,219,129257,1,0,0:0:0:0:
30,160,129708,1,0,0:0:0:0:
58,85,130159,2,0,L|19:62,2,40
130,120,131062,5,8,0:0:0:0:
196,75,131513,1,0,0:0:0:0:
269,106,131964,6,0,P|318:114|367:111,1,80,4|8,0:0|0:0,0:0:0:0:
427,105,132866,2,0,P|450:141|464:175,1,80,0|8,0:0|0:0,0:0:0:0:
446,253,133768,1,0,0:0:0:0:
396,315,134219,2,0,P|316:300|228:315,1,160,8|8,0:0|0:0,0:0:0:0:
165,343,135573,5,0,0:0:0:0:
86,326,136024,2,0,P|63:282|54:246,1,80,8|0,0:0|0:0,0:0:0:0:
134,241,136926,2,0,P|122:202|103:167,1,80,8|0,0:0|0:0,0:0:0:0:
61,99,137828,1,8,0:0:0:0:
125,51,138280,1,0,0:0:0:0:
191,94,138731,1,8,0:0:0:0:
267,71,139182,6,0,P|313:69|357:76,1,80,0|8,0:0|0:0,0:0:0:0:
326,150,140084,2,0,P|370:159|411:178,1,80,0|8,0:0|0:0,0:0:0:0:
435,245,140986,1,0,0:0:0:0:
404,318,141437,2,0,P|318:328|236:326,1,160,8|8,0:0|0:0,0:0:0:0:
166,309,142791,6,0,L|89:244,1,80
160,199,143693,2,0,L|83:134,1,80
33,193,144595,2,0,B|-18:108|88:22|161:97,1,240,4|0,0:0|0:0,0:0:0:0:
236,114,146400,6,0,L|283:114,1,40,8|0,0:0|0:0,0:0:0:0:
276,336,148204,6,0,L|236:336,1,40
393,169,150009,6,0,L|393:223,1,40
119,209,151813,6,0,L|119:169,1,40
217,63,152716,2,0,P|259:57|299:64,1,80
362,106,153618,5,8,0:0:0:0:
404,173,154069,1,8,0:0:0:0:
447,240,154520,1,8,0:0:0:0:
305,369,155422,5,8,0:0:0:0:
263,302,155873,1,8,0:0:0:0:
220,235,156324,1,8,0:0:0:0:
30,204,157227,5,8,0:0:0:0:
72,271,157678,1,8,0:0:0:0:
139,228,158129,1,8,0:0:0:0:
98,159,158580,1,8,0:0:0:0:
30,204,159031,5,8,0:0:0:0:
163,66,159934,2,0,P|212:60|246:65,1,80
315,95,160836,5,4,0:0:0:0:
387,128,161287,1,0,0:0:0:0:
465,115,161738,2,0,P|479:160|479:201,1,80
449,266,162640,2,0,L|377:320,1,80
344,244,163543,2,0,L|272:298,1,80
200,296,164445,6,0,P|111:307|63:337,1,120
57,349,165347,2,0,L|57:265,1,80
57,188,166250,2,0,P|91:127|142:91,1,120
170,95,167152,2,0,L|254:95,1,80
329,95,168054,5,8,0:0:0:0:
471,224,168956,1,8,0:0:0:0:
335,360,169859,1,8,0:0:0:0:
157,287,170761,1,8,0:0:0:0:
181,96,171663,5,8,0:0:0:0:
104,73,172114,1,8,0:0:0:0:
56,137,172565,1,8,0:0:0:0:
101,202,173016,1,8,0:0:0:0:
177,176,173468,5,8,0:0:0:0:
328,57,174370,2,0,B|376:68|376:68|407:90,1,80
435,158,175272,6,0,B|442:202|442:202|458:238,1,80,4|0,0:0|0:0,0:0:0:0:
501,300,176174,1,10,0:0:0:0:
103,344,178430,1,0,0:0:0:0:
86,265,178881,6,0,B|79:221|79:221|63:185,1,80,2|0,0:0|0:0,0:0:0:0:
20,123,179783,1,10,0:0:0:0:
328,57,181588,2,0,B|376:68|376:68|407:90,1,80,10|0,0:0|0:0,0:0:0:0:
373,160,182490,6,0,B|325:149|325:149|294:127,1,80,2|0,0:0|0:0,0:0:0:0:
248,69,183392,1,10,0:0:0:0:
64,336,185648,1,0,0:0:0:0:
139,309,186099,6,0,B|180:300|180:300|221:307,1,80,2|0,0:0|0:0,0:0:0:0:
284,349,187001,1,10,0:0:0:0:
445,244,187904,2,0,L|471:120,2,120,2|2|10,0:0|0:0|0:0,0:0:0:0:
425,321,189708,1,6,0:0:0:0:
400,236,204144,6,0,P|411:189|414:152,1,80,4|0,0:0|0:0,0:0:0:0:
380,84,205047,1,0,0:0:0:0:
193,39,205949,2,0,P|182:86|179:123,1,80
213,191,206852,1,0,0:0:0:0:
338,335,207753,5,0,0:0:0:0:
258,326,208204,1,0,0:0:0:0:
306,261,208656,1,0,0:0:0:0:
398,92,209558,1,0,0:0:0:0:
322,119,210009,1,0,0:0:0:0:
382,171,210460,1,0,0:0:0:0:
205,95,211362,6,0,P|159:87|124:88,1,80
49,113,212265,1,0,0:0:0:0:
14,301,213167,2,0,P|60:309|95:308,1,80
170,283,214070,1,0,0:0:0:0:
332,182,214971,5,0,0:0:0:0:
387,124,215422,1,0,0:0:0:0:
444,180,215874,1,0,0:0:0:0:
391,240,216325,1,0,0:0:0:0:
256,192,216776,12,0,218580,0:0:0:0:
140,90,220159,6,0,L|188:135,1,40
372,90,221964,6,0,L|324:135,1,40
140,199,223768,6,0,L|188:244,1,40
372,199,225347,1,0,0:0:0:0:
329,266,225798,6,0,B|289:320|289:320|232:344,1,120,8|8,0:0|0:0,0:0:0:0:
200,341,226701,2,0,B|151:320|151:320|111:266,1,120,8|8,0:0|0:0,0:0:0:0:
111,226,227603,2,0,L|141:93,1,120,8|8,0:0|0:0,0:0:0:0:
115,75,228505,2,0,L|248:105,1,120,8|8,0:0|0:0,0:0:0:0:
214,137,229407,6,0,L|347:107,1,120,8|8,0:0|0:0,0:0:0:0:
309,76,230310,2,0,L|442:106,1,120,8|8,0:0|0:0,0:0:0:0:
465,109,231212,1,8,0:0:0:0:
482,268,232114,2,0,B|466:311|466:311|435:328,1,80
357,342,233016,5,4,0:0:0:0:
180,267,233919,1,8,0:0:0:0:
106,298,234370,2,0,L|68:313,2,40
109,106,235723,1,8,0:0:0:0:
48,53,236174,2,0,L|16:26,2,40
236,90,237528,5,8,0:0:0:0:
197,159,237979,2,0,L|175:199,2,40
369,75,239332,2,0,B|416:88|416:88|439:110,1,80,8|8,0:0|0:0,0:0:0:0:
484,175,240234,5,4,0:0:0:0:
431,235,240686,1,8,0:0:0:0:
485,293,241137,1,0,0:0:0:0:
418,337,241588,1,8,0:0:0:0:
363,278,242039,2,0,P|320:269|279:273,1,80,0|8,0:0|0:0,0:0:0:0:
209,301,242941,2,0,P|166:310|125:306,1,80,0|8,0:0|0:0,0:0:0:0:
55,278,243843,5,0,0:0:0:0:
34,200,244295,1,8,0:0:0:0:
84,138,244746,1,0,0:0:0:0:
74,58,245197,1,8,0:0:0:0:
153,52,245648,2,0,L|205:46,2,40
165,131,246550,2,0,L|216:125,2,40
