osu file format v14

[General]
AudioFilename: Preserved Valkyria.mp3
AudioLeadIn: 0
PreviewTime: -1
Countdown: 0
SampleSet: Normal
StackLeniency: 0.7
Mode: 0
LetterboxInBreaks: 1
WidescreenStoryboard: 0

[Editor]
Bookmarks: 15135,19684,41652
DistanceSpacing: 1.1
BeatDivisor: 4
GridSize: 16
TimelineZoom: 1.5

[Metadata]
Title:Preserved Valkyria
TitleUnicode:Preserved Valkyria
Artist:Penoreri
ArtistUnicode:Penoreri
Creator:HerzaIsAPanda
Version:Final
Source:
Tags:
BeatmapID:1363292
BeatmapSetID:643104

[Difficulty]
HPDrainRate:6
CircleSize:4
OverallDifficulty:8
ApproachRate:9.7
SliderMultiplier:1.4
SliderTickRate:1

[Events]
//Background and Video events
0,0,"asdasdasdasdasdasdasd.jpg",0,0
//Break Periods
//Storyboard Layer 0 (Background)
//Storyboard Layer 1 (Fail)
//Storyboard Layer 2 (Pass)
//Storyboard Layer 3 (Foreground)
//Storyboard Sound Samples

[TimingPoints]
1394,387.096774193548,4,1,0,100,1,0
1394,-76.9230769230769,4,1,0,50,0,0
7587,-66.6666666666667,4,1,0,50,0,0
13781,-100,4,1,0,50,0,0
19974,-100,4,1,0,50,0,0
29264,-100,4,1,0,20,0,0
33135,-142.857142857143,4,2,0,50,0,0
35458,-200,4,2,0,50,0,0
38555,-100,4,3,0,65,0,0
38555,-100,4,3,0,65,0,0
39329,-200,4,1,0,50,0,0
45523,-200,4,2,0,30,0,0
46297,400,4,2,0,60,1,0
46297,-66.6666666666667,4,2,0,60,0,0
46697,413.793103448276,4,1,0,100,1,0
47110,461.538461538462,4,3,0,50,1,0
47571,521.739130434783,4,3,0,50,1,0
48092,272.727272727273,4,1,0,100,1,0
48092,-66.6666666666667,4,3,0,60,0,0
52455,-66.6666666666667,4,3,0,65,0,0
52728,-66.6666666666667,4,3,0,60,0,0
54092,-66.6666666666667,4,3,0,65,0,0
54637,-66.6666666666667,4,3,0,60,0,0
55728,-66.6666666666667,4,3,0,65,0,0
56478,-66.6666666666667,4,3,0,75,0,0
65955,-66.6666666666667,4,2,0,50,0,0
67660,-66.6666666666667,4,2,0,50,0,0
69364,-100,4,2,0,50,0,0
70864,-100,4,2,0,50,0,0
70881,-100,4,2,0,15,0,0
70898,-100,4,2,0,15,0,0
71137,-100,4,2,0,50,0,0
74273,-100,4,2,0,20,0,0
74819,-100,4,2,0,50,0,0
75501,-100,4,2,0,20,0,0
75773,-100,4,2,0,50,0,0
80819,-66.6666666666667,4,1,0,50,0,0
82455,-76.9230769230769,4,2,0,50,0,0
82728,-76.9230769230769,4,2,0,50,0,0
83001,-66.6666666666667,4,1,0,50,0,1
83955,-66.6666666666667,4,1,0,50,0,1
84364,-90.9090909090909,4,3,0,50,0,1
90228,-66.6666666666667,4,3,0,50,0,1
91728,-66.6666666666667,4,1,0,50,0,1
99364,-66.6666666666667,4,3,0,80,0,1
100455,-66.6666666666667,4,3,0,50,0,0
108092,-66.6666666666667,4,3,0,50,0,0
117910,-66.6666666666667,4,3,0,70,0,0
118387,-66.6666666666667,4,3,0,70,0,0

[HitObjects]
48,256,1394,6,0,P|96:288|176:272,1,136.499993751526
192,256,1781,2,0,L|336:288,1,136.499993751526
320,304,2168,2,0,L|352:160,1,136.499993751526
160,80,2748,1,0,0:0:0:0:
400,208,3135,1,0,0:0:0:0:
192,240,3474,6,0,L|64:240,2,113.749994792938
352,240,4297,1,0,0:0:0:0:
208,128,4684,5,0,0:0:0:0:
180,163,4780,1,0,0:0:0:0:
171,208,4877,1,0,0:0:0:0:
180,252,4974,1,0,0:0:0:0:
208,288,5071,1,0,0:0:0:0:
320,192,5458,2,0,L|416:192,1,90.9999958343508
160,192,5845,1,0,0:0:0:0:
288,80,6039,1,0,0:0:0:0:
329,63,6135,1,0,0:0:0:0:
370,79,6232,1,0,0:0:0:0:
400,128,6329,1,0,0:0:0:0:
441,144,6425,1,0,0:0:0:0:
483,129,6522,1,0,0:0:0:0:
496,80,6619,1,0,0:0:0:0:
464,48,6716,1,0,0:0:0:0:
416,48,6813,1,0,0:0:0:0:
416,288,7200,5,0,0:0:0:0:
128,176,7587,1,0,0:0:0:0:
288,176,7781,2,0,L|288:256,1,52.5000020027161
288,336,7974,1,0,0:0:0:0:
400,176,8168,6,0,L|400:256,1,52.5000020027161
400,336,8361,1,0,0:0:0:0:
192,176,8555,6,0,L|192:256,1,52.5000020027161
192,336,8748,1,0,0:0:0:0:
400,272,8942,6,0,L|400:208,1,52.5000020027161
400,80,9135,1,0,0:0:0:0:
192,272,9329,6,0,L|192:208,1,52.5000020027161
192,80,9522,1,0,0:0:0:0:
352,192,9716,2,0,L|416:192,1,52.5000020027161
192,192,9910,1,0,0:0:0:0:
336,112,10103,1,0,0:0:0:0:
336,304,10297,1,0,0:0:0:0:
240,128,10490,1,0,0:0:0:0:
80,288,10660,2,0,L|176:288,1,78.7500030040742
256,272,10950,1,0,0:0:0:0:
336,224,11071,6,0,L|432:224,1,78.7500030040742
512,208,11337,1,0,0:0:0:0:
414,224,11458,6,0,L|336:224,1,78.7500030040742
256,272,11724,1,0,0:0:0:0:
158,288,11845,2,0,L|80:288,1,78.7500030040742
48,144,12135,1,0,0:0:0:0:
272,320,12256,1,0,0:0:0:0:
397,69,12426,1,0,0:0:0:0:
352,64,12523,1,0,0:0:0:0:
304,80,12619,1,0,0:0:0:0:
272,112,12716,5,0,0:0:0:0:
224,128,12813,1,0,0:0:0:0:
176,112,12909,1,0,0:0:0:0:
144,80,13006,1,0,0:0:0:0:
16,304,13393,5,0,0:0:0:0:
224,48,13781,5,0,0:0:0:0:
272,192,13974,1,0,0:0:0:0:
448,160,14168,1,0,0:0:0:0:
224,288,14361,1,0,0:0:0:0:
320,112,14555,1,0,0:0:0:0:
400,240,14748,5,0,0:0:0:0:
352,256,14844,1,0,0:0:0:0:
304,240,14942,2,0,L|256:202,1,35
160,48,15135,5,0,0:0:0:0:
112,64,15232,1,0,0:0:0:0:
79,95,15328,1,0,0:0:0:0:
62,143,15425,1,0,0:0:0:0:
80,192,15522,1,0,0:0:0:0:
112,224,15619,1,0,0:0:0:0:
154,237,15716,1,0,0:0:0:0:
206,236,15812,1,0,0:0:0:0:
253,215,15909,5,0,0:0:0:0:
288,176,16006,1,0,0:0:0:0:
296,129,16103,1,0,0:0:0:0:
337,98,16199,1,0,0:0:0:0:
389,97,16296,1,0,0:0:0:0:
431,127,16393,1,0,0:0:0:0:
448,176,16490,5,0,0:0:0:0:
427,221,16586,1,0,0:0:0:0:
398,265,16683,1,0,0:0:0:0:
355,294,16780,1,0,0:0:0:0:
304,304,16877,1,0,0:0:0:0:
256,304,16974,2,0,P|204:294|137:315,1,105
106,320,17361,5,0,0:0:0:0:
58,304,17458,1,0,0:0:0:0:
34,256,17555,1,0,0:0:0:0:
26,208,17652,1,0,0:0:0:0:
42,160,17748,1,0,0:0:0:0:
82,128,17845,1,0,0:0:0:0:
130,112,17942,1,0,0:0:0:0:
178,120,18039,1,0,0:0:0:0:
218,152,18135,1,0,0:0:0:0:
274,140,18232,1,0,0:0:0:0:
326,137,18329,1,0,0:0:0:0:
365,169,18426,1,0,0:0:0:0:
372,220,18523,1,0,0:0:0:0:
343,262,18619,1,0,0:0:0:0:
293,273,18716,1,0,0:0:0:0:
242,252,18813,5,0,0:0:0:0:
202,228,18910,1,0,0:0:0:0:
154,228,19006,1,0,0:0:0:0:
110,244,19103,1,0,0:0:0:0:
62,236,19200,1,0,0:0:0:0:
80,80,19393,5,0,0:0:0:0:
96,256,19587,2,0,L|80:288,1,35
224,240,19781,2,0,L|240:208,1,35
320,336,19974,2,0,P|320:288|512:256,1,280
432,304,20942,5,0,0:0:0:0:
288,240,21135,1,0,0:0:0:0:
112,304,21329,1,0,0:0:0:0:
336,208,21523,2,0,P|416:192|480:208,1,140
176,208,22297,2,0,P|96:192|32:208,1,140
240,224,23071,6,0,L|288:208,1,35
448,112,23264,2,0,L|416:128,1,35
400,304,23555,5,0,0:0:0:0:
192,352,23748,5,0,0:0:0:0:
192,352,23845,1,0,0:0:0:0:
304,192,24039,1,0,0:0:0:0:
304,192,24135,1,0,0:0:0:0:
80,256,24329,1,0,0:0:0:0:
192,112,24523,1,0,0:0:0:0:
240,256,24716,1,0,0:0:0:0:
240,256,24813,1,0,0:0:0:0:
240,256,24910,1,0,0:0:0:0:
432,256,25103,5,0,0:0:0:0:
240,256,25297,2,0,L|176:256,1,35
432,256,25587,1,0,0:0:0:0:
432,256,25684,1,0,0:0:0:0:
304,352,25877,5,0,0:0:0:0:
80,256,26071,2,0,L|144:256,1,35
352,256,26264,2,0,L|288:256,1,35
112,352,26458,1,0,0:0:0:0:
352,256,26652,1,0,0:0:0:0:
352,96,26845,5,0,0:0:0:0:
352,96,26942,1,0,0:0:0:0:
208,240,27135,1,0,0:0:0:0:
208,240,27232,1,0,0:0:0:0:
416,192,27426,1,0,0:0:0:0:
208,128,27619,1,0,0:0:0:0:
208,320,27813,1,0,0:0:0:0:
208,320,27910,1,0,0:0:0:0:
208,320,28006,1,0,0:0:0:0:
224,192,28200,5,0,0:0:0:0:
336,336,28393,1,0,0:0:0:0:
512,304,28635,1,0,0:0:0:0:
432,240,28756,5,0,0:0:0:0:
304,224,28877,1,0,0:0:0:0:
192,272,29023,1,0,0:0:0:0:
128,368,29168,1,0,0:0:0:0:
49,291,33135,6,0,P|113:99|145:307,1,563.499982803345
112,208,35458,2,0,B|110:186|142:154|190:154|238:186|254:266|302:298|366:314|430:298|462:250|462:186,1,455
272,32,38168,6,0,P|268:72|272:112,1,70
96,304,38652,2,0,L|96:336,12,17.5
272,272,39329,6,0,B|304:192|400:224|480:240|512:144,1,280
416,32,41168,5,0,0:0:0:0:
80,208,41458,1,0,0:0:0:0:
64,224,41652,6,0,B|144:256|208:224|208:224|272:352|400:368|480:272|480:176|416:144,1,560
192,336,45523,5,0,0:0:0:0:
176,48,45716,1,0,0:0:0:0:
384,256,45910,1,0,0:0:0:0:
80,224,46103,1,0,0:0:0:0:
384,80,46297,2,0,L|384:96,1,13.125000500679
256,192,47110,5,0,0:0:0:0:
256,192,47571,5,0,0:0:0:0:
64,112,48092,6,0,L|176:112,1,105.000004005432
400,176,48364,1,0,0:0:0:0:
192,240,48501,1,0,0:0:0:0:
352,96,48637,1,0,0:0:0:0:
416,288,48773,1,0,0:0:0:0:
192,112,48910,6,0,L|192:224,1,105.000004005432
320,336,49182,1,0,0:0:0:0:
144,240,49319,1,0,0:0:0:0:
272,176,49455,1,0,0:0:0:0:
96,352,49592,1,0,0:0:0:0:
480,272,49728,5,0,0:0:0:0:
272,272,49864,1,0,0:0:0:0:
480,272,50001,1,0,0:0:0:0:
272,272,50137,1,0,0:0:0:0:
368,128,50273,2,0,L|368:256,1,105.000004005432
192,192,50546,1,0,0:0:0:0:
416,64,50682,1,0,0:0:0:0:
288,320,50819,5,0,0:0:0:0:
144,272,50955,1,0,0:0:0:0:
96,128,51092,1,0,0:0:0:0:
96,320,51228,1,0,0:0:0:0:
368,192,51364,6,0,L|256:192,1,105.000004005432
176,112,51637,1,0,0:0:0:0:
208,336,51773,1,0,0:0:0:0:
320,192,51910,1,0,0:0:0:0:
48,256,52046,1,0,0:0:0:0:
256,288,52182,1,0,0:0:0:0:
176,112,52319,1,0,0:0:0:0:
432,208,52455,6,4,L|320:240,1,105.000004005432
176,224,52728,1,0,0:0:0:0:
288,64,52864,1,0,0:0:0:0:
336,304,53001,1,0,0:0:0:0:
400,128,53137,1,0,0:0:0:0:
464,320,53273,5,0,0:0:0:0:
320,160,53410,1,0,0:0:0:0:
240,304,53546,1,0,0:0:0:0:
400,240,53682,1,0,0:0:0:0:
400,384,53819,1,0,0:0:0:0:
288,240,53955,1,0,0:0:0:0:
176,304,54092,6,4,L|64:304,1,105.000004005432
64,192,54364,2,4,L|192:192,1,105.000004005432
384,272,54637,1,0,0:0:0:0:
240,128,54773,1,0,0:0:0:0:
352,176,54910,1,0,0:0:0:0:
112,176,55046,1,0,0:0:0:0:
64,272,55182,5,0,0:0:0:0:
240,96,55319,1,0,0:0:0:0:
240,304,55455,1,0,0:0:0:0:
64,160,55592,1,0,0:0:0:0:
368,160,55728,6,4,L|480:160,1,105.000004005432
320,224,56001,6,4,L|448:224,1,105.000004005432
272,288,56273,6,4,L|400:288,1,105.000004005432
416,288,56478,5,0,0:0:0:0:
459,260,56546,1,0,0:0:0:0:
479,213,56614,1,0,0:0:0:0:
466,163,56682,1,0,0:0:0:0:
425,131,56750,1,0,0:0:0:0:
368,128,56819,5,0,0:0:0:0:
144,208,56955,1,0,0:0:0:0:
400,272,57092,1,0,0:0:0:0:
272,96,57228,1,0,0:0:0:0:
112,304,57364,1,0,0:0:0:0:
368,192,57501,1,0,0:0:0:0:
224,272,57637,6,0,L|224:160,1,105.000004005432
224,64,57910,1,0,0:0:0:0:
144,240,58046,1,0,0:0:0:0:
64,96,58182,1,0,0:0:0:0:
288,224,58319,1,0,0:0:0:0:
320,48,58455,6,0,L|368:160,1,105.000004005432
160,320,58728,2,0,L|118:223,1,105.000004005432
288,144,59001,1,0,0:0:0:0:
96,48,59137,1,0,0:0:0:0:
288,32,59273,1,0,0:0:0:0:
64,176,59410,1,0,0:0:0:0:
288,48,59546,1,0,0:0:0:0:
160,256,59682,1,0,0:0:0:0:
288,64,59819,2,0,L|400:96,1,105.000004005432
480,160,60092,5,0,0:0:0:0:
304,304,60228,1,0,0:0:0:0:
384,128,60364,1,0,0:0:0:0:
176,304,60501,1,0,0:0:0:0:
368,144,60637,2,0,L|480:192,1,105.000004005432
144,224,60910,2,0,L|32:272,1,105.000004005432
176,96,61182,5,0,0:0:0:0:
416,272,61319,1,0,0:0:0:0:
352,128,61455,1,0,0:0:0:0:
96,288,61592,1,0,0:0:0:0:
272,48,61728,5,0,0:0:0:0:
304,288,61864,1,0,0:0:0:0:
96,192,62001,1,0,0:0:0:0:
336,112,62137,1,0,0:0:0:0:
336,320,62273,1,0,0:0:0:0:
192,192,62410,1,0,0:0:0:0:
432,192,62546,1,0,0:0:0:0:
432,352,62682,1,0,0:0:0:0:
304,160,62819,6,0,L|208:240,1,105.000004005432
112,336,63092,2,0,L|224:336,1,105.000004005432
400,288,63364,5,0,0:0:0:0:
435,249,63432,1,0,0:0:0:0:
454,201,63500,1,0,0:0:0:0:
456,148,63568,1,0,0:0:0:0:
440,99,63636,1,0,0:0:0:0:
408,57,63704,1,0,0:0:0:0:
364,30,63773,5,0,0:0:0:0:
313,19,63841,1,0,0:0:0:0:
261,26,63909,1,0,0:0:0:0:
215,51,63977,1,0,0:0:0:0:
180,90,64045,1,0,0:0:0:0:
161,138,64113,1,0,0:0:0:0:
159,190,64182,1,0,0:0:0:0:
176,240,64251,1,0,0:0:0:0:
207,280,64319,1,0,0:0:0:0:
256,304,64387,5,0,0:0:0:0:
304,304,64455,1,0,0:0:0:0:
355,294,64523,1,0,0:0:0:0:
398,265,64591,1,0,0:0:0:0:
427,221,64659,1,0,0:0:0:0:
448,176,64728,1,0,0:0:0:0:
431,127,64796,1,0,0:0:0:0:
389,97,64864,1,0,0:0:0:0:
337,98,64932,5,0,0:0:0:0:
296,129,65000,1,0,0:0:0:0:
288,176,65001,1,0,0:0:0:0:
253,215,65069,1,0,0:0:0:0:
206,236,65137,1,0,0:0:0:0:
154,237,65205,1,0,0:0:0:0:
112,224,65273,5,0,0:0:0:0:
80,192,65342,1,0,0:0:0:0:
62,143,65410,1,0,0:0:0:0:
79,95,65478,1,0,0:0:0:0:
112,64,65546,1,0,0:0:0:0:
160,48,65614,1,0,0:0:0:0:
368,176,65955,5,0,0:0:0:0:
160,320,66364,5,0,0:0:0:0:
128,128,66910,5,0,0:0:0:0:
384,128,67182,1,0,0:0:0:0:
256,288,67455,1,0,0:0:0:0:
256,96,67728,2,0,L|256:146,1,39.3750015020371
192,192,68546,5,0,0:0:0:0:
320,192,68682,1,0,0:0:0:0:
208,304,69501,6,0,L|288:304,2,70
96,224,69910,5,0,0:0:0:0:
156,166,70046,1,0,0:0:0:0:
238,152,70182,1,0,0:0:0:0:
320,133,70319,1,0,0:0:0:0:
381,76,70455,1,0,0:0:0:0:
400,158,70592,1,0,0:0:0:0:
368,235,70728,1,0,0:0:0:0:
286,254,70864,2,0,P|228:243|160:160,1,140
128,96,71273,5,0,0:0:0:0:
256,192,71546,1,0,0:0:0:0:
400,96,71819,1,0,0:0:0:0:
256,64,72092,1,0,0:0:0:0:
256,288,72364,1,0,0:0:0:0:
256,160,72501,1,0,0:0:0:0:
448,224,73728,5,0,0:0:0:0:
80,224,74001,1,0,0:0:0:0:
256,224,74273,1,0,0:0:0:0:
112,224,74410,1,0,0:0:0:0:
256,320,74546,1,0,0:0:0:0:
416,224,74682,1,0,0:0:0:0:
384,48,74955,5,0,0:0:0:0:
240,256,75228,1,0,0:0:0:0:
192,112,75364,2,0,P|128:96|48:112,1,140
336,192,75773,5,0,0:0:0:0:
144,224,76182,5,0,0:0:0:0:
288,80,76455,1,0,0:0:0:0:
288,256,76728,1,0,0:0:0:0:
288,256,76864,2,0,P|352:240|432:256,1,140
448,336,77273,5,0,0:0:0:0:
368,352,77410,1,0,0:0:0:0:
288,336,77546,2,0,P|256:272|272:192,1,140
352,96,77955,5,0,0:0:0:0:
400,176,78092,1,0,0:0:0:0:
352,256,78228,1,0,0:0:0:0:
272,224,78364,1,0,0:0:0:0:
192,256,78501,1,0,0:0:0:0:
112,304,78637,2,0,P|64:256|64:176,1,140
96,32,79046,2,0,L|192:144,1,140
416,256,79455,5,0,0:0:0:0:
272,96,79592,1,0,0:0:0:0:
256,192,79728,12,0,80546,0:0:0:0:
96,256,80819,6,0,P|96:192|208:112,1,210.000008010865
224,208,81228,2,0,P|304:240|384:160,1,210.000008010865
416,32,81637,1,0,0:0:0:0:
448,152,81773,2,0,P|456:216|424:272,1,105.000004005432
192,336,82046,1,0,0:0:0:0:
328,144,82182,1,0,0:0:0:0:
328,352,82319,1,0,0:0:0:0:
136,192,82455,6,0,P|168:133|231:112,1,136.499993751526
307,231,82728,2,0,P|374:242|424:288,1,136.499993751526
96,144,83001,2,0,L|144:352,1,210.000008010865
256,256,83410,2,0,P|320:208|464:224,1,210.000008010865
176,48,83819,1,0,0:0:0:0:
176,48,83955,2,0,B|192:96|160:160|160:160|208:208|208:272,1,210.000008010865
80,336,84364,5,0,0:0:0:0:
80,208,84501,1,0,0:0:0:0:
208,304,84637,1,0,0:0:0:0:
208,112,84773,1,0,0:0:0:0:
352,208,84910,1,0,0:0:0:0:
96,208,85046,1,0,0:0:0:0:
288,336,85182,2,0,B|336:288|336:288|336:240|352:192,1,154.000004699707
208,32,85592,6,0,B|176:80|224:112|192:192,1,154.000004699707
80,112,86001,1,0,0:0:0:0:
336,112,86137,1,0,0:0:0:0:
288,288,86273,2,0,P|224:240|144:256,1,154.000004699707
128,336,86682,2,0,L|128:160,1,154.000004699707
128,160,87092,5,0,0:0:0:0:
224,272,87228,1,0,0:0:0:0:
336,96,87365,1,0,0:0:0:0:
448,272,87501,1,0,0:0:0:0:
448,96,87637,1,0,0:0:0:0:
336,272,87773,1,0,0:0:0:0:
224,96,87910,1,0,0:0:0:0:
464,176,88046,1,0,0:0:0:0:
224,272,88182,1,0,0:0:0:0:
112,96,88319,2,0,P|185:81|250:119,1,154.000004699707
112,336,88728,5,0,0:0:0:0:
256,128,88864,1,0,0:0:0:0:
320,256,89001,1,0,0:0:0:0:
80,240,89137,1,0,0:0:0:0:
240,64,89273,2,0,L|240:160,1,77.0000023498536
240,320,89546,2,0,P|304:304|352:224,1,154.000004699707
368,80,89955,2,0,P|416:80|464:96,1,77.0000023498536
416,272,90228,5,0,0:0:0:0:
368,288,90296,1,0,0:0:0:0:
320,272,90364,1,0,0:0:0:0:
176,64,90501,1,0,0:0:0:0:
176,336,90637,1,0,0:0:0:0:
352,112,90773,1,0,0:0:0:0:
32,192,90910,1,0,0:0:0:0:
240,288,91046,2,0,L|320:208,1,105.000004005432
432,96,91319,5,0,0:0:0:0:
336,352,91455,1,0,0:0:0:0:
160,160,91592,1,0,0:0:0:0:
408,160,91728,1,0,0:0:0:0:
460,157,91796,1,0,0:0:0:0:
499,189,91864,1,0,0:0:0:0:
506,240,91932,1,0,0:0:0:0:
477,282,92000,1,0,0:0:0:0:
427,293,92068,1,0,0:0:0:0:
376,272,92137,5,0,0:0:0:0:
336,248,92205,1,0,0:0:0:0:
288,248,92273,1,0,0:0:0:0:
244,264,92342,1,0,0:0:0:0:
196,256,92410,1,0,0:0:0:0:
160,228,92478,1,0,0:0:0:0:
159,180,92546,2,0,P|184:160|200:128,1,52.5000020027161
192,32,92682,5,0,0:0:0:0:
160,57,92750,1,0,0:0:0:0:
109,68,92818,1,0,0:0:0:0:
59,55,92886,1,0,0:0:0:0:
24,96,92955,1,0,0:0:0:0:
31,146,93023,1,0,0:0:0:0:
74,173,93091,1,0,0:0:0:0:
118,177,93160,1,0,0:0:0:0:
171,180,93228,1,0,0:0:0:0:
219,199,93296,1,0,0:0:0:0:
268,184,93364,5,0,0:0:0:0:
316,162,93432,1,0,0:0:0:0:
368,161,93500,1,0,0:0:0:0:
415,182,93568,1,0,0:0:0:0:
460,208,93637,2,0,P|496:212|528:200,1,52.5000020027161
480,120,93773,5,0,0:0:0:0:
440,88,93841,1,0,0:0:0:0:
392,80,93909,1,0,0:0:0:0:
344,96,93977,1,0,0:0:0:0:
304,128,94046,1,0,0:0:0:0:
288,176,94114,1,0,0:0:0:0:
296,224,94182,1,0,0:0:0:0:
320,272,94250,1,0,0:0:0:0:
368,288,94318,1,0,0:0:0:0:
416,272,94387,2,0,P|440:263|460:246,1,52.2500015945435
488,200,94523,6,0,P|496:176|496:144,1,52.5000020027161
464,104,94659,1,0,0:0:0:0:
416,112,94727,1,0,0:0:0:0:
368,136,94796,1,0,0:0:0:0:
320,144,94864,1,0,0:0:0:0:
272,120,94932,1,0,0:0:0:0:
120,168,95001,2,0,L|76:197,1,52.5000020027161
312,16,95137,2,0,P|328:40|340:80,1,52.5000020027161
400,332,95273,2,0,P|372:344|340:348,1,52.5000020027161
160,192,95410,2,0,P|128:192|96:184,1,52.5000020027161
368,192,95546,2,0,P|400:192|432:184,1,52.5000020027161
256,64,95682,6,0,P|258:37|265:12,1,52.5000020027161
256,320,95819,6,0,P|253:346|246:371,1,52.5000020027161
112,192,95955,6,0,P|105:166|102:140,1,52.5000020027161
160,32,96092,2,0,P|224:32|256:160,1,210.000008010865
112,272,96501,1,0,0:0:0:0:
256,80,96637,1,0,0:0:0:0:
256,320,96773,1,0,0:0:0:0:
128,112,96910,1,0,0:0:0:0:
320,192,97046,1,0,0:0:0:0:
160,336,97182,6,0,P|48:304|32:224,1,210.000008010865
240,16,97592,1,0,0:0:0:0:
240,304,97729,1,0,0:0:0:0:
40,192,97865,1,0,0:0:0:0:
352,112,98001,1,0,0:0:0:0:
352,320,98137,1,0,0:0:0:0:
151,160,98273,6,0,P|196:133|248:126,1,105.000004005432
368,288,98546,1,0,0:0:0:0:
464,48,98682,1,0,0:0:0:0:
256,256,98819,2,0,L|144:256,1,105.000004005432
32,64,99092,1,0,0:0:0:0:
336,176,99228,1,0,0:0:0:0:
32,320,99364,2,0,P|16:288|16:256,1,52.5000020027161
64,160,99501,1,0,0:0:0:0:
64,160,99569,1,0,0:0:0:0:
64,160,99637,2,0,L|128:160,1,52.5000020027161
240,304,99773,5,0,0:0:0:0:
240,304,99842,1,0,0:0:0:0:
240,304,99910,2,0,L|304:304,1,52.5000020027161
400,160,100046,5,0,0:0:0:0:
400,160,100114,1,0,0:0:0:0:
400,160,100182,2,0,L|464:160,1,52.5000020027161
496,288,100319,2,0,P|480:304|432:320,1,52.5000020027161
288,96,100455,6,0,P|336:80|400:96,1,105.000004005432
496,224,100728,1,0,0:0:0:0:
288,96,100864,1,0,0:0:0:0:
288,336,101001,1,0,0:0:0:0:
128,96,101137,1,0,0:0:0:0:
432,296,101273,6,0,L|320:296,1,105.000004005432
104,160,101546,1,0,0:0:0:0:
264,264,101682,1,0,0:0:0:0:
224,32,101819,1,0,0:0:0:0:
448,128,101955,1,0,0:0:0:0:
224,144,102092,2,0,P|184:192|136:208,1,105.000004005432
304,80,102364,2,0,L|432:80,1,105.000004005432
352,320,102637,6,0,P|304:336|224:304,1,105.000004005432
128,176,102910,1,0,0:0:0:0:
336,240,103046,1,0,0:0:0:0:
336,0,103182,1,0,0:0:0:0:
112,160,103319,1,0,0:0:0:0:
416,128,103455,6,0,L|432:240,1,105.000004005432
448,336,103728,1,0,0:0:0:0:
368,96,103864,1,0,0:0:0:0:
272,328,104001,1,0,0:0:0:0:
256,64,104137,1,0,0:0:0:0:
192,216,104273,2,0,P|128:208|80:216,1,105.000004005432
320,216,104546,2,0,P|384:208|432:216,1,105.000004005432
128,328,104819,6,0,L|80:216,1,105.000004005432
32,56,105092,1,0,0:0:0:0:
272,160,105228,1,0,0:0:0:0:
32,288,105364,1,0,0:0:0:0:
200,72,105501,1,0,0:0:0:0:
256,312,105637,6,0,L|384:320,1,105.000004005432
384,112,105910,1,0,0:0:0:0:
112,240,106046,1,0,0:0:0:0:
352,240,106182,1,0,0:0:0:0:
352,32,106319,1,0,0:0:0:0:
192,256,106455,2,0,B|136:264|96:272|96:272|72:256,1,105.000004005432
320,96,106728,2,0,B|376:88|416:80|416:80|440:96,1,105.000004005432
448,256,107001,6,0,L|448:144,1,105.000004005432
448,32,107273,1,0,0:0:0:0:
208,160,107410,1,0,0:0:0:0:
480,304,107546,1,0,0:0:0:0:
384,112,107682,1,0,0:0:0:0:
160,160,107819,1,0,0:0:0:0:
320,240,107955,1,0,0:0:0:0:
32,144,108092,6,0,P|80:104|128:88,1,105.000004005432,4|0,0:0|0:0,0:0:0:0:
472,72,108364,6,4,P|424:112|376:128,1,105.000004005432
48,328,108637,6,0,P|96:288|144:272,1,105.000004005432,4|0,0:0|0:0,0:0:0:0:
192,272,108842,5,0,0:0:0:0:
236,299,108910,1,0,0:0:0:0:
287,309,108978,1,0,0:0:0:0:
338,299,109046,1,0,0:0:0:0:
382,271,109114,1,0,0:0:0:0:
413,229,109182,1,0,0:0:0:0:
240,88,109319,5,0,0:0:0:0:
168,320,109455,1,0,0:0:0:0:
16,192,109592,1,0,0:0:0:0:
280,248,109728,5,0,0:0:0:0:
320,40,109864,1,0,0:0:0:0:
80,208,110001,1,0,0:0:0:0:
352,128,110137,5,0,0:0:0:0:
352,344,110273,1,0,0:0:0:0:
144,224,110410,1,0,0:0:0:0:
413,229,110546,5,0,0:0:0:0:
128,96,110682,1,0,0:0:0:0:
80,320,110819,2,0,L|200:320,1,105.000004005432
448,160,111092,2,0,L|328:160,1,105.000004005432
176,48,111364,5,0,0:0:0:0:
144,336,111501,1,0,0:0:0:0:
272,96,111637,1,0,0:0:0:0:
240,312,111773,1,0,0:0:0:0:
88,88,111910,1,0,0:0:0:0:
48,272,112046,5,0,0:0:0:0:
296,232,112182,1,0,0:0:0:0:
24,152,112319,1,0,0:0:0:0:
64,368,112455,1,0,0:0:0:0:
192,152,112592,1,0,0:0:0:0:
288,336,112728,1,0,0:0:0:0:
408,120,112864,1,0,0:0:0:0:
448,336,113001,6,0,L|312:328,1,105.000004005432
72,120,113273,2,0,L|208:112,1,105.000004005432
336,104,113546,5,0,0:0:0:0:
144,288,113682,1,0,0:0:0:0:
400,192,113819,1,0,0:0:0:0:
80,192,113955,1,0,0:0:0:0:
448,128,114092,1,0,0:0:0:0:
48,256,114228,1,0,0:0:0:0:
448,256,114364,1,0,0:0:0:0:
48,128,114501,1,0,0:0:0:0:
352,192,114637,5,0,0:0:0:0:
48,64,114773,1,0,0:0:0:0:
48,320,114910,1,0,0:0:0:0:
288,144,115046,1,0,0:0:0:0:
48,320,115182,2,0,P|98:333|150:331,1,105.000004005432
432,48,115455,2,0,P|381:34|329:36,1,105.000004005432
152,168,115728,6,0,P|200:128|256:104,1,105.000004005432
448,72,116001,1,0,0:0:0:0:
376,272,116137,6,0,P|328:312|272:336,1,105.000004005432
168,96,116410,1,0,0:0:0:0:
489,208,116546,6,0,L|384:208,1,105.000004005432
88,256,116819,1,0,0:0:0:0:
256,80,116955,1,0,0:0:0:0:
256,320,117092,1,0,0:0:0:0:
96,144,117228,1,0,0:0:0:0:
400,144,117364,1,0,0:0:0:0:
80,144,117501,1,0,0:0:0:0:
416,144,117637,1,0,0:0:0:0:
256,336,117773,1,0,0:0:0:0:
448,248,117910,6,4,P|416:272|400:272,1,52.5000020027161
96,72,118114,6,4,P|128:48|144:48,1,52.5000020027161
256,192,118387,1,0,0:0:0:0:
256,192,118455,12,0,122546,0:0:0:0:
