osu file format v12

[General]
AudioFilename: Witchcraft.mp3
AudioLeadIn: 0
PreviewTime: 45225
Countdown: 1
SampleSet: Normal
StackLeniency: 0.7
Mode: 0
LetterboxInBreaks: 1

[Editor]
Bookmarks: 67294,89363,101777,111432,121777,134019,166605,177467
DistanceSpacing: 0.8
BeatDivisor: 2
GridSize: 8

[Metadata]
Title:Witchcraft
TitleUnicode:Witchcraft
Artist:Pendulum
ArtistUnicode:Pendulum
Creator:Shinxyn
Version:Insane
Source:
Tags:
BeatmapID:142698
BeatmapSetID:45746

[Difficulty]
HPDrainRate:7
CircleSize:4
OverallDifficulty:9
ApproachRate:9
SliderMultiplier:1.8
SliderTickRate:0.5

[Events]
//Background and Video events
0,0,"Witchcraft.jpg",0,0
//Break Periods
//Storyboard Layer 0 (Background)
//Storyboard Layer 1 (Fail)
//Storyboard Layer 2 (Pass)
//Storyboard Layer 3 (Foreground)
//Storyboard Sound Samples
//Background Colour Transformations
3,100,163,162,255

[TimingPoints]
45226,344.827586206897,4,1,0,100,1,0
177467,-200,4,1,0,100,0,0
196777,-200,4,1,0,90,0,0
197898,-200,4,1,0,80,0,0
198157,-200,4,1,0,70,0,0
199536,-200,4,1,0,60,0,0
199794,-200,4,1,0,5,0,0
201432,-200,4,1,0,25,0,0
201777,-200,4,1,0,50,0,0
202122,-200,4,1,0,75,0,0
202467,-100,4,1,0,100,0,1
224536,-100,4,1,0,100,0,0

[Colours]
Combo1 : 41,214,197
Combo2 : 77,251,77
Combo3 : 79,62,234
Combo4 : 247,62,196

[HitObjects]
400,328,45225,2,0,B|504:272|440:152,1,180,4|0,0:0|0:0,0:0:0:0:
376,232,45743,1,0,0:0:0:0:
376,232,46260,1,0,0:0:0:0:
80,192,46605,6,0,B|32:80|145:33,1,180,0|0,0:0|0:0,0:0:0:0:
144,128,47122,1,0,0:0:0:0:
144,128,47639,1,0,0:0:0:0:
144,312,47984,6,0,B|256:368|336:256,1,180
376,232,48501,1,0,0:0:0:0:
376,232,49019,1,0,0:0:0:0:
376,232,49363,1,0,0:0:0:0:
56,72,50053,5,0,0:0:0:0:
176,144,50226,1,0,0:0:0:0:
296,208,50398,1,0,0:0:0:0:
256,32,50743,6,0,B|368:24|424:120,1,180,4|0,0:0|0:0,0:0:0:0:
328,128,51260,1,0,0:0:0:0:
64,192,51777,1,0,0:0:0:0:
224,280,52122,6,0,B|192:168|304:120,1,180
376,112,52639,1,0,0:0:0:0:
136,248,53157,1,0,0:0:0:0:
312,232,53501,6,0,B|264:128|128:168,1,180
72,184,54019,1,0,0:0:0:0:
336,120,54536,1,0,0:0:0:0:
168,64,54881,1,0,0:0:0:0:
440,296,55570,5,0,0:0:0:0:
256,288,55743,1,0,0:0:0:0:
72,296,55915,1,0,0:0:0:0:
256,96,56260,6,0,B|368:96|416:208,1,180,4|0,0:0|0:0,0:0:0:0:
312,192,56777,2,0,B|208:192|160:96,1,180
256,96,57294,1,0,0:0:0:0:
104,192,57639,6,0,B|128:304|248:304,1,180
304,360,58157,2,0,B|408:328|416:216,1,180
480,168,58674,1,0,0:0:0:0:
336,56,59019,6,0,B|248:128|152:64,1,180
88,32,59536,2,0,B|200:64|224:184,1,180
208,240,60053,2,0,B|184:112|304:80,1,180
424,272,61088,5,0,0:0:0:0:
256,336,61260,1,0,0:0:0:0:
88,272,61432,1,0,0:0:0:0:
424,112,61777,6,0,B|328:192|240:64,1,180,4|0,0:0|0:0,0:0:0:0:
352,64,62294,2,0,B|352:200|192:192,1,180
184,128,62812,1,0,0:0:0:0:
200,40,62984,1,0,0:0:0:0:
120,72,63157,6,0,B|64:144|168:256,1,180
208,304,63674,2,0,B|296:416|384:368,1,180
440,344,64191,1,0,0:0:0:0:
368,296,64363,1,0,0:0:0:0:
448,256,64536,6,0,B|448:72,1,180
368,112,65053,2,0,B|176:112,1,180
104,80,65570,1,0,0:0:0:0:
120,168,65743,1,0,0:0:0:0:
264,248,65915,5,0,0:0:0:0:
264,248,66001,1,0,0:0:0:0:
264,248,66088,1,0,0:0:0:0:
264,248,66174,1,0,0:0:0:0:
264,248,66260,1,0,0:0:0:0:
264,248,66346,1,0,0:0:0:0:
264,248,66432,1,0,0:0:0:0:
264,248,66519,1,0,0:0:0:0:
264,248,66605,1,0,0:0:0:0:
264,248,66691,1,0,0:0:0:0:
264,248,66777,1,0,0:0:0:0:
264,248,66863,1,0,0:0:0:0:
264,248,66950,1,0,0:0:0:0:
264,248,67036,1,0,0:0:0:0:
264,248,67122,1,0,0:0:0:0:
264,248,67208,1,0,0:0:0:0:
264,248,67294,2,0,B|360:296|448:224,1,180,4|0,0:0|0:0,0:0:0:0:
480,160,67812,6,0,B|400:80,1,90
232,104,68157,2,0,B|296:168,1,90
120,168,68501,1,0,0:0:0:0:
56,104,68674,1,4,0:0:0:0:
56,104,69019,6,0,B|144:152|136:304,1,180
136,256,69536,1,0,0:0:0:0:
48,240,69708,2,0,B|56:352|184:368,2,180,0|4|0,0:0|0:0|0:0,0:0:0:0:
136,256,70570,6,0,B|240:200,1,90
328,232,70915,1,0,0:0:0:0:
448,96,71088,2,0,B|369:139,1,90,0|0,0:0|0:0,0:0:0:0:
224,88,71432,6,0,B|280:128|272:208|344:240,1,180,0|0,0:0|0:0,0:0:0:0:
384,296,71950,1,0,0:0:0:0:
296,312,72122,1,0,0:0:0:0:
296,312,72467,1,0,0:0:0:0:
472,280,72812,6,0,B|488:176|408:104,1,180,4|0,0:0|0:0,0:0:0:0:
328,96,73329,6,0,B|256:152,1,90
80,184,73674,2,0,B|176:112,1,90
296,240,74019,1,0,0:0:0:0:
120,280,74191,1,0,0:0:0:0:
288,344,74536,6,0,B|384:392|488:312,1,180
448,248,75053,1,0,0:0:0:0:
488,168,75225,2,0,B|448:72|320:56,2,180,0|4|0,0:0|0:0|0:0,0:0:0:0:
400,176,76088,6,0,B|288:176,1,90
152,96,76432,2,0,B|248:96,1,90
80,176,76777,1,0,0:0:0:0:
240,264,76950,1,4,0:0:0:0:
80,176,77294,5,0,0:0:0:0:
80,176,77639,1,4,0:0:0:0:
80,176,77984,1,4,0:0:0:0:
432,176,78329,5,4,0:0:0:0:
432,176,78674,1,0,0:0:0:0:
376,104,78846,5,0,0:0:0:0:
344,192,79019,1,0,0:0:0:0:
216,320,79191,1,0,0:0:0:0:
248,240,79363,1,0,0:0:0:0:
240,56,79536,1,0,0:0:0:0:
208,136,79708,1,4,0:0:0:0:
29,136,80053,6,0,B|221:136,1,180
296,120,80570,1,0,0:0:0:0:
296,120,80743,1,0,0:0:0:0:
368,296,81088,5,4,0:0:0:0:
368,296,81432,1,0,0:0:0:0:
456,272,81605,5,0,0:0:0:0:
384,216,81777,1,0,0:0:0:0:
456,48,81950,1,0,0:0:0:0:
384,104,82122,1,0,0:0:0:0:
216,160,82294,1,0,0:0:0:0:
288,112,82467,6,0,B|184:32|112:168,1,180
216,160,82984,1,0,0:0:0:0:
144,208,83157,2,0,B|248:288|320:152,1,180
216,160,83674,1,0,0:0:0:0:
136,136,83846,5,4,0:0:0:0:
376,248,84191,1,0,0:0:0:0:
296,296,84363,5,0,0:0:0:0:
112,288,84536,1,0,0:0:0:0:
48,120,84708,1,0,0:0:0:0:
208,48,84881,1,0,0:0:0:0:
344,168,85053,1,0,0:0:0:0:
368,344,85225,5,4,0:0:0:0:
368,40,85570,1,0,0:0:0:0:
40,192,85915,1,0,0:0:0:0:
40,192,86260,1,0,0:0:0:0:
400,224,86605,6,0,B|480:304,1,90,0|0,0:0|0:0,0:0:0:0:
288,256,86950,2,0,B|320:352,1,90
176,232,87294,2,0,B|152:320,1,90
112,144,87639,2,0,B|16:208,1,90,0|0,0:0|0:0,0:0:0:0:
136,40,87984,5,0,0:0:0:0:
136,40,88157,1,0,0:0:0:0:
312,40,88329,1,0,0:0:0:0:
312,40,88501,1,0,0:0:0:0:
408,192,88674,1,0,0:0:0:0:
408,192,88846,1,0,0:0:0:0:
224,192,89019,1,0,0:0:0:0:
224,192,89191,1,0,0:0:0:0:
312,40,89363,5,0,0:0:0:0:
312,40,89708,1,0,0:0:0:0:
72,304,90398,1,0,0:0:0:0:
440,304,91088,1,0,0:0:0:0:
256,104,91605,1,0,0:0:0:0:
256,192,91777,1,0,0:0:0:0:
440,192,92122,5,0,0:0:0:0:
440,192,92467,1,0,0:0:0:0:
128,368,93157,1,0,0:0:0:0:
104,8,93846,1,0,0:0:0:0:
256,232,94363,1,0,0:0:0:0:
208,160,94536,1,0,0:0:0:0:
312,304,94881,5,0,0:0:0:0:
312,304,95225,1,0,0:0:0:0:
40,72,95915,1,0,0:0:0:0:
400,104,96605,1,0,0:0:0:0:
224,312,97122,1,0,0:0:0:0:
312,304,97294,1,0,0:0:0:0:
488,256,97639,5,0,0:0:0:0:
488,256,97984,1,0,0:0:0:0:
152,128,98674,1,0,0:0:0:0:
336,128,99019,6,0,B|200:288,1,180
304,288,99536,2,0,B|420:150,1,180
420,150,100053,1,0,0:0:0:0:
248,104,100398,6,0,B|205:136|176:224|112:264,1,180
56,280,100915,2,0,B|80:336|168:328,1,90
304,288,101432,1,0,0:0:0:0:
304,288,101777,5,0,0:0:0:0:
328,112,102122,2,0,B|352:48|296:0,1,90
232,32,102467,2,0,B|128:48|96:152,1,180
200,288,103157,6,0,B|240:184|360:208,1,180
304,288,103674,1,0,0:0:0:0:
248,360,103846,2,0,B|136:392|112:280,1,180
112,104,104536,6,0,B|224:104|176:144|304:144,1,180
376,144,105053,1,0,0:0:0:0:
464,112,105225,2,0,B|472:160|432:232,2,90
392,56,105743,5,0,0:0:0:0:
376,144,105915,2,0,B|344:224|392:296|488:296,1,180
448,200,106432,1,0,0:0:0:0:
464,112,106605,2,0,B|400:24|288:56,1,180
288,136,107122,1,0,0:0:0:0:
216,88,107294,6,0,B|128:144|40:88,1,180
48,184,107812,2,0,B|136:128|224:184,1,180
296,224,108329,1,0,0:0:0:0:
216,264,108501,1,0,0:0:0:0:
288,312,108674,6,0,B|384:296|400:224|360:144,1,180
296,224,109191,1,0,0:0:0:0:
296,136,109363,2,0,B|376:40|480:136|480:176,1,180
376,184,109881,1,0,0:0:0:0:
456,224,110053,1,0,0:0:0:0:
424,312,110225,1,0,0:0:0:0:
344,360,110398,5,0,0:0:0:0:
256,376,110570,1,0,0:0:0:0:
88,312,110915,1,0,0:0:0:0:
56,224,111088,1,0,0:0:0:0:
256,280,111432,6,0,B|312:280|312:224|312:224|312:120,1,180,4|0,0:0|0:0,0:0:0:0:
256,64,111950,2,0,B|200:64|200:120|200:120|200:224,1,180
168,296,112467,1,0,0:0:0:0:
256,280,112639,1,0,0:0:0:0:
328,336,112812,6,0,B|384:320|392:272|392:272|392:176,1,180,4|0,0:0|0:0,0:0:0:0:
184,48,113329,2,0,B|128:64|120:112|120:112|120:208,1,180
208,192,113846,1,0,0:0:0:0:
256,112,114019,1,0,0:0:0:0:
328,48,114191,6,0,B|384:64|392:112|392:112|392:208,1,180,4|0,0:0|0:0,0:0:0:0:
304,192,114708,2,0,B|296:248|256:272|256:272|256:368,1,180
344,328,115225,1,0,0:0:0:0:
168,328,115398,2,0,B|120:352|64:320,1,90
72,240,115743,2,0,B|120:264|176:232,2,90
120,160,116260,5,0,0:0:0:0:
256,40,116432,1,0,0:0:0:0:
120,160,116605,1,0,0:0:0:0:
256,40,116777,1,0,0:0:0:0:
168,64,116950,6,0,B|200:136|216:120|256:120|288:120|288:120|336:144|336:144,1,180,4|0,0:0|0:0,0:0:0:0:
344,320,117467,2,0,B|312:248|296:264|256:264|224:264|224:264|176:240|176:240,1,180
264,192,117984,1,0,0:0:0:0:
264,192,118157,1,0,0:0:0:0:
344,64,118329,6,0,B|256:80|256:80|160:64,1,180,4|0,0:0|0:0,0:0:0:0:
168,320,118846,2,0,B|256:304|256:304|352:320,1,180
432,336,119363,1,0,0:0:0:0:
408,248,119536,1,0,0:0:0:0:
320,240,119708,6,0,B|360:152|472:144,1,180,4|0,0:0|0:0,0:0:0:0:
192,144,120225,2,0,B|152:232|40:240,1,180
80,152,120743,1,0,0:0:0:0:
48,64,120915,1,0,0:0:0:0:
80,152,121088,2,0,B|128:144|136:56,2,90
48,240,121605,1,0,0:0:0:0:
96,312,121777,5,0,0:0:0:0:
256,232,121950,1,0,0:0:0:0:
256,56,122122,1,0,0:0:0:0:
256,56,122294,1,0,0:0:0:0:
176,88,122467,6,0,B|216:128|208:192,1,90,4|0,0:0|0:0,0:0:0:0:
160,240,122811,1,0,0:0:0:0:
168,328,122984,2,0,B|232:304|304:352,1,90,0|0,0:0|0:0,0:0:0:0:
344,328,123329,1,0,0:0:0:0:
352,240,123501,2,0,B|384:208|384:152,1,90
336,88,123846,6,0,B|296:128|304:192,1,90,4|0,0:0|0:0,0:0:0:0:
352,240,124190,1,0,0:0:0:0:
344,328,124363,2,0,B|280:304|208:352,1,90
168,328,124708,1,0,0:0:0:0:
160,240,124881,2,0,B|96:232|80:168,1,90
136,120,125225,6,0,B|96:48|112:16,1,90,4|0,0:0|0:0,0:0:0:0:
192,8,125570,1,0,0:0:0:0:
220,93,125742,2,0,B|176:128|92:117,1,90
48,112,126087,1,0,0:0:0:0:
88,192,126260,2,0,B|128:216|192:192,1,90
264,176,126605,1,0,0:0:0:0:
344,136,126777,1,0,0:0:0:0:
264,176,126949,1,0,0:0:0:0:
344,136,127122,1,0,0:0:0:0:
416,192,127294,5,0,0:0:0:0:
480,24,127467,1,0,0:0:0:0:
416,192,127639,2,0,B|368:200|328:232,1,90
384,304,127984,6,0,B|336:328|288:304,1,90,4|0,0:0|0:0,0:0:0:0:
216,272,128329,1,0,0:0:0:0:
144,224,128501,2,0,B|112:176|120:104,1,90
128,48,128846,1,0,0:0:0:0:
200,104,129019,1,0,0:0:0:0:
48,88,129191,1,0,0:0:0:0:
40,176,129363,6,0,B|48:224|88:288,1,90,4|0,0:0|0:0,0:0:0:0:
136,320,129708,1,0,0:0:0:0:
216,272,129881,2,0,B|248:232|256:168,1,90
288,104,130226,1,0,0:0:0:0:
200,104,130398,1,0,0:0:0:0:
336,184,130570,1,0,0:0:0:0:
376,104,130743,5,4,0:0:0:0:
376,104,130915,1,0,0:0:0:0:
416,184,131088,1,0,0:0:0:0:
416,184,131260,1,0,0:0:0:0:
376,264,131432,1,0,0:0:0:0:
376,264,131605,1,0,0:0:0:0:
456,264,131777,1,0,0:0:0:0:
296,264,131950,1,0,0:0:0:0:
208,264,132122,5,0,0:0:0:0:
205,261,132208,1,0,0:0:0:0:
208,264,132294,1,0,0:0:0:0:
205,261,132380,1,0,0:0:0:0:
208,264,132467,1,0,0:0:0:0:
205,261,132553,1,0,0:0:0:0:
208,264,132639,1,0,0:0:0:0:
205,261,132725,1,0,0:0:0:0:
208,264,132812,1,0,0:0:0:0:
205,261,132898,1,0,0:0:0:0:
208,264,132984,1,0,0:0:0:0:
205,261,133070,1,0,0:0:0:0:
208,264,133157,1,0,0:0:0:0:
205,261,133243,1,0,0:0:0:0:
208,264,133329,1,0,0:0:0:0:
205,261,133415,1,0,0:0:0:0:
208,264,133501,2,0,B|136:336|24:288,1,180,4|0,0:0|0:0,0:0:0:0:
64,208,134019,5,0,0:0:0:0:
200,96,134191,1,0,0:0:0:0:
24,104,134363,1,0,0:0:0:0:
176,200,134536,1,0,0:0:0:0:
112,32,134708,1,0,0:0:0:0:
112,120,134881,5,0,0:0:0:0:
400,120,135226,1,0,0:0:0:0:
256,232,135570,2,0,B|256:320,2,90
256,144,136088,1,0,0:0:0:0:
256,56,136260,6,0,B|360:136,1,90,4|0,0:0|0:0,0:0:0:0:
328,200,136605,1,0,0:0:0:0:
328,296,136777,5,0,0:0:0:0:
176,200,136950,1,0,0:0:0:0:
328,112,137122,1,0,0:0:0:0:
328,296,137294,1,0,0:0:0:0:
176,200,137467,1,0,0:0:0:0:
328,112,137639,6,0,B|400:40,1,90,0|0,0:0|0:0,0:0:0:0:
328,296,137984,1,0,0:0:0:0:
328,296,138157,1,0,0:0:0:0:
176,200,138329,2,0,B|64:200,1,90
384,200,138674,2,0,B|488:200,1,90
280,200,139019,6,0,B|232:280|232:280|112:280,1,180,4|0,0:0|0:0,0:0:0:0:
48,280,139536,5,0,0:0:0:0:
120,120,139708,1,0,0:0:0:0:
280,200,139881,1,0,0:0:0:0:
440,280,140053,1,0,0:0:0:0:
512,120,140226,1,0,0:0:0:0:
472,200,140398,6,0,B|304:112,2,180
440,280,141260,1,0,0:0:0:0:
360,240,141432,2,0,B|272:296,1,90
200,256,141777,6,0,B|24:168,1,180,4|0,0:0|0:0,0:0:0:0:
120,120,142294,5,0,0:0:0:0:
280,200,142467,1,0,0:0:0:0:
136,96,142639,1,0,0:0:0:0:
264,224,142812,1,0,0:0:0:0:
160,80,142984,1,0,0:0:0:0:
200,160,143157,5,4,0:0:0:0:
200,160,143501,1,0,0:0:0:0:
336,40,143846,1,4,0:0:0:0:
56,272,144191,1,0,0:0:0:0:
56,272,144536,6,0,B|128:288|128:288|104:320|104:320|216:344,1,180,4|0,0:0|0:0,0:0:0:0:
256,344,145053,5,0,0:0:0:0:
376,208,145226,1,0,0:0:0:0:
200,160,145398,1,0,0:0:0:0:
328,288,145570,1,0,0:0:0:0:
280,112,145743,1,0,0:0:0:0:
152,240,145915,6,0,B|192:264|192:264|256:232,1,90
304,184,146260,1,0,0:0:0:0:
304,184,146605,1,0,0:0:0:0:
392,344,146950,6,0,B|480:304|480:176,2,180,0|4|0,0:0|0:0|0:0,0:0:0:0:
320,288,147812,5,0,0:0:0:0:
144,288,147984,1,0,0:0:0:0:
72,120,148157,1,0,0:0:0:0:
224,24,148329,1,0,0:0:0:0:
376,120,148501,1,0,0:0:0:0:
320,288,148674,6,0,B|303:233|224:216,1,90,0|0,0:0|0:0,0:0:0:0:
88,208,149019,1,0,0:0:0:0:
232,312,149191,1,0,0:0:0:0:
168,144,149363,2,0,B|224:144|288:64,1,90
384,232,149708,2,0,B|360:184|288:152,1,90
296,32,150053,6,0,B|264:128|168:144,1,180,4|0,0:0|0:0,0:0:0:0:
136,64,150570,5,0,0:0:0:0:
256,192,150743,1,0,0:0:0:0:
136,64,150915,1,0,0:0:0:0:
256,192,151088,1,0,0:0:0:0:
368,64,151260,1,0,0:0:0:0:
256,192,151432,5,0,0:0:0:0:
256,192,151777,2,0,B|312:216|200:320|264:360,2,180
256,192,152639,1,0,0:0:0:0:
144,320,152812,5,0,0:0:0:0:
176,232,152984,1,0,0:0:0:0:
256,40,153157,5,0,0:0:0:0:
304,112,153330,1,0,0:0:0:0:
368,320,153501,5,0,0:0:0:0:
304,272,153673,1,0,0:0:0:0:
96,192,153846,5,0,0:0:0:0:
176,152,154018,1,0,0:0:0:0:
368,64,154191,5,0,0:0:0:0:
336,152,154363,1,0,0:0:0:0:
256,344,154536,5,0,0:0:0:0:
208,272,154708,1,0,0:0:0:0:
144,64,154881,5,0,0:0:0:0:
208,112,155053,1,0,0:0:0:0:
416,192,155226,5,0,0:0:0:0:
336,232,155398,1,0,0:0:0:0:
256,192,155570,5,4,0:0:0:0:
256,192,155915,1,0,0:0:0:0:
256,368,156605,1,0,0:0:0:0:
416,32,157294,5,0,0:0:0:0:
344,80,157467,2,0,B|248:128|152:72,1,180
96,32,157984,1,0,0:0:0:0:
256,192,158329,5,0,0:0:0:0:
256,192,158674,1,0,0:0:0:0:
352,216,159363,5,0,0:0:0:0:
160,216,159708,1,0,0:0:0:0:
256,368,160053,1,0,0:0:0:0:
256,368,160226,1,0,0:0:0:0:
256,192,160570,1,0,0:0:0:0:
256,192,160743,1,0,0:0:0:0:
160,40,161088,5,0,0:0:0:0:
328,96,161432,1,0,0:0:0:0:
152,120,161777,1,0,0:0:0:0:
296,16,162122,1,0,0:0:0:0:
256,192,162467,6,0,B|152:256|160:344,1,180
248,328,162984,2,0,B|360:248|344:176,1,180
256,192,163501,1,0,0:0:0:0:
96,272,163846,6,0,B|48:176|104:80,2,180
152,344,164708,1,0,0:0:0:0:
176,256,164881,2,0,B|192:152|312:104,1,180
280,118,165570,1,0,0:0:0:0:
368,96,165743,1,0,0:0:0:0:
368,96,166088,1,0,0:0:0:0:
344,184,166260,1,0,0:0:0:0:
256,336,166605,6,0,B|368:360|432:264,1,180
328,256,167122,1,0,0:0:0:0:
240,256,167294,2,0,B|176:192|56:208,1,180
73,206,167812,1,0,0:0:0:0:
120,296,167984,6,0,B|200:216|128:112,1,180
88,56,168501,2,0,B|176:8|264:64,1,180
200,128,169019,2,0,B|160:208|232:296,1,180
408,288,169708,5,0,0:0:0:0:
408,288,169881,2,0,B|445:193|408:104,1,180
411,112,170398,1,0,0:0:0:0:
328,272,170743,6,0,B|304:72,1,180
296,184,171260,2,0,B|320:376,1,180
328,272,171777,1,0,0:0:0:0:
256,320,171950,1,0,0:0:0:0:
160,336,172122,6,0,B|64:336,1,90
24,256,172467,2,0,B|160:256,1,90
208,256,172812,1,0,0:0:0:0:
160,176,172984,1,0,0:0:0:0:
72,176,173157,6,0,B|112:104|112:104|104:32|176:16,1,180
240,16,173674,1,0,0:0:0:0:
216,104,173846,2,0,B|280:168|280:168|328:112,1,90
344,104,174191,1,0,0:0:0:0:
400,32,174363,1,0,0:0:0:0:
456,104,174536,6,0,B|456:200|456:200|344:288,1,180
392,344,175053,1,0,0:0:0:0:
312,304,175226,2,0,B|272:280|272:280|216:320,1,90
160,256,175570,1,0,0:0:0:0:
72,232,175743,2,0,B|48:192|48:192|64:120,1,90
80,64,176088,1,0,0:0:0:0:
168,88,176260,1,0,0:0:0:0:
256,56,176432,1,0,0:0:0:0:
344,88,176605,5,0,0:0:0:0:
344,176,176777,1,0,0:0:0:0:
168,88,177122,1,0,0:0:0:0:
168,176,177294,1,0,0:0:0:0:
80,288,177639,6,0,B|168:232|256:384|360:216|448:300,3,360,4|0|0|0,0:0|0:0|0:0|0:0,0:0:0:0:
256,192,182467,1,0,0:0:0:0:
424,120,183157,6,0,B|356:91|318:144|256:75|256:75|191:162|141:60|55:140|55:140,3,360
256,192,187984,5,0,0:0:0:0:
288,336,188674,2,0,B|344:336|344:280|344:280|400:280|400:208,1,180
256,192,190053,2,0,B|240:176|240:160|240:160|224:160|208:144|208:128|208:128|192:128|176:112|176:96|176:96|160:96|128:64|144:64|144:64|144:80,1,180
48,176,191432,2,0,B|64:192|64:192|64:216|80:232|80:232|80:256|96:272|96:272|96:296|112:312|112:312|112:336|128:352|128:352,1,180
248,280,192812,2,0,B|256:264|256:264|256:248|264:232|264:232|264:216|272:200|272:200|272:184|280:168|280:168|280:152|288:136|288:136|288:120|296:104|296:104|296:88,1,180
368,32,194191,6,0,B|400:56|400:56|440:88|440:144|440:144|440:184,1,180
360,232,195226,1,0,0:0:0:0:
272,248,195570,2,0,B|230:280|230:280|200:304|160:296|160:296|96:280,1,180
104,192,196605,1,0,0:0:0:0:
176,143,196950,6,0,B|212:108|256:143,1,90
256,144,197467,2,0,B|291:108|336:143,1,90,0|0,0:0|0:0,0:0:0:0:
336,144,197984,1,0,0:0:0:0:
310,240,198329,2,0,B|256:320|200:240,2,135
256,144,199708,1,4,0:0:0:0:
256,192,199794,12,4,202467,0:0:0:0:
256,192,202812,1,0,0:0:0:0:
240,72,202984,5,0,0:0:0:0:
384,184,203157,1,0,0:0:0:0:
264,320,203329,1,0,0:0:0:0:
120,208,203501,1,0,0:0:0:0:
240,72,203674,1,0,0:0:0:0:
328,256,203846,6,0,B|408:320,1,90
320,120,204191,2,0,B|392:40,1,90
176,136,204536,2,0,B|96:72,2,90
192,272,205053,1,0,0:0:0:0:
128,336,205226,5,4,0:0:0:0:
384,48,205570,1,0,0:0:0:0:
320,120,205743,5,0,0:0:0:0:
448,248,205915,1,0,0:0:0:0:
320,120,206088,1,0,0:0:0:0:
448,248,206260,1,0,0:0:0:0:
320,120,206432,1,0,0:0:0:0:
264,296,206605,6,0,B|192:368,1,90
112,200,206950,1,0,0:0:0:0:
112,200,207122,1,0,0:0:0:0:
264,296,207294,1,0,0:0:0:0:
264,296,207467,1,0,0:0:0:0:
112,200,207639,2,0,B|264:56,1,180,0|4,0:0|0:0,0:0:0:0:
242,76,208329,1,0,0:0:0:0:
160,48,208501,5,0,0:0:0:0:
32,176,208674,1,0,0:0:0:0:
208,224,208846,1,0,0:0:0:0:
80,96,209019,1,0,0:0:0:0:
88,272,209191,1,0,0:0:0:0:
264,296,209363,2,0,B|384:296,1,90
448,296,209708,5,0,0:0:0:0:
448,88,210053,2,0,B|456:112|400:160|368:136,1,90
360,56,210398,1,0,0:0:0:0:
304,128,210570,1,0,0:0:0:0:
336,208,210743,6,0,B|432:256|512:144,1,180,4|0,0:0|0:0,0:0:0:0:
448,88,211260,5,0,0:0:0:0:
272,56,211432,1,0,0:0:0:0:
96,88,211605,1,0,0:0:0:0:
96,264,211777,1,0,0:0:0:0:
272,296,211950,1,0,0:0:0:0:
448,264,212122,2,0,B|448:168,1,90
264,184,212467,6,0,B|200:247,1,90
24,232,212812,2,0,B|104:152,1,90
104,352,213157,1,0,0:0:0:0:
160,184,213329,1,0,0:0:0:0:
216,16,213501,5,4,0:0:0:0:
216,16,213846,1,0,0:0:0:0:
312,168,214019,5,0,0:0:0:0:
240,32,214191,1,0,0:0:0:0:
336,184,214363,1,0,0:0:0:0:
264,48,214536,1,0,0:0:0:0:
360,200,214708,1,0,0:0:0:0:
288,64,214881,6,4,B|448:168,1,180,4|0,0:0|0:0,0:0:0:0:
438,162,215398,5,0,0:0:0:0:
432,248,215570,1,0,0:0:0:0:
344,280,215743,2,0,B|256:224,2,90
416,336,216260,5,4,0:0:0:0:
96,48,216605,1,0,0:0:0:0:
176,96,216777,5,0,0:0:0:0:
88,256,216950,1,0,0:0:0:0:
240,352,217122,1,0,0:0:0:0:
88,256,217294,1,0,0:0:0:0:
176,96,217467,1,0,0:0:0:0:
312,208,217639,6,0,B|432:168,1,90
232,240,217984,1,0,0:0:0:0:
352,112,218157,1,0,0:0:0:0:
184,176,218329,2,0,B|312:128,1,90
440,80,218674,1,0,0:0:0:0:
440,80,218846,1,0,0:0:0:0:
440,80,219019,5,4,0:0:0:0:
72,304,219363,1,0,0:0:0:0:
80,120,219536,5,0,0:0:0:0:
160,272,219708,1,0,0:0:0:0:
176,96,219881,1,0,0:0:0:0:
256,256,220053,1,0,0:0:0:0:
272,80,220226,1,0,0:0:0:0:
352,240,220398,6,0,B|360:128,1,90,4|0,0:0|0:0,0:0:0:0:
368,64,220743,2,0,B|408:48|440:104|440:104|432:232,1,180
424,280,221260,1,0,0:0:0:0:
344,328,221432,1,0,0:0:0:0:
344,328,221605,1,0,0:0:0:0:
256,344,221777,5,0,0:0:0:0:
168,344,221949,1,0,0:0:0:0:
16,240,222122,5,0,0:0:0:0:
104,240,222294,1,0,0:0:0:0:
256,144,222466,5,0,0:0:0:0:
168,144,222639,1,0,0:0:0:0:
48,16,222811,5,0,0:0:0:0:
136,16,222984,1,0,0:0:0:0:
376,88,223156,5,0,0:0:0:0:
464,120,223329,1,0,0:0:0:0:
256,144,223501,5,0,0:0:0:0:
328,200,223673,1,0,0:0:0:0:
136,200,223846,5,0,0:0:0:0:
200,264,224018,1,0,0:0:0:0:
200,264,224105,1,0,0:0:0:0:
200,264,224191,1,0,0:0:0:0:
280,304,224364,1,0,0:0:0:0:
368,328,224536,1,4,0:0:0:0:
