osu file format v12

[General]
AudioFilename: 12 - Witchcraft.mp3
AudioLeadIn: 1500
PreviewTime: 110225
Countdown: 0
SampleSet: Normal
StackLeniency: 0.6
Mode: 0
LetterboxInBreaks: 0
StoryFireInFront: 0
WidescreenStoryboard: 0

[Editor]
Bookmarks: 167202,246513
DistanceSpacing: 1
BeatDivisor: 4
GridSize: 4

[Metadata]
Title:Witchcraft
TitleUnicode:Witchcraft
Artist:Pendulum
ArtistUnicode:Pendulum
Creator:Quiz-chan
Version:Hard
Source:
Tags:Immersion Drum'n'Bass DnB Reiji-RJ Aleks719 IceBeam narakucrimson Mystyk MystykAMV
BeatmapID:228655
BeatmapSetID:69076

[Difficulty]
HPDrainRate:6
CircleSize:4
OverallDifficulty:6
ApproachRate:7
SliderMultiplier:1.55
SliderTickRate:1

[Events]
//Background and Video events
0,0,"BG_witchcraft.png",0,0
//Break Periods
2,67316,77251
2,133523,143458
2,177660,181044
2,183179,186561
//Storyboard Layer 0 (Background)
//Storyboard Layer 1 (Fail)
//Storyboard Layer 2 (Pass)
//Storyboard Layer 3 (Foreground)
//Storyboard Sound Samples
//Background Colour Transformations
3,100,106,81,174

[TimingPoints]
910,344.827586206897,4,2,0,30,1,0
910,-200,4,1,0,50,0,0
996,-200,4,2,0,40,0,0
22978,-200,4,1,0,50,0,0
23151,-200,4,2,0,17,0,0
24358,-200,4,2,0,5,0,0
24703,-200,4,2,0,40,0,0
39530,-200,4,1,0,30,0,0
40910,-200,4,1,0,35,0,0
42289,-200,4,1,0,40,0,0
43668,-133.333333333333,4,1,0,45,0,0
45047,-100,4,1,0,60,0,1
67116,-100,4,1,0,55,0,0
88496,-100,4,1,0,55,0,0
89185,-100,4,1,0,60,0,0
89530,-100,4,2,1,50,0,0
110047,-100,4,1,0,55,0,0
111254,-100,4,1,0,70,0,1
133323,-100,4,1,0,60,0,0
155392,-100,4,1,0,55,0,0
155565,-100,4,2,1,60,0,0
166427,-100,4,2,1,60,0,0
168668,-100,4,2,0,60,0,0
168841,-100,4,2,1,60,0,0
174703,-100,4,1,0,55,0,0
176082,-100,4,1,0,55,0,0
177634,-100,4,2,0,5,0,0
181944,-100,4,1,0,30,0,0
182978,-100,4,1,0,50,0,0
183065,-100,4,2,0,10,0,0
187461,-100,4,1,0,55,0,0
188582,-100,4,3,0,40,0,0
194013,-100,4,1,0,55,0,0
194099,-100,4,3,0,45,0,0
196772,-100,4,1,0,20,0,0
197116,-100,4,1,0,25,0,0
197461,-100,4,1,0,30,0,0
197806,-100,4,1,0,35,0,0
198151,-100,4,1,0,45,0,0
198841,-100,4,1,0,55,0,0
199616,-100,4,1,0,5,0,0
200910,-100,4,2,0,5,0,0
200996,-100,4,2,0,10,0,0
201082,-100,4,2,0,15,0,0
201168,-100,4,2,0,20,0,0
201254,-100,4,2,0,25,0,0
201341,-100,4,2,0,30,0,0
201427,-100,4,2,0,35,0,0
201513,-100,4,2,0,39,0,0
201599,-100,4,2,0,43,0,0
201685,-100,4,2,0,46,0,0
201772,-100,4,2,0,48,0,0
201858,-100,4,2,0,49,0,0
201944,-100,4,1,0,65,0,0
224358,-100,4,1,0,70,0,1
246341,-100,4,1,0,65,0,0
246427,-100,4,1,0,65,0,1
246513,-100,4,1,0,65,0,0

[Colours]
Combo1 : 125,240,129
Combo2 : 250,214,69
Combo3 : 253,62,62
Combo4 : 137,164,254

[HitObjects]
112,148,910,5,4,1:1:0:0:
176,108,1254,1,0,0:0:0:0:
236,156,1599,2,0,P|272:180|312:184,1,77.5,2|0,0:0|0:0,0:0:0:0:
368,140,2289,2,0,P|432:128|464:208,2,155,0|2|0,0:0|0:0|0:0,0:0:0:0:
316,200,4013,1,0,0:0:0:0:
316,200,4358,2,0,P|313:257|220:300,1,155,2|0,0:0|0:0,0:0:0:0:
240,224,5392,1,0,0:0:0:0:
180,176,5737,2,0,P|144:176|104:188,1,77.5,2|0,0:0|0:0,0:0:0:0:
56,128,6427,1,0,0:0:0:0:
56,128,7116,6,0,P|127:107|218:107,1,155,2|0,0:0|0:0,0:0:0:0:
280,132,8151,1,0,0:0:0:0:
336,184,8496,2,0,P|355:154|354:102,1,77.5,2|0,0:0|0:0,0:0:0:0:
280,240,9185,2,0,P|261:270|262:322,1,77.5
324,356,9875,2,0,P|280:328|172:332,2,155,2|0|2,0:0|0:0|0:0,0:0:0:0:
396,324,11599,2,0,P|405:288|412:248,1,77.5
392,172,12289,5,0,0:0:0:0:
392,172,12634,2,0,L|360:92,1,77.5,2|0,0:0|0:0,0:0:0:0:
304,52,13323,2,0,P|266:38|216:44,1,77.5
180,100,14013,2,0,P|224:116|260:112,2,77.5,2|0|0,0:0|0:0|0:0,0:0:0:0:
120,52,15047,1,0,0:0:0:0:
120,52,15392,2,0,L|100:132,1,77.5,2|0,0:0|0:0,0:0:0:0:
60,192,16082,2,0,P|120:212|164:296,1,155,0|2,0:0|0:0,0:0:0:0:
240,280,17116,1,0,0:0:0:0:
316,296,17461,1,0,0:0:0:0:
388,264,17806,6,0,P|358:233|352:188,1,77.5,0|2,0:0|0:0,0:0:0:0:
428,200,18496,2,0,P|452:168|452:124,1,77.5
401,75,19185,1,0,0:0:0:0:
376,144,19530,2,0,P|304:112|228:116,1,155,2|0,0:0|0:0,0:0:0:0:
164,160,20565,1,0,0:0:0:0:
128,228,20910,2,0,P|88:178|119:95,2,155,2|2|0,0:0|0:0|0:0,0:0:0:0:
280,196,22978,6,0,P|280:236|420:168,1,310,4|0,0:0|0:0,0:0:0:0:
357,215,24703,5,0,0:0:0:0:
332,140,25047,1,2,0:0:0:0:
288,76,25392,2,0,P|236:120|136:116,1,155
80,88,26427,1,2,0:0:0:0:
144,40,26772,1,0,0:0:0:0:
152,123,27116,2,0,P|184:189|168:281,1,155,0|2,0:0|0:0,0:0:0:0:
116,320,28151,2,0,P|152:296|264:296,1,155
324,336,29185,2,0,P|342:301|348:256,1,77.5,2|0,0:0|0:0,0:0:0:0:
332,188,29875,1,0,0:0:0:0:
332,188,30565,5,2,0:0:0:0:
328,112,30910,2,0,P|384:132|396:224,1,155
348,276,31944,1,2,0:0:0:0:
348,276,32289,2,0,P|268:252|188:260,1,155
128,224,33323,2,0,P|104:188|105:144,2,77.5,2|0|0,0:0|0:0|0:0,0:0:0:0:
180,168,34358,1,0,0:0:0:0:
200,92,34703,1,2,0:0:0:0:
200,92,35047,6,0,P|240:104|288:88,1,77.5
344,60,35737,2,0,P|384:48|432:64,1,77.5,0|2,0:0|0:0,0:0:0:0:
385,125,36427,2,0,P|376:176|388:208,1,77.5
448,240,37116,1,0,0:0:0:0:
453,164,37461,1,2,0:0:0:0:
384,200,37806,2,0,P|348:200|304:232,1,77.5,0|0,0:0|0:0,0:0:0:0:
284,292,38496,2,0,P|252:316|200:316,1,77.5,0|2,0:0|0:0,0:0:0:0:
139,299,39185,1,0,0:0:0:0:
112,224,39530,5,4,2:3:0:0:
60,164,39875,1,0,2:0:0:0:
136,148,40220,1,4,2:3:0:0:
112,224,40565,1,0,2:0:0:0:
212,108,40910,5,4,2:3:0:0:
274,59,41255,1,0,2:0:0:0:
286,135,41600,1,4,2:3:0:0:
212,108,41945,1,0,2:0:0:0:
320,208,42289,5,4,2:3:0:0:
244,188,42634,1,0,2:0:0:0:
180,232,42978,1,4,2:3:0:0:
172,308,43323,1,4,2:3:0:0:
100,336,43668,6,0,P|76:280|64:216,1,116.250004434586,4|4,2:3|2:3,2:0:0:0:
152,64,44358,2,0,P|176:120|188:184,1,116.250004434586,4|4,2:3|2:3,2:0:0:0:
140,280,45047,6,0,P|212:256|288:284,1,155,4|0,0:0|0:0,0:0:0:0:
324,348,45565,2,0,P|308:276|324:168,1,155,4|0,0:2|0:0,0:0:0:0:
392,48,46082,2,0,P|404:88|400:132,1,77.5,4|0,0:2|0:0,0:0:0:0:
328,96,46427,6,0,P|256:88|156:104,1,155,4|0,0:0|0:0,0:0:0:0:
104,128,46944,2,0,P|136:196|92:268,1,155,4|0,0:2|0:0,0:0:0:0:
60,195,47461,1,4,0:2:0:0:
180,284,47806,6,0,P|212:340|308:344,1,155,4|0,0:0|0:0,0:0:0:0:
324,276,48323,2,0,P|336:216|412:172,1,155,4|0,0:2|0:0,0:0:0:0:
464,116,48840,1,4,0:2:0:0:
340,32,49185,5,4,0:2:0:0:
268,168,49530,1,0,0:0:0:0:
132,92,49875,2,0,L|56:116,3,77.5,8|2|2|4,0:2|0:2|0:0|0:3,0:0:0:0:
28,104,50565,6,0,P|72:176|64:244,1,155,4|4,0:0|0:3,0:0:0:0:
56,320,51082,2,0,P|132:300|236:296,1,155,4|0,0:2|0:0,0:0:0:0:
284,308,51599,1,4,0:2:0:0:
356,284,51772,1,4,0:3:0:0:
300,232,51944,6,0,L|284:152,2,77.5,4|0|0,0:0|0:0|0:0,0:0:0:0:
224,212,52461,2,0,L|208:132,2,77.5,4|0|0,0:2|0:0|0:0,0:0:0:0:
132,164,52978,1,4,0:2:0:0:
56,148,53151,1,0,0:0:0:0:
40,224,53323,6,0,P|40:292|136:328,1,155,4|0,0:0|0:0,0:0:0:0:
108,258,53841,2,0,B|184:233|184:285|260:261,1,155,4|0,0:2|0:0,0:0:0:0:
224,192,54358,2,0,P|232:144|336:112,1,155,4|4,0:2|0:0,0:0:0:0:
300,180,54875,1,0,0:0:0:0:
376,200,55047,2,0,L|456:208,1,77.5,0|0,0:0|2:0,0:0:0:0:
420,280,55392,2,0,L|340:272,3,77.5,8|2|2|4,2:2|2:2|0:1|2:3,0:0:0:0:
320,292,56082,6,0,P|264:264|156:280,1,155,4|8,0:0|0:2,0:0:0:0:
116,324,56599,2,0,P|128:248|104:164,1,155,4|0,0:2|0:0,0:0:0:0:
92,96,57116,2,0,P|52:84|16:68,2,77.5,4|0|4,0:2|0:0|0:2,0:0:0:0:
172,96,57634,5,0,0:0:0:0:
204,168,57806,1,8,0:2:0:0:
248,100,57978,2,0,P|312:68|408:104,1,155,4|0,0:2|0:0,0:0:0:0:
376,164,58496,2,0,P|372:204|384:256,1,77.5,4|0,0:2|0:0,0:0:0:0:
416,308,58841,6,0,P|456:288|504:284,2,77.5,4|0|8,0:2|0:0|0:2,0:0:0:0:
352,352,59358,2,0,P|304:320|192:312,1,155,4|0,0:2|0:0,0:0:0:0:
136,332,59875,1,4,0:2:0:0:
196,188,60220,5,4,0:2:0:0:
52,128,60565,1,0,0:0:0:0:
188,56,60910,2,0,P|232:60|272:60,3,77.5,8|2|2|4,2:2|0:2|0:1|0:3,0:0:0:0:
296,52,61599,6,0,P|336:104|428:112,1,155,4|8,0:2|0:2,0:0:0:0:
460,48,62116,2,0,P|444:112|464:220,1,155,4|0,0:2|0:0,0:0:0:0:
384,236,62634,2,0,L|368:324,1,77.5,4|0,0:2|0:0,0:0:0:0:
300,280,62978,6,0,P|264:320|156:308,1,155,4|8,0:2|0:2,0:0:0:0:
96,296,63496,2,0,P|90:257|73:202,1,77.5,4|0,0:2|0:0,0:0:0:0:
152,184,63841,1,0,0:0:0:0:
152,184,64013,2,0,P|146:146|129:90,1,77.5,4|0,0:2|0:0,0:0:0:0:
104,32,64358,6,0,B|184:48|184:48|276:40,1,155,4|8,0:2|0:2,0:0:0:0:
324,80,64875,1,4,0:2:0:0:
400,80,65047,2,0,B|392:120|404:168,1,77.5
444,220,65392,2,0,P|404:268|436:364,1,155,4|4,0:2|0:0,0:0:0:0:
256,192,65910,12,4,67116,0:0:0:0:
96,64,78151,6,0,P|124:148|208:176,1,155,6|8,0:0|0:0,0:0:0:0:
260,168,78668,1,0,0:0:0:0:
320,116,78841,2,0,P|360:112|400:120,1,77.5
464,160,79185,1,8,0:0:0:0:
432,232,79358,2,0,P|428:264|452:328,1,77.5,0|2,0:0|0:0,0:0:0:0:
284,328,79875,6,0,P|240:300|212:288,1,77.5,8|0,0:0|0:0,0:0:0:0:
140,308,80220,1,2,0:0:0:0:
87,249,80392,1,0,0:0:0:0:
164,232,80565,1,2,0:0:0:0:
320,248,80910,6,0,P|304:176|216:156,1,155,0|8,0:0|0:0,0:0:0:0:
247,229,81427,1,0,0:0:0:0:
264,304,81599,2,0,P|316:328|364:312,1,77.5,0|0,0:0|0:0,0:0:0:0:
392,276,81944,1,8,0:0:0:0:
388,200,82116,1,0,0:0:0:0:
412,120,82289,6,0,P|360:132|256:112,1,155,2|8,0:0|0:0,0:0:0:0:
216,52,82806,1,0,0:0:0:0:
136,44,82978,2,0,P|152:116|128:200,1,155,2|8,0:0|0:0,0:0:0:0:
80,264,83496,1,8,0:0:0:0:
80,264,83668,1,0,0:0:0:0:
228,348,84013,5,8,0:0:0:0:
312,352,84185,1,0,0:0:0:0:
332,272,84358,2,0,P|328:224|308:196,1,77.5
252,148,84703,2,0,P|300:96|392:112,2,155,8|2|8,0:0|0:0|0:0,0:0:0:0:
108,88,85737,1,2,0:0:0:0:
168,140,85910,1,0,0:0:0:0:
168,140,86082,2,0,P|168:184|156:228,1,77.5,10|0,0:0|0:0,0:0:0:0:
116,280,86427,6,0,P|184:300|264:252,1,155,0|8,0:0|0:0,0:0:0:0:
372,164,87116,2,0,P|304:144|224:192,1,155,0|8,0:0|0:0,0:0:0:0:
156,204,87634,1,0,0:0:0:0:
80,192,87806,2,0,P|68:140|160:80,1,155,0|8,0:0|0:0,0:0:0:0:
148,156,88323,2,0,P|160:208|68:268,1,155,0|8,0:0|0:0,0:0:0:0:
48,336,88841,1,8,0:0:0:0:
48,336,89013,2,0,L|136:344,1,77.5,2|4,0:0|1:0,0:0:0:0:
280,340,89530,6,0,P|368:336|412:192,1,232.5,8|4,0:0|0:3,0:0:0:0:
352,180,90220,2,0,P|336:116|412:44,2,155,8|0|8,0:0|1:3|0:0,0:0:0:0:
412,128,91082,2,0,P|344:116|244:116,1,155,4|4,0:3|0:3,0:0:0:0:
188,68,91599,1,8,0:0:0:0:
116,100,91772,2,0,P|100:136|96:188,1,77.5,0|0,0:0|1:0,0:0:0:0:
147,318,92289,6,0,P|108:316|72:304,2,77.5,8|0|0,0:0|0:0|0:0,0:0:0:0:
220,292,92806,1,0,1:0:0:0:
296,288,92978,2,0,P|340:324|432:284,1,155,8|4,0:0|1:3,0:0:0:0:
440,216,93496,2,0,P|412:184|404:132,1,77.5,0|8,0:0|0:0,0:0:0:0:
469,111,93841,2,0,P|425:75|339:104,1,155,4|4,1:3|1:3,0:0:0:0:
316,180,94358,2,0,P|268:176|232:168,1,77.5,8|0,0:0|1:0,0:0:0:0:
172,132,94703,5,4,3:1:0:0:
60,240,95047,1,8,0:0:0:0:
272,332,95565,1,4,0:3:0:0:
272,332,95738,1,8,0:0:0:0:
424,308,96082,2,0,P|384:248|408:164,1,155,4|8,1:3|0:0,0:0:0:0:
456,116,96599,2,0,P|424:160|324:154,1,155,4|0,1:3|1:0,0:0:0:0:
292,92,97116,2,0,P|252:100|204:104,1,77.5,8|0,0:0|1:0,0:0:0:0:
144,76,97461,6,0,P|132:116|24:168,1,155,0|8,1:0|0:0,0:0:0:0:
116,304,98151,2,0,P|80:316|40:320,2,77.5,2|4|8,0:0|1:3|0:0,0:0:0:0:
260,244,98841,2,0,P|315:279|400:224,1,155,0|8,1:0|0:0,0:0:0:0:
456,200,99358,2,0,P|401:165|316:220,1,155,4|8,1:3|1:0,0:0:0:0:
264,152,99875,1,8,0:0:0:0:
264,152,100047,1,0,0:0:0:0:
260,76,100220,6,0,P|184:68|108:104,1,155,4|8,3:1|0:0,0:0:0:0:
60,244,100910,1,2,0:2:0:0:
44,320,101082,1,4,1:3:0:0:
44,320,101254,1,8,0:0:0:0:
192,268,101599,2,0,B|312:220|308:320|416:272,2,232.5,2|2|8,1:2|0:0|0:0,0:0:0:0:
160,116,102978,6,0,P|64:120|68:240,2,232.5,0|2|8,1:0|0:0|0:0,0:0:0:0:
272,224,104358,2,0,P|304:264|408:264,1,155,0|8,1:0|0:0,0:0:0:0:
468,128,105047,2,0,P|432:84|328:88,1,155,2|8,0:0|0:0,0:0:0:0:
284,136,105565,1,4,0:3:0:0:
212,96,105737,6,0,P|128:76|84:212,1,232.5,0|2,1:0|0:0,0:0:0:0:
180,300,106599,2,0,P|148:324|92:340,2,77.5,4|8|0,1:3|0:0|0:0,0:0:0:0:
224,236,107116,2,0,B|300:264|300:212|376:240,1,155,4|8,1:3|0:0,0:0:0:0:
336,308,107634,1,2,0:0:0:0:
476,244,107978,1,4,0:3:0:0:
476,244,108151,2,0,P|464:192|428:152,1,77.5,8|2,0:0|0:0,0:0:0:0:
386,128,108496,6,0,P|330:164|250:117,1,155,4|8,1:0|0:0,0:0:0:0:
256,128,109013,2,0,P|200:164|120:120,1,155,2|4,0:0|0:3,0:0:0:0:
192,88,109530,2,0,P|248:52|328:100,1,155,8|0,0:0|1:0,0:0:0:0:
276,236,110220,5,8,0:0:0:0:
276,236,110392,2,0,P|208:232|156:300,1,155,2|4,0:0|1:3,0:0:0:0:
236,304,110910,2,0,P|324:300|352:224,1,155,8|4,0:3|0:0,0:0:0:0:
316,96,111599,5,0,0:0:0:0:
316,96,111772,2,0,P|264:128|160:100,1,155,4|0,0:2|0:0,0:0:0:0:
112,64,112289,2,0,P|104:112|92:144,1,77.5,4|0,0:2|0:0,0:0:0:0:
48,200,112634,5,4,0:2:0:0:
180,280,112978,1,0,0:0:0:0:
180,280,113151,2,0,B|256:256|256:304|332:280,1,155,4|0,0:2|0:0,0:0:0:0:
392,228,113668,1,4,0:2:0:0:
424,76,114013,6,0,P|344:84|280:120,1,155,4|0,0:0|0:0,0:0:0:0:
240,184,114530,1,4,0:2:0:0:
120,88,114875,1,0,0:0:0:0:
120,88,115047,1,4,0:2:0:0:
32,216,115392,6,0,B|28:268|60:316|124:324|124:324|164:276|220:268|280:300,1,310,4|4,0:2|0:2,0:0:0:0:
320,340,116254,2,0,P|364:328|400:304,1,77.5,2|2,0:2|0:0,0:0:0:0:
420,160,116772,6,0,P|360:160|308:84,1,155,4|0,0:0|0:0,0:0:0:0:
340,20,117289,2,0,P|304:56|188:80,1,155,4|0,0:2|0:0,0:0:0:0:
132,64,117806,1,4,0:2:0:0:
68,204,118151,6,0,P|88:268|176:284,1,155,4|0,0:2|0:0,0:0:0:0:
228,236,118668,1,4,0:2:0:0:
268,172,118841,2,0,P|324:164|384:256,1,155,0|4,0:0|0:2,0:0:0:0:
348,304,119358,1,0,0:2:0:0:
308,240,119530,1,4,0:2:0:0:
472,212,119875,5,0,0:0:0:0:
472,212,120047,2,0,P|452:160|368:80,1,155,4|0,0:2|0:0,0:0:0:0:
316,56,120565,1,4,0:2:0:0:
212,172,120910,5,4,0:2:0:0:
92,76,121254,1,2,3:2:0:0:
92,76,121427,2,0,P|112:136|76:220,1,155,2|4,0:0|0:3,0:0:0:0:
8,256,121944,2,0,P|84:256|148:304,1,155,2|4,0:0|0:0,0:0:0:0:
300,324,122634,5,0,0:0:0:0:
300,324,122806,2,0,P|384:336|432:272,1,155,4|0,0:2|0:0,0:0:0:0:
352,264,123323,2,0,B|336:180|404:200|384:108,1,155,4|4,0:2|0:2,0:0:0:0:
256,36,124013,1,0,0:0:0:0:
256,36,124185,1,4,0:2:0:0:
124,116,124530,1,0,0:0:0:0:
124,116,124703,1,4,0:2:0:0:
52,252,125047,6,0,P|112:324|272:336,1,232.5,4|4,0:2|0:2,0:0:0:0:
348,232,125910,1,0,0:0:0:0:
348,232,126082,1,4,0:2:0:0:
264,100,126427,2,0,P|264:152|192:216,1,155,4|0,0:2|0:0,0:0:0:0:
72,116,127116,1,8,0:2:0:0:
72,116,127289,1,0,0:2:0:0:
72,116,127461,1,2,0:0:0:0:
148,248,127806,6,0,P|240:316|356:280,2,232.5,4|4|2,0:0|0:2|0:0,0:0:0:0:
272,156,129185,2,0,P|180:88|64:124,2,232.5,4|4|0,0:2|0:2|0:0,0:0:0:0:
284,312,130565,2,0,P|348:336|440:284,1,155,4|4,0:2|0:3,0:0:0:0:
460,152,131254,2,0,P|396:128|304:180,1,155,2|2,0:2|0:1,0:0:0:0:
256,192,131772,12,4,133323,0:0:0:0:
400,96,144358,6,0,P|408:144|336:224,1,155,6|8,0:0|0:0,0:0:0:0:
272,248,144875,5,0,0:0:0:0:
196,240,145047,2,0,P|156:252|112:280,1,77.5
76,332,145392,2,0,P|92:280|24:180,2,155,8|2|8,0:0|0:0|0:0,0:0:0:0:
232,312,146427,2,0,P|281:311|320:316,2,77.5,0|0|8,0:0|0:0|0:0,0:0:0:0:
384,336,147116,6,0,P|372:264|376:176,1,155,2|8,0:0|0:0,0:0:0:0:
392,108,147634,1,0,0:0:0:0:
316,108,147806,2,0,P|268:96|232:64,1,77.5
188,24,148151,2,0,P|120:28|92:52,1,77.5,8|2,0:0|0:2,0:0:0:0:
64,92,148496,2,0,P|120:144|128:224,1,155,2|8,0:0|0:0,0:0:0:0:
96,288,149013,1,2,0:2:0:0:
36,336,149185,2,0,P|96:368|204:332,1,155,2|8,0:0|0:0,0:0:0:0:
200,200,149875,1,4,0:0:0:0:
208,44,150220,6,0,P|284:72|360:56,1,155,8|0,0:0|0:0,0:0:0:0:
480,152,150910,2,0,P|424:136|324:184,1,155,8|2,0:0|0:0,0:0:0:0:
300,320,151599,1,8,0:0:0:0:
148,284,151944,2,2,P|144:200|60:168,1,155,2|8,0:0|0:0,0:0:0:0:
82,245,152461,1,2,0:2:0:0:
80,324,152634,1,4,0:0:0:0:
256,192,152806,12,2,155047,0:0:0:0:
256,192,155392,5,4,0:0:0:0:
116,128,155737,1,8,0:0:0:0:
128,284,156082,2,0,P|192:264|284:276,1,155,2|0,0:0|1:0,0:0:0:0:
412,352,156772,2,0,P|464:328|436:176,2,232.5,2|4|8,1:0|1:3|0:0,1:0:0:0:
316,228,158151,6,0,P|288:168|316:76,1,155,0|8,1:0|0:0,0:0:0:0:
376,44,158668,2,0,P|328:68|216:36,1,155,2|4,1:1|1:3,0:0:0:0:
160,24,159185,2,0,P|68:68|60:132,1,155,8|0,0:0|0:0,0:0:0:0:
80,188,159703,2,0,P|80:236|68:280,2,77.5,0|8|4,1:0|0:0|1:3,0:0:0:0:
228,144,160392,5,4,1:3:0:0:
168,192,160565,1,8,0:0:0:0:
240,220,160737,1,0,1:0:0:0:
228,144,160910,2,0,P|208:88|120:68,1,155,4|8,1:0|0:0,0:0:0:0:
152,140,161427,2,0,B|188:212|132:220|168:292,1,155,0|4,0:0|0:3,0:0:0:0:
224,344,161944,2,0,P|156:304|76:328,2,155,8|0|8,0:0|1:0|0:0,0:0:0:0:
300,356,162806,2,0,P|376:348|400:248,1,155,0|4,1:0|1:3,0:0:0:0:
332,284,163323,2,0,P|316:244|320:200,1,77.5,8|0,0:0|1:0,0:0:0:0:
344,136,163668,6,0,P|290:182|209:151,1,155,0|8,1:0|0:0,0:0:0:0:
145,127,164185,2,0,P|198:82|280:120,1,155,4|4,3:0|1:3,0:0:0:0:
280,184,164703,2,0,P|252:240|312:320,2,155,8|2|8,0:0|1:0|0:0,0:0:0:0:
332,244,165565,2,0,B|408:220|408:264|484:240,1,155,2|2,1:0|1:0,0:0:0:0:
444,172,166082,1,8,0:0:0:0:
444,172,166254,1,2,0:0:0:0:
432,92,166427,6,0,P|364:128|264:108,1,155,4|8,1:0|0:0,0:0:0:0:
216,88,166944,2,0,P|152:64|80:140,1,155,2|2,1:0|1:0,0:0:0:0:
160,140,167461,2,0,P|172:188|168:228,1,77.5,8|2,0:0|0:0,0:0:0:0:
132,284,167806,6,0,P|188:332|284:324,1,155,0|8,1:0|0:0,0:0:0:0:
324,280,168323,1,2,1:0:0:0:
344,132,168668,2,0,P|388:136|424:148,2,77.5,8|8|0,0:0|0:0|0:0,0:0:0:0:
272,184,169185,6,0,P|192:192|148:116,1,155,0|8,1:0|0:0,0:0:0:0:
226,122,169703,2,0,P|306:114|348:192,1,155,2|4,1:2|0:3,0:0:0:0:
412,208,170220,2,0,P|432:140|424:56,2,155,8|0|8,0:0|1:0|0:0,0:0:0:0:
292,308,171254,2,0,L|212:320,1,77.5,4|0,0:3|1:3,0:0:0:0:
176,252,171599,2,0,L|260:240,2,77.5,8|2|0,0:0|0:0|1:0,0:0:0:0:
28,304,172289,6,0,P|64:252|72:152,1,155,8|2,0:0|0:0,0:0:0:0:
56,88,172806,1,0,1:0:0:0:
56,88,172978,1,8,0:0:0:0:
200,148,173323,2,0,P|264:172|356:144,1,155,0|8,1:3|0:0,0:0:0:0:
396,92,173841,2,0,P|332:68|240:96,1,155,2|4,0:0|0:3,0:0:0:0:
250,88,174358,1,8,0:0:0:0:
156,212,174703,6,0,P|188:280|48:316,2,232.5,0|2|8,1:0|0:2|0:0,0:0:0:0:
176,60,176082,1,0,0:0:0:0:
256,192,176427,5,2,0:0:0:0:
320,230,176599,2,0,P|256:266|187:224,1,155,8|4,0:3|0:3,0:0:0:0:
192,154,177116,2,0,P|256:118|327:164,1,155,4|4,0:3|0:1,0:0:0:0:
256,84,181944,5,0,2:0:0:0:
365,193,182289,1,0,2:0:0:0:
256,300,182634,1,2,2:0:0:0:
147,191,182979,1,4,2:0:0:0:
321,156,187461,5,0,1:0:0:0:
321,156,187634,2,0,P|254:121|187:162,1,155,2|4,0:0|0:3,0:0:0:0:
190,227,188151,2,0,P|254:263|321:228,1,155,2|4,0:0|0:0,0:0:0:0:
364,80,188841,2,0,P|444:108|460:176,2,155,0|2|0,0:0|0:0|0:0,0:0:0:0:
216,40,189875,6,0,P|192:72|76:76,1,155,0|0,1:0|0:0,0:0:0:0:
20,40,190392,2,0,P|44:84|56:192,1,155,0|0,1:0|0:0,0:0:0:0:
36,264,190910,2,0,P|48:304|72:336,1,77.5,0|0,1:0|0:0,0:0:0:0:
144,348,191254,6,0,P|184:324|300:328,1,155,0|0,1:0|0:0,0:0:0:0:
352,372,191772,2,0,P|424:332|432:252,1,155,0|0,1:0|0:0,0:0:0:0:
396,200,192289,2,0,P|376:140|276:136,1,155,0|0,1:0|1:0,0:0:0:0:
322,195,192806,1,0,0:0:0:0:
333,269,192978,5,0,1:0:0:0:
178,269,193322,1,0,1:0:0:0:
178,114,193667,1,0,1:0:0:0:
333,114,194012,1,4,1:0:0:0:
348,292,194358,5,0,0:0:0:0:
348,292,194530,2,0,P|288:320|184:304,1,155,0|0,1:0|0:0,0:0:0:0:
144,260,195047,2,0,P|152:216|144:164,1,77.5,0|0,1:0|0:0,0:0:0:0:
116,112,195392,1,4,1:0:0:0:
256,48,195737,1,0,0:0:0:0:
256,48,195910,2,0,P|292:92|400:108,1,155,0|0,1:0|0:0,0:0:0:0:
460,92,196427,2,0,P|452:144|460:180,1,77.5,0|0,1:0|0:0,0:0:0:0:
384,192,196772,6,0,L|304:180,3,77.5,4|0|0|0,0:0|0:0|0:0|0:0,0:0:0:0:
228,192,197461,2,0,L|139:204,3,77.5
256,192,198151,12,4,199530,0:2:0:0:
256,192,200910,12,4,202289,0:0:0:0:
252,308,202634,6,0,P|288:276|404:284,1,155,8|2,0:0|0:2,0:0:0:0:
444,332,203151,1,0,0:0:0:0:
468,260,203323,2,0,P|484:184|436:96,1,155,8|0,0:0|0:0,0:0:0:0:
312,52,204013,1,8,0:0:0:0:
236,64,204185,1,0,0:0:0:0:
160,48,204358,2,0,P|116:52|64:60,2,77.5,2|0|2,0:0|0:0|0:0,0:0:0:0:
136,200,205047,6,0,P|144:240|116:352,1,155,0|8,0:0|0:0,0:0:0:0:
196,352,205565,1,0,0:0:0:0:
232,284,205737,2,0,P|256:280|308:284,1,77.5,2|0,0:2|0:0,0:0:0:0:
368,332,206082,2,0,P|412:316|444:268,1,77.5,8|0,0:0|0:0,0:0:0:0:
448,220,206427,6,0,P|404:148|320:168,1,155,2|8,0:0|0:0,0:0:0:0:
272,184,206944,1,2,0:2:0:0:
216,236,207116,2,0,P|168:272|80:212,1,155,2|8,0:0|0:0,0:0:0:0:
80,160,207634,1,8,0:0:0:0:
80,160,207806,1,4,0:0:0:0:
200,64,208151,6,0,P|240:120|356:136,1,155,8|2,0:0|0:0,0:0:0:0:
396,128,208668,1,0,0:0:0:0:
456,80,208841,2,0,P|476:136|464:252,1,155,8|0,0:0|0:0,0:0:0:0:
340,308,209530,5,8,0:0:0:0:
184,316,209875,1,2,0:2:0:0:
230,252,210047,1,0,0:0:0:0:
260,324,210220,1,8,0:0:0:0:
396,248,210565,6,0,P|360:192|372:92,1,155,2|8,0:0|0:0,0:0:0:0:
416,48,211082,2,0,P|360:76|264:60,1,155,2|4,0:2|0:3,0:0:0:0:
212,16,211599,1,8,0:0:0:0:
212,16,211772,1,2,0:2:0:0:
164,76,211944,5,0,0:0:0:0:
92,100,212116,1,0,0:0:0:0:
64,172,212289,2,0,P|44:208|52:260,1,77.5,10|0,0:0|0:0,0:0:0:0:
120,224,212634,2,0,P|132:268|176:296,2,77.5,2|0|2,0:0|0:0|0:0,0:0:0:0:
196,224,213151,1,0,0:0:0:0:
196,224,213323,1,4,0:0:0:0:
292,348,213668,6,0,P|384:316|396:248,1,155,8|2,0:0|0:2,0:0:0:0:
368,196,214185,1,4,0:3:0:0:
400,128,214358,2,0,P|385:80|293:48,1,155,8|0,0:0|0:0,0:0:0:0:
148,100,215047,1,8,0:0:0:0:
100,160,215220,1,4,0:3:0:0:
176,172,215392,2,0,P|152:216|40:208,1,155,2|8,0:0|0:0,0:0:0:0:
44,68,216082,6,0,P|104:48|216:56,1,155,0|8,0:0|0:0,0:0:0:0:
260,88,216599,1,0,0:0:0:0:
336,92,216772,2,0,P|360:52|360:20,1,77.5,2|0,0:2|0:0,0:0:0:0:
292,156,217116,2,0,P|276:184|276:240,1,77.5,8|0,0:0|0:0,0:0:0:0:
320,292,217461,6,0,P|272:252|168:268,1,155,2|10,0:0|0:0,0:0:0:0:
124,308,217978,1,2,0:2:0:0:
84,240,218151,2,0,P|68:176|104:84,1,155,2|8,0:0|0:0,0:0:0:0:
164,56,218668,1,8,0:0:0:0:
164,56,218841,1,4,0:0:0:0:
320,52,219185,6,0,P|368:48|408:60,1,77.5,8|0,0:0|0:0,0:0:0:0:
464,92,219530,2,0,P|440:152|448:248,1,155,2|8,0:0|0:0,0:0:0:0:
296,288,220220,2,0,P|260:336|156:308,1,155,0|8,0:0|0:0,0:0:0:0:
220,268,220737,2,0,P|256:220|360:248,1,155,2|4,0:2|0:3,0:0:0:0:
296,288,221254,1,8,0:0:0:0:
444,248,221599,6,0,B|452:292|452:292|464:328,2,77.5,0|0|8,0:0|0:0|0:0,0:0:0:0:
400,184,222116,1,0,0:0:0:0:
356,120,222289,2,0,B|348:76|348:76|336:40,2,77.5,0|0|8,0:0|0:0|0:0,0:0:0:0:
324,192,222806,1,0,0:0:0:0:
256,192,222978,12,4,224358,0:0:0:0:
200,80,224703,6,0,P|144:80|96:92,1,77.5,8|0,0:0|0:0,0:0:0:0:
52,116,225047,2,0,P|88:184|80:268,1,155,2|8,0:0|0:0,0:0:0:0:
36,320,225565,2,0,P|100:336|132:352,1,77.5,2|0,0:2|0:0,0:0:0:0:
264,328,226082,2,0,P|308:288|280:192,2,155,8|2|8,0:0|0:0|0:0,0:0:0:0:
236,256,226944,1,0,0:0:0:0:
184,200,227116,6,0,P|184:140|284:84,1,155,0|8,0:0|0:0,0:0:0:0:
324,112,227634,1,0,0:0:0:0:
400,108,227806,2,0,P|412:68|410:32,1,77.5,2|4,0:0|0:3,0:0:0:0:
364,176,228151,2,0,P|352:216|354:251,1,77.5,8|2,0:0|0:2,0:0:0:0:
392,320,228496,6,0,P|344:356|256:336,1,155,6|8,0:0|0:0,0:0:0:0:
224,264,229013,1,0,0:0:0:0:
224,264,229185,2,0,P|168:296|64:296,1,155,2|8,0:0|0:0,0:0:0:0:
12,256,229703,2,0,P|32:208|36:168,1,77.5,8|4,0:0|0:0,0:0:0:0:
144,72,230220,6,0,P|220:88|292:44,1,155,8|0,0:0|0:0,0:0:0:0:
416,136,230910,2,0,P|340:120|268:164,1,155,8|2,0:0|0:2,0:0:0:0:
248,228,231427,1,0,0:0:0:0:
256,304,231599,2,0,P|172:320|80:312,2,155,8|0|8,0:0|0:0|0:0,0:0:0:0:
392,352,232634,6,0,P|432:316|440:212,1,155,0|8,0:0|0:0,0:0:0:0:
344,100,233323,2,0,P|304:136|296:240,1,155,0|8,0:0|0:0,0:0:0:0:
260,300,233841,1,0,0:0:0:0:
220,240,234013,2,0,P|224:136|316:32,2,232.5,0|2|8,0:0|0:0|0:3,0:0:0:0:
112,352,235392,6,0,P|64:340|24:244,1,155,4|8,0:0|0:0,0:0:0:0:
52,180,235910,2,0,P|92:196|176:124,1,155,2|0,0:0|0:3,0:0:0:0:
148,64,236427,2,0,P|80:48|24:116,2,155,8|0|8,0:0|0:0|0:0,0:0:0:0:
228,196,237461,2,0,P|254:259|342:267,1,155,2|8,0:2|0:0,0:0:0:0:
396,228,237978,1,0,0:0:0:0:
444,168,238151,6,0,P|424:124|448:20,1,155,0|8,0:0|0:0,0:0:0:0:
364,20,238668,2,0,B|348:63|349:101|349:101|316:124|248:120,1,155,2|0,0:0|0:0,0:0:0:0:
212,92,239185,2,0,P|164:88|124:96,1,77.5,8|0,0:0|0:0,0:0:0:0:
64,120,239530,6,0,P|96:188|80:264,1,155,6|8,0:0|0:0,0:0:0:0:
24,316,240047,1,2,0:2:0:0:
97,342,240220,2,0,P|173:354|253:342,1,155,2|8,0:0|0:0,0:0:0:0:
316,300,240737,2,0,P|360:308|396:328,1,77.5,8|4,0:0|0:0,0:0:0:0:
420,172,241254,6,0,P|460:112|448:32,2,155,8|2|8,0:0|0:0|0:0,0:0:0:0:
348,204,242116,1,2,2:0:0:0:
272,208,242289,2,0,P|192:224|136:312,2,155,0|8|2,0:0|0:0|0:0,0:0:0:0:
424,228,243323,1,2,0:2:0:0:
376,80,243668,6,0,P|320:104|272:192,1,155,0|8,0:0|0:0,0:0:0:0:
284,260,244185,2,0,P|224:248|124:280,1,155
60,252,244703,2,0,P|51:214|48:164,1,77.5,8|0,0:0|0:0,0:0:0:0:
68,100,245047,2,0,P|112:104|148:120,1,77.5,0|0,0:0|0:0,0:0:0:0:
256,80,245392,2,0,P|212:76|172:48,1,77.5,8|0,0:0|0:0,0:0:0:0:
320,44,245737,2,0,P|376:72|404:172,1,155,2|4,0:0|0:3,0:0:0:0:
256,192,246427,5,4,0:0:0:0:
